Welcome Guest ( Log In | Register )

История благодарностей участнику Chasm ::: Спасибо сказали: 3462 раз(а)
Дата поста: В теме: За сообщение: Спасибо сказали:
Yesterday, 12:23:12 Якорь - Над Могучей Страной [ep] (2022)
ЦИТАТА(Terrorizer @ 6th July 2022 - 14:10:58) *
не факт, что если "ты" снял "честное кино", то я не захочу дать тебе в морду.

Зачастую это маркер настоящего искусства и не только в кино
ЦИТАТА(Terrorizer @ 6th July 2022 - 14:10:58) *
Потому что текст не ложится на музыку.

этот я ещё не слушал но предыдущее творчество в полном порядке, если только у слушателя не проблема с восприятием - такое забавное русоязыкофобское явление, что когда поют по английски - не так ярко или вообще не воспринимается смысл, как поют на родном то же самое, а может даже и изящнее сложёное - всё, крах. Это проблема слушателя.
ЦИТАТА(Terrorizer @ 6th July 2022 - 14:10:58) *
Причём, мало того, что, например, сталинская тема совсем не музыкальна, и, прямо поперёк евро-дума.

Данный тезис бы объяснить, а то как по мне он сомнителен.

ЦИТАТА(vpetrov @ 6th July 2022 - 14:15:35) *
Политота

а чё, прям политота? ща ознакомлсь
(2) Emm Human, Faust_Vulkan_16,
Yesterday, 11:49:13 Якорь - Над Могучей Страной [ep] (2022)
Не разумею, чего народ плюётся. Подобно Курску ребята избрали совковое и вообще расеянское бытие как музу и тему для стиля название которого переводится как Рок Судьбы, Погибель, Обречённость.
Разве есть нестыковки?

Вспомню ещё неплохой наш Фьюнерал бэнд с названием на S... с этой тематикой.

ПС: когда смотришь какое нибудь честное кино про нашу отчизну типа Левиафан, Волчок и прочую чернуху - неужели кто то решил что автор этим творчеством поддерживает происходящее в ленте? Может смысл в честности?
(1) Emm Human,
Jul 4 2022, 12:35:24 Immolation - Acts Of God (2022)
4 с лишним месяца откладывал один из, а может самый интересующий меня релиз 2022, ибо группа в тройке любимцев ДМ для меня а со стилем вместе я уже больше пол жизни (на правах рекламы). Да и в отличие от большинства ветеранов они ещё могут.

И что мы видим по первому ознакомлению: прежде всего в новинку для группы облога в стиле живописи напоминающая облоги позднего Hate Eternal (и не только) в углу которой красуется старое лого группы (уже второй альбом кстати). Вторе - звук, не максимально дисторшнен и жирен относительно их дискографии, но мощный и хлещущий по щщам где это нужно, при этом читаемый но не пластиковый (надеюсь единственный их промах в звучании на Кингдом Оф Конспираси останется одиноким напоимнанием о том как не надо.) Глотку Росса выдвинули вперёд что по мне правильное решение. Вобщем этот момент на высоте.

По музыке - Узнаваемо, обилие мрачных диссонирующих риффов тянут бесов на поверхность и перерастают в многослойную бурю, стрекочущую сбивками, соло завихрами, грузно и неотвритмо наступающими рифами и почти ритуальными ритмами.
Альбом реально мрачный!
Кажется здесь больше чем обычно медленных, мрачномелодичных кусков и соло с диссонансами, на которые как на шампур нанизан жирный рык Росса, что создаёт блестящий эффект.
Пару раз появлялась мысль что я слушаю мою любимую песню с прошлого альбома "Lower", но разросшуюся на целый альбом.

Вобщем первое впечатление об альбоме - возможно это лучшее что они выпустили после Providence а может и после Shadows in the Light. Приятнейше.
(3) Alexis The Best, as71, MAPhilosopher,
Jun 30 2022, 08:48:48 Baalsebub - Famine (2022)


*Artist: Baalsebub
*Album: Famine
*Year: 2022
*Genre: Brutal Death Metal
*Country: Estonia
*Format: mp3@VBR300kbps
*Size: 35MB

Tracklist:
1. Famine 02:17
2. Public Flaying of the Martyr 01:44
3. Torquemada 02:28
4. Scavenger's Daughter 01:30
5. Limits of the Body 02:14
6. Decapitation Under Guillotine 02:02
7. Heretic's Fork 02:23
******************************
Total playing time: 14:38



[more=Extended info][/more]

[more=Technical info]
Input File: Baalsebub - Famine - 03 Torquemada.mp3
Channels : 2
Sample Rate : 44100
Precision : 16-bit
Duration : 00:02:28.27 = 6538751 samples = 11120.3 CDDA sectors
File Size : 5.55M
Bit Rate : 299k
Sample Encoding: MPEG audio (layer I, II or III)
Comments :
Title=Torquemada
Artist=Baalsebub
Album=Famine
Tracknumber=3
Year=2022

[/more]

Register
(7) artscald, chipsgott, infozahist, jollo, legion01, sarcophagus, wreak,
Jun 21 2022, 08:56:53 VHS metal compilation 90x
[youtube]DfFhRsWm6yg[/youtube]
сюжетно это напомнило
(3) Occultas, vpetrov, Xor,
Jun 17 2022, 15:17:20 Faustian Spirit - Blessed By The Wings Of Eternity (2022)
ЦИТАТА(isvili @ 17th June 2022 - 11:25:37) *
Хуже этих чилийцев Ad Finem Omnia
Спасибо! а зачем нам эта информация?
(1) Occultas,
Jun 7 2022, 14:11:08 Devourment - 1.3.8 [best Of/compilation] (2000)
Froze,
|из сети
прямая ссыль на скачивание:
Register
(2) Froze, Occultas,
Jun 1 2022, 09:07:12 Enthrallment - Against The Will To Live - Macabre Universe Embrace (2022)
ЦИТАТА(Anarhist815 @ 29th May 2022 - 05:43:36) *
слабейшн.

новое слово? поздравляю! а как же хлебушек там по срунам и гитарная атака?
(1) ingram,
May 11 2022, 09:50:06 Усгвёлчны - Усгвёлчны II (2022)
(5) apries, Dantalian, Occultas, Qliphoth, vosmidesijatye,
May 4 2022, 16:22:23 Darker Mysteria - Ecos De Un Viejo Conjuro [ep] (2021)
ЦИТАТА(Necrokilldozer @ 5th March 2022 - 20:05:38) *
ex-Finish Him

(1) vosmidesijatye,
May 4 2022, 11:21:47 Nile - Ithyphallic (2007)
ЦИТАТА(BleedingSun @ 4th May 2022 - 12:30:11) *
Вторым идёт 2005й год. Совсем немного, но ниже этого.

Никогда не понимал почему Эннигилейшн так многими почитаем. Нет, вопросов нет, качественный звук, всё выверенно. Но по части интенсивности и тяжести 2 предыдущих ему мне видятся более предпочтительными (у меня как раз любимые). ХЗ синдром чего у меня но такая же проблема с признанием топовости творчества у меня с МорбидЭнджел Ковенант, Дэтх-Симболик, кто то ещё был, не помню....
(1) mirotvorets,
May 4 2022, 08:34:20 Traumatomy - Extirpation Paradigms (2021)
Да, альбом из разряда: вышел поздновато, чтобы быть замеченым. С другой стороны парни рубят то что им нравится, делают это хорошо, это ощущается и для истых поклонников жанра это главное.
ЦИТАТА(gobblin @ 3rd May 2022 - 10:56:36) *
оставил себе штук пять.

В рамках оффтопа: какие?

(1) gobblin,
Apr 30 2022, 10:17:50 Necropsy - Chaos Indulged (2022)
подумал было "О Некропси, я кажется их знаю!" а потом на архивах увидел 20 групп с таким именем...
(1) ingram,
Apr 20 2022, 08:57:20 Corpsessed - Succumb To Rot (2022)


*Artist: Corpsessed
*Album: Succumb To Rot
*Year: 2022
*Genre: Death Metal
*Country: Finland
*Format: mp3@CBR128kbps
*Size: 34MB

Tracklist:
1. Succumb to Rot 02:06
2. Relentless Entropy 03:53
3. Death-Stench Effluvium 03:35
4. Spiritual Malevolence 05:27
5. Calling Void 03:57
6. Sublime Indignation 05:33
7. Profane Phlegm 05:19
8. Pneuma Akathartos 06:34
******************************
Total playing time: 36:24




[more=Extended info]low[/more]

[more=Technical info]
Input File: 08 Pneuma Akathartos.mp3
Channels : 2
Sample Rate : 44100
Precision : 16-bit
Duration : 00:06:34.65 = 17404065 samples = 29598.8 CDDA sectors
File Size : 6.40M
Bit Rate : 130k
Sample Encoding: MPEG audio (layer I, II or III)
Comments :
Title=Pneuma Akathartos
Artist=Corpsessed
Album=Succumb To Rot
Tracknumber=8
Year=2022
Genre=Death Metal

[/more]

Register
(7) ALEXSATHANAS, Bzth, john73, jollo, mayrink, metala, vmdrums,
Apr 18 2022, 14:11:24 Twitch Of The Death Nerve - Beset By False Prophets [ep] (2021)
Годный материал.
(1) Occultas,
Apr 15 2022, 09:22:39 Graveland - Hour Of Ragnarok (2021)
Умеренно захватывает при прослушивании, но желания возвращаться не вызывает. Рык Даркена вот нравился всегда.
(1) Occultas,
Apr 14 2022, 11:31:10 Alkerdeel - Slonk (2021)
Годное варево. Экспрессивное. Сладжевое. это не почерневший сладж типа Walk through fire хотя в первом трэке намеки есть, именно сладждум только в нем как по мне. он заметно отличается от остального материала. далее пригрязненная ро блэковая составляющая местами доходящая до депрессива, втч благодаря верещанию вокиллера. Удушливо. Достойно.
кстати названия песен это Огонь, Земля, Вода, Воздух.
(1) Occultas,
Apr 14 2022, 07:58:58 Deviant Process - Nurture (2021)
И всё таки не моё. Подобно обложке - что то интересное, но сути композиции не видно.

Register


(5) kimkayoung, Mencae77, Spunkynut, wanderer73, Луч,
Apr 14 2022, 07:10:01 Крошка Нетопырь И Малыш Мёртвая Голова - Волшебные Рассказы О Былом И Небывалом (2021)
В целом кайфовая демка.
Спецом переслушал спустя пару месяцев. Слушается так же с удовольствием, бывают у.г. лоуфай хз откуда выползшие релизы, которые имеют некоторую долгоиграемость.
Мелодичный роу бм, аутентичный и пусть наивный, как положено. Кое где клавиши в тему использованы. Мелодика выражена. Решительно неплохо.
Имя мне об Ансамбле Христа Спасителя напоминает))))
Бесит тенденция последнего времени не указывать ничего о составе и не выкладывать лирику. Тащемто допустим это скорее всего молочнозубая пионерия и высока вероятность что через пару лет они какой нибудь приблэкованый инди фолк пост-хузнаетчто заиграют. Бывает...
(1) Ainar,
Apr 10 2022, 00:54:29 Kvasir's Blood - The Golden Thread [ep] (2021)


*Artist: Kvasir's Blood
*Album: The Golden Thread [ep]
*Year: 2021
*Genre: Black Metal
*Country: United States
*Format: mp3@CBR192kbps
*Size: 31MB

Tracklist:
01.Heart Of Eternal Fire 04:48
02.Lying In Wait 04:35
03.The Dark Age 03:49
04.The Souls Of Our Fathers 04:58
05. Wyrd 04:57
******************************
Total playing time: 23:07



[more=Technical info]
Input File: 03. The Dark Age.mp3
Channels : 2
Sample Rate : 44100
Precision : 16-bit
Duration : 00:03:48.73 = 10086773 samples = 17154.4 CDDA sectors
File Size : 5.49M
Bit Rate : 192k
Sample Encoding: MPEG audio (layer I, II or III)
Comments :
Title=The Dark Age
Artist=Kvasir's Blood
Album=The Golden Thread (EP)
Tracknumber=03/05
Year=2021
Genre=NS Black Metal

[/more]

Register
(8) artscald, Ildjarn, kim666, Olethros, Olguard, recber, rickzammuto, stormhatt,
Apr 9 2022, 23:48:57 Veter Daemonaz & Lashblood - Храм [split] (2021)
Художественной интересности релиз. Причём первая его часть (Veter Daemonaz) выступает как бы приземлённым суровым телом корней и ствола, а вторая часть (L) - обрастающие первый, растущие на его основе (будучи лишь так возможны) витиеватые надменные ветви и прочие утончённые конечности.
Вообще, по-первой, часть ВД не пришлась (как и много кому) по вкусу из-за бросающегося изначально на слушателя сочетания простоты и пафоса, но вникнув стала ощутима поэтичность и красота в выбраных рамках. Здесь классическая нота тления и неизбежного крушения гордыни человеческой и довлеющий закон возвращения всего нЕкогда господствующего во прах... Конкретная задумка и ёмкая и убедительная реализация.
Lashblood же явившие на последних двух релизах созревший наконец уровень своего творчества, ожидаемо гонят волны возвышенного декаданса, пагубных абстракций и прочих диссонансов сознания и духа, реализованных не стесняясь стилевых рамок.
Как по мне отлично : 5-/5
(2) PossessedMg412, vosmidesijatye,
Apr 9 2022, 23:01:46 Issolei - Devouring Current Pt​.​2: Treacherous Ascent [ep] (2021)
В отличие от полноформата, обладающего большей индивидуальностью, а точнее - более размытой принадлежностью в плане ориентиров в сценах (там я лично больше американской сцены слышу), здесь, т.е. на 2-хдисковом EP - почти не прикрытое прочтение упрощённой схемы ДсО (как например на моём любимом Си Монументуме или каком либо Параклетусе), с небольшими собственными лиричномеланхоличными приправами, что почему то не вызывает отторжения, как от многих других ДсО ваннаби, а напротив слушаешь и наслаждаешься этой неплохо воспроизведённой хрестоматийностью.
(1) vosmidesijatye,
Apr 9 2022, 13:38:03 Destruction Ritual - Destruction Ritual [demo] (2021)
rimfrost,
Этот материал запросто влился бы в рамки что того что другого проекта, в особенности Антей.
(2) Alexis The Best, Occultas,
Apr 5 2022, 23:23:41 Acausal Intrusion - Nulitas (2021)
Альбом неоднократно с удовольствием отслушан. Я бы сказал, тут что то на стыке Antediluvian, Иммо и Горгатс, взрывная хренотень, причём эффект от первого прослушивания тоже как от взрыва - всё смешалось и летит каждый в свою сторону. По мне примечательный релиз по всем, указанным пользователями выше, причинам.
Он Мрачный, именно с большой буквы, то есть, подобно какому либо грандовому блэк альбому, здесь всё направлено на создание именно мрачности - риффы, вокал, ритм- секция, но всё же есть ощущение что этим инструментам тесно в миксе и они смешиваются в атональный винигрет.

Ещё радует и удивляет тот факт что Jared Moran, отвечающий за вокал и драмсы, будучи задействованым в ттаком кол-ве проектов, может быть частью такой крутой работы, хотя бОльшая заслуга в итоговом результате всё же за вторым участником Nythroth
(2) mirotvorets, Occultas,
Apr 4 2022, 12:32:49 Vildhjarta - Masstaden Under Vatten (2021)
ЦИТАТА(vosmidesijatye @ 4th April 2022 - 13:21:34) *
Мишугу новую уже послухал?

не. я пока закрыт для новинок.
(1) vosmidesijatye,

68 Pages V   1 2 3 > » 
- Lo-Fi Version Support form
Copyrights and abuse reports form
Time is now: 7th July 2022 - 15:18:29