Welcome Guest ( Log In | Register )

История благодарностей участнику kostja ::: Спасибо сказали: 6191 раз(а)
Дата поста: В теме: За сообщение: Спасибо сказали:
May 9 2021, 10:06:22 __________, или Голосовалка за лучший альбом 2020 года, ИТОГИ
Впервые в истории голосовалок не слышал альбомов "победителей" и даже не собираюсь.
(1) Bruce,
May 6 2021, 13:47:19 Новости Black-направления
[youtube]wpedfWNCLtY[/youtube]
(2) infiltrator, Occultas,
May 3 2021, 18:20:28 __________, или Голосовалка за лучший альбом 2020 года, ФИНАЛ
Предлагаю следующую официальную голосовалку провести по альбомам и хитам Testament 1488.gif
(5) BleedingSun, infiltrator, Old Vyaine, plfan93, Thrashman,
Apr 28 2021, 12:19:07 Новости направления MBM| Symphonic Black Metal| Post-BM
[youtube]KXV-liK8nPQ[/youtube]
(1) Okultista,
Apr 22 2021, 19:16:55 Кто какие альбомы ждёт? Albums you are waiting for
Жду Линдеманна на русском языке 25.gif
[youtube]reD1JDyvdvg[/youtube]
(2) infiltrator, sabr,
Apr 17 2021, 14:30:38 Wednesday 13 - Necrophaze: Antidote [ep] (2021)


*Artist: Wednesday 13
*Album: Necrophaze: Antidote [ep]
*Year: 2021
*Genre: Heavy Metal/Horror Punk
*Country: United States
*Format: mp3@CBR320kbps
*Size: 35MB

Tracklist:
1. Your Mother Still Sucks Cock in Hell (Frankenstein Drag Queens From Planet 13 Cover) 03:03
2. Screwdriver 2 - The Return 02:14
3. Devil Inside (INXS Cover) 05:15
4. Films (Gary Numan Cover, feat. Calico Cooper) 04:25
******************************
Total playing time: 14:57

[more=Extended info][youtube]jK40mMa0FVI[/youtube]
[youtube]eY8OZKxqF0s[/youtube]
[youtube]m0E-1OJEiP0[/youtube][/more]

[more=Technical info]
Input File: 02 - Screwdriver 2 - The Return.mp3
Channels : 2
Sample Rate : 44100
Precision : 16-bit
Duration : 00:02:14.00 = 5909400 samples = 10050 CDDA sectors
File Size : 5.42M
Bit Rate : 324k
Sample Encoding: MPEG audio (layer I, II or III)
Comments :
Title=Screwdriver 2 - The Return
Artist=Wednesday 13
Album=Necrophaze: Antidote
Tracknumber=2
Year=2021-04-16
Genre=Heavy Metal / Horror Punk

[/more]

Register
(19) Astralgeist, canadaspaceman, caro, chipsgott, Forest Silence, ger_man_thorn, gwar, infiltrator, Kasper969, kluval, Mannard, Mogozoz, Olethros, randumbum, Sanctus, sergsazan, undeadlich, VALERY, varlam4,
Apr 14 2021, 18:27:08 The Offspring - Let The Bad Times Roll (2021)
На японской версии должны быть ещё 3 бонус-трека:

13. Guerre Sous Couvertures [Japan Bonus Track]
14. Here Kitty Kitty [Japan Bonus Track]
15. The Opioid Diaries (Live) [Japan Bonus Track]
(4) infiltrator, Old Vyaine, stone88, Victim of fate,
Apr 6 2021, 12:42:31 Dirkschneider & The Old Gang - Where The Angels Fly [single] (2021)


*Artist: Dirkschneider & The Old Gang
*Album: Where The Angels Fly [single]
*Year: 2021
*Genre: Heavy Metal
*Country: Germany
*Format: mp3@CBR320kbps
*Size: 11MB

Tracklist:
1. Where the Angels Fly 4:57
******************************
Total playing time: 4:57

[more=Extended info][youtube]RmEt6FnFl54[/youtube][/more]

[more=Technical info]
Input File: 01 Where the Angels Fly.mp3
Channels : 2
Sample Rate : 48000
Precision : 16-bit
Duration : 00:04:57.24 = 14267664 samples ~ 22293.2 CDDA sectors
File Size : 11.9M
Bit Rate : 321k
Sample Encoding: MPEG audio (layer I, II or III)
Comments :
Title=Where the Angels Fly
Artist=Dirkschneider & The Old Gang
Album=Where the Angels Fly - Single
Tracknumber=1
Year=2021
Genre=Heavy Metal

[/more]

Register
(9) after21allD, Alexis The Best, caro, infiltrator, Marek, Olethros, Rover, sergsazan, stumpheavyrock,
Apr 6 2021, 12:31:36 Новости Folk/Pagan/Viking
Новый альбом Dalriada "Őszelő” выходит в эту пятницу, 9 апреля.

[youtube]kcfAOcDVhQo[/youtube]
(1) Old Vyaine,
Mar 31 2021, 18:56:44 Swordmaster - Deathraider [ep] (1998)
QUOTE(Deni @ Mar 31 2021, 17:59:28) *
Link not active , please re-upload


re-uploaded!
(1) thenecromancer,
Mar 28 2021, 21:26:28 Новости направления MDM
Hypocrisy закончили запись нового альбома.
https://www.instagram.com/p/CM5BAc0g1_n/?ut...g_web_copy_link
HYPOCRISY ALBUM IS DONE!!!
11 songs, 52 minutes..
mastered and done!
(6) Emm Human, infiltrator, Penetralia, SatanicPanzer, thenecromancer, Thrashman,
Mar 22 2021, 12:05:52 Marduk - World Funeral: Jaws Of Hell MMIII [live] (2020)
Похоже на Transcode, срез на 15 Кгц,
у настоящих 320 kbps должно быть минимум 20 КГц.
(2) infiltrator, Occultas,
Mar 19 2021, 10:09:54 Новости Thrash Metal направления
[youtube]63ONrx67c2E[/youtube]

GO AHEAD AND DIE is:

Max Cavalera - Guitar, Vocals
Igor Amadeus Cavalera - Bass, Guitar, Vocals
Zach Coleman - Drums
(2) Brutal, Samaritianin,
Mar 9 2021, 18:07:47 The Rocking Dildos - Vive La France [ep] (1998)


*Artist: The Rocking Dildos
*Album: Vive La France [ep]
*Year: 1998
*Genre: Black Metal/Punk Rock
*Country: Finland
*Format: mp3@CBR128kbps
*Size: 6MB

Tracklist:
01. Vive La France 01:30
02. Over The Hills And Blown Away 01:52
03. Wank'o'matic 01:35
04. Mental 01:19
05. Mr. Wank 0:07
******************************
Total playing time: 6:23

[more=Technical info]
Input File: 01 - Vive La France.mp3
Channels : 2
Sample Rate : 44100
Precision : 16-bit
Duration : 00:01:29.69 = 3955505 samples = 6727.05 CDDA sectors
File Size : 1.47M
Bit Rate : 131k
Sample Encoding: MPEG audio (layer I, II or III)
Comments :
Title=Vive La France
Artist=The Rocking Dildos
Album=Vive La France
Tracknumber=01
Year=1998
Genre=Black Metal Punk

[/more]

Register
(4) gwar, infiltrator, Olethros, spazm,
Mar 9 2021, 16:06:33 Celestial Season - Black Water Mirrors [single] (2021)


*Artist: Celestial Season
*Album: Black Water Mirrors [single]
*Year: 2021
*Genre: Doom Metal
*Country: Netherlands
*Format: mp3@CBR128kbps
*Size: 6MB

Tracklist:
1. Black Water Mirrors 06:50
******************************
Total playing time: 6:50

[more=Technical info]
Input File: 01 - Black Water Mirrors.mp3
Channels : 2
Sample Rate : 44100
Precision : 16-bit
Duration : 00:06:50.12 = 18086116 samples = 30758.7 CDDA sectors
File Size : 6.69M
Bit Rate : 131k
Sample Encoding: MPEG audio (layer I, II or III)
Comments :
Title=Black Water Mirrors
Artist=Celestial Season
Album=Black Water Mirrors
Tracknumber=1
Year=2021
Genre=Doom Metal

[/more]

Register
(10) chipsgott, infiltrator, infozahist, lacrimatorium, Lucju, Olethros, quarantine, stumpheavyrock, thenecromancer, VALERY,
Mar 7 2021, 10:28:14 Новости Folk/Pagan/Viking
Новый альбом Dalriada "Őszelő" выходит 19 марта на H-Music Records.



1. Ezer élet, ezer csillag
2. Rákóczi zászlaja
3. Dúvad
4. Őszelő
5. Betyár-altató
6. Földanya
7. Huszáros
8. Örökség
9. Őszi ének
10. Ezer csillag

Новый сингл

[youtube]reSszVYoB58[/youtube]
(3) Old Vyaine, RotAnus, Thiarnan,
Mar 1 2021, 19:33:17 Moonspell - Before The Lights Go Out [ep] (2021)


*Artist: Moonspell
*Album: Before The Lights Go Out [ep]
*Year: 2021
*Genre: Gothic Metal
*Country: Portugal
*Format: mp3@CBR320kbps
*Size: 57MB

Tracklist:
1. The Great Leap Forward 04:50
2. Common Prayers (live) 04:19
3. Opium (live) 02:51
4. Everything Invaded (live) 06:24
5. Alma Mater (live) 06:29
******************************
Total playing time: 24:53

[more=Extended info]Tracks 2 - 5 were recorded live in Porto.[/more]

[more=Technical info]
Input File: 01 - The Great Leap Forward.mp3
Channels : 2
Sample Rate : 44100
Precision : 16-bit
Duration : 00:04:50.07 = 12791911 samples = 21755 CDDA sectors
File Size : 11.7M
Bit Rate : 323k
Sample Encoding: MPEG audio (layer I, II or III)
Comments :
Title=The Great Leap Forward
Artist=Moonspell
Album=Before The Lights Go Out
Tracknumber=1/5
Year=2021
Genre=Gothic Metal

[/more]

Register
(54) after21allD, AHBAnep, Alpha_Prime, Aresson, BERZERK, BlaspherionFLUL, boby9052, cancer1974, cesar, chipsgott, Demonologist, dermarsoran, drrmad, Emhyr var Emreis, ger_man_thorn, gwar, Hell_Is_Here, HMHamster, infiltrator, Kasper969, kimkayoung, legion01, Lucju, Lux, Maestrovs, marilin, martintrue, Messian, Metalass, Mogozoz, Old Vyaine, Olethros, Orgasmik, pulotto, quarantine, randumbum, recber, respect, sergsazan, Shadechaser, smes, supremo, Taakeferd, thenecromancer, umnaxtet, undeadlich, VALERY, varlam4, Vitald, Winter Funeral, wreak, Zenial, ZVI, дивин,
Feb 17 2021, 10:51:56 Rotting Christ - Thy Mighty Contract (1993)
Жалко, что тут нет дизлайков на форуме, так бы высеры Ananievа их много набрали 1488.gif
(1) 6666666,
Feb 16 2021, 10:41:19 Yaşru - Maral [single] (2019)
Правильно, срал и замарал. crazy.gif
(1) nsk2008,
Feb 12 2021, 09:14:52 Новости Black-направления
[youtube]iHSVkQCfwnc[/youtube]
(2) infiltrator, Old Vyaine,
Feb 4 2021, 21:38:15 Кто какие альбомы ждёт? Albums you are waiting for
Апдейт ожидаемый релизов:

Lake Of Tears "Ominous" 19.02
Moonspell "Hermitage" 26.02
Empyrium "Über den Sternen" 26.02
Serj Tankian "Elasticity" 19.03
Wolfchant "Omega : Bestia" 09.04;
Debauchery "Monster Metal" 21.05;
Tanzwut "Die Tanzwut kehrt zurück" 28.05

Пока без даты выхода:
Carcass "Torn Arteries"
Dalriada "Őszelő"
Manowar "The Final Battle II" (EP)
Exodus "Persona Non Grata"
Cradle Of Filth "Existence Is Futile"
Megadeth "The Sick, the Dying... and the Dead"
Аркона "Кобь"

Эти альбомы, по слухам, уже записаны, но названия альбомов не известны:
The Offspring
Running Wild
Deathstars
Cruachan
Bodom After Midnight (EP)

Эти альбомы, по слухам, сейчас записываются:
Kreator
Rammstein
Overkill
At The Gates
(2) avather, infiltrator,
Jan 30 2021, 18:15:46 Новости DOOM Metal
[youtube]irWk-toPqHs[/youtube]
(1) vasilisk,
Jan 25 2021, 18:56:56 Paradise Lost - Draconian Times (1995)
QUOTE(Old Vyaine @ Jan 25 2021, 18:54:32) *
Но при этом она и известна поклонникам примерно столько же лет, сколько и альбом.


До 2011 года она вроде нигде не выходила официально...
(2) Occultas, Old Vyaine,
Jan 20 2021, 23:49:06 Новости Folk/Pagan/Viking
Новый сингл Cellar Darling - Dance (2021)

[youtube]Dx5pgaiXigA[/youtube]
(1) Old Vyaine,
Jan 20 2021, 11:54:05 Paradise Lost - Draconian Times (1995)
Да, на втором диске почти всё хлам, кроме песни Last Desire, которая не вошла на альбом.

[youtube]cCRoQaaLlBg[/youtube]
(2) Aresson, Occultas,

38 Pages V   1 2 3 > » 
- Lo-Fi Version Support form
Copyrights and abuse reports form
Time is now: 14th May 2021 - 12:13:00