Welcome Guest ( Log In | Register )

История благодарностей участнику kostja ::: Спасибо сказали: 7935 раз(а)
Дата поста: В теме: За сообщение: Спасибо сказали:
Feb 21 2024, 19:46:27 Новости Thrash Metal направления
С учётом того, что совсем недавно Kerry King объявил о предстоящем соло-альбоме,
это прям вообще неожиданная новость:
Slayer реформировались и анонсировали 2 концерта 22 и 27 сентября в Чикаго и Луисвиле (фестиваль Larger than life)
https://blabbermouth.net/news/its-official-...s-in-five-years
(3) Emm Human, Genuine Thrashiac, Occultas,
Jan 20 2024, 15:35:26 Новости направления MBM| Symphonic Black Metal| Post-BM
Ну тогда и весь Black Metal переоценен, т.к. Rottting Christ - лучшая в блеке, как по мне.
(1) AnthonyHipHopkins,
Jan 20 2024, 13:29:37 Aherusia - Bacchus ~ Epiphanies Of The Crazy God (2022)


*Artist: Aherusia
*Album: Bacchus ~ Epiphanies Of The Crazy God
*Year: 2022
*Genre: Folk/Black Metal
*Country: Greece
*Format: mp3@CBR320kbps
*Size: 179MB

Tracklist:
CD1 - Version of Rapture
01. Ἄπτερος ἵπτασαι - Wingless, though You fly 07:35
02. Άξιος ταύρος - A Sacrifice that matters 05:26
03. Πάλιν έλθών - The Reckoning 04:40
04. Βακχεία - Rapture 05:17
05. Επορεύθην άνέστιος - I roamed alone 05:27
06. Ανάστειτε άνδρείαν άνελκείν - Rise and raise Valor 05:13
07. Άδου ήλιος - Sun of Hades 05:18
CD2 - Version of Lament
08. Ἄπτερος ἵπτασαι - Wingless, though You fly 07:35
09. Άξιος ταύρος - A Sacrifice that matters 05:26
10. Πάλιν έλθών - The Reckoning 04:40
11. Βακχεία - Rapture 05:17
12. Επορεύθην άνέστιος - I roamed alone 05:27
13. Ανάστειτε άνδρείαν άνελκείν - Rise and raise Valor 05:13
14. Άδου ήλιος - Sun of Hades 05:18
******************************
Total playing time: 1:17:52

[more=Extended info][youtube]ej-1Bu74t-g[/youtube][/more]

[more=Technical info]
Input File: 03 - Πάλιν έλθών - The Reckoning (Version of Rapture).mp3
Channels : 2
Sample Rate : 44100
Precision : 16-bit
Duration : 00:04:39.57 = 12329169 samples = 20968 CDDA sectors
File Size : 11.3M
Bit Rate : 322k
Sample Encoding: MPEG audio (layer I, II or III)
Comments :
Title=Πάλιν έλθών - The Reckoning
Artist=Aherusia
Album=Bacchus ~ Epiphanies of the Crazy God (Version of Rapture)
Tracknumber=03
Year=2022
Genre=Folk Black Metal
Discnumber=1

[/more]

Register
(24) AlexSmith, Altkiller, AnthonyHipHopkins, Cartman223, Druidir, Femto, Giak, HMHamster, infozahist, komhs, KVRT, Mogozoz, Narasimha, oldvarg, Shadechaser, talismanFS, VALERY, vasiljev_sergej, VVR, Wail, Weikai, wreak, ZamanFu, Сварог Барг,
Jan 20 2024, 11:36:24 Black Metal в лицах
(1) Occultas,
Jan 19 2024, 20:30:14 Новости направления MBM| Symphonic Black Metal| Post-BM
Новый альбом Rotting Christ "Pro Xristoy (Προ Χρиста)" 24.05.2024

1. Pro Xristoy (Προ Χριστού)
2. The Apostate
3. Like Father, Like Son
4. The Sixth Day
5. La letra del Diavolo
6. The Farewell
7. Pix Lax Dax
8. Pretty World, Pretty Dies
9. ᛦᚵᛑᚱᛆᛋᛁᛚ
10. Saoirse
11. Primal Resurrection
12. All For One

(10) 6666666, AnthonyHipHopkins, avather, Chasm, Deathtractor, Emm Human, Mihalik, Old Vyaine, thenecromancer, vasilisk,
Jan 18 2024, 13:12:28 Adversus - Strafgericht - 10 Letzte Tods​ü​nden (2023)


*Artist: Adversus
*Album: Strafgericht - 10 Letzte Tods​ü​nden
*Year: 2023
*Genre: Avant-Garde Symphonic Metal
*Country: Germany
*Format: mp3@CBR320kbps
*Size: 173MB

Tracklist:
1. Vorladung 03:37
2. Glauben (heisst nicht wissen) 06:20
3. Reigen der Beliebigkeit 07:07
4. Dummheit ist (un)heilbar 06:20
5. Selbst ist die Gerechtigkeit 06:21
6. Los der Feigheit 06:41
7. Meer der Ignoranz 07:52
8. Der Unästhetik hübsch Gesicht 07:11
9. Miss Achtung 08:48
10. Dein enges Herz 06:37
11. Stagnation (heisst Tod) 05:56
12. Das Urteil 01:09
******************************
Total playing time: 1:13:59

[more=Technical info]
Input File: 02 - Adversus - Glauben (heisst nicht wissen).mp3
Channels : 2
Sample Rate : 44100
Precision : 16-bit
Duration : 00:06:20.10 = 16762498 samples = 28507.6 CDDA sectors
File Size : 15.5M
Bit Rate : 326k
Sample Encoding: MPEG audio (layer I, II or III)
Comments :
Title=Glauben (heisst nicht wissen)
Artist=Adversus
Album=Strafgericht - 10 letzte Todsünden
Tracknumber=2/12
Year=2023
Discnumber=1/1

[/more]

Register
(17) Alpha_Prime, Altkiller, artscald, Bregon, Cartman223, chipsgott, csgmnk, gwar, infozahist, Ludwig Hagen, metala, postal67, Reverend, Wail, Weikai, wreak, yuratroll,
Jan 18 2024, 12:59:32 Die Apokalyptischen Reiter - Die Mutter Des Teufels [ep] (2023)


*Artist: Die Apokalyptischen Reiter
*Album: Die Mutter Des Teufels [ep]
*Year: 2023
*Genre: Melodic Extreme Metal
*Country: Germany
*Format: mp3@CBR320kbps
*Size: 35MB

Tracklist:
1. Hallo Freunde 03:21
2. Adler fliegen 03:38
3. Die Mutter des Teufels 02:59
4. Two Children of Mother Night 04:20
******************************
Total playing time: 14:18

[more=Technical info]
Input File: 01 Hallo Freunde.mp3
Channels : 2
Sample Rate : 44100
Precision : 16-bit
Duration : 00:03:21.71 = 8895191 samples = 15127.9 CDDA sectors
File Size : 8.20M
Bit Rate : 325k
Sample Encoding: MPEG audio (layer I, II or III)
Comments :
Title=Hallo Freunde
Artist=Die Apokalyptischen Reiter
Album=Die Mutter des Teufels
Tracknumber=1/4
Year=2023
Genre=Metal

[/more]

Register
(41) A.L.Rapsod, Altkiller, andeimon, Aresson, artscald, Boozer, Carcharoth, Cartman223, cenzored, cesar, chipsgott, csgmnk, GeorG, Grev, gwar, Hell_Is_Here, HMHamster, infozahist, Kasper969, kluval, Lanceatum, metaljosue, metalwoman, Mogozoz, nadin85, Nattfodd, Old Vyaine, oldvarg, Penetralia, princeshr, recber, Reverend, sergsazan, Shadechaser, Vargr, Wail, Weikai, wreak, yuratroll, zhol, zotyo1975,
Jan 16 2024, 12:20:35 Новости Gothic/Symphonic-направления
Новый альбом The Vision Bleak "Weird Tales" 12.04.2024

[youtube]aN7v1FuSuV4[/youtube]

1. Chapter I: Introduction
2. Chapter II: In Rue d'Auseil
3. Chapter III: In Gardens Red, Satanical
4. Chapter IV: Once I Was a Flower
5. Chapter V: The Premature Burial
6. Chapter VI: Mother of Toads
7. Chapter VII: The Graveyard by Nyght in a Thunderstorm
8. Chapter VIII: The Undying One
9. Chapter IX: Evil Dreams Run Deep
10. Chapter X: The Witch with Eyes of Amber
11. Chapter XI: Canticle
12. Chapter XII: To Drink from Lethe

(2) Kaphiel, Woosad,
Jan 9 2024, 16:12:28 Новости Thrash Metal направления
Kerry King записал сольный альбом, как он сам говорит "расширение Slayer'a" и продолжение альбома "Repentless'"

https://blabbermouth.net/news/kerry-king-sa...nsion-of-slayer
(1) Occultas,
Dec 29 2023, 17:00:50 Die Apokalyptischen Reiter - Adler Fliegen [single] (2023)
QUOTE(Senmuth @ Dec 29 2023, 12:55:09) *
Песня про г. Адлер smile3.gif


Нет, это песня про город Орёл, ведь Adler - это орёл по-немецки crazy.gif
(1) Occultas,
Dec 25 2023, 10:31:41 Katatonia - A Sunset Choir For The Daylight Harvest [ep] (2023)
QUOTE(BlackSwordMaster88 @ Dec 25 2023, 01:25:29) *
I chosse the right captcha but the download doesnt start, anyone has the same issue?


Strange, I see no capture and I got no issues at all,
both Yandex links (mp3 & Flac) work just fine.
(1) Occultas,
Dec 24 2023, 12:57:43 Katatonia - A Sunset Choir For The Daylight Harvest [ep] (2023)
Ура! Почти год ждали, пока кто-нибудь выложит, а точнее с 29 января 2023.
Наверное, самый долгожданный релиз этого года headcrab.png
(1) Occultas,
Nov 24 2023, 18:13:34 Новости Black-направления
[youtube]BIL-LMqg0jU[/youtube]
(4) Antichrist, Hexenmeister, Occultas, thenecromancer,
Nov 24 2023, 16:48:07 Новости направления MDM
[youtube]yC3MEQr3KSM[/youtube]
(1) Emm Human,
Nov 17 2023, 14:18:56 Новости Heavy/Power металла
[youtube]D1sKri5YOWk[/youtube]
(1) MetalgeR,
Nov 15 2023, 20:33:07 Новости направления MBM| Symphonic Black Metal| Post-BM
Новый трек от Sakis Tolis.

[youtube]zPj0hy9PqaY[/youtube]
(1) vasilisk,
Oct 24 2023, 14:22:19 Кто какие альбомы ждёт? Albums you are waiting for
Ожидаемые релизы:

W.E.B. "Into Hell Fire We Burn" 26.10
Lindemann "Zunge" 03.11
Paradise Lost "Icon" 01.12
Varathron "The Crimson Temple" 01.12
Therion "Leviathan III" 15.12
(1) Occultas,
Oct 19 2023, 14:58:22 Новости направления MBM| Symphonic Black Metal| Post-BM
Новый альбом Dimmu Borgir "Inspiratio Profanus" 08.12.2023



[youtube]batYCsseqaM[/youtube]
(2) Emm Human, Occultas,
Sep 14 2023, 14:27:16 Кто какие альбомы ждёт? Albums you are waiting for
QUOTE(LadyElvina @ Sep 14 2023, 15:02:33) *
03.11 Insomnium - Songs Of The Dusk [EP]


Это выходило уже в качестве бонус-диска к
Insomnium - Anno 1696 (2023) [post #2744875]
(1) LadyElvina,
Sep 8 2023, 22:36:15 Rotting Christ - The Apocryphal Spells, Vol. I + Vol. Ii [compilation] (2022)
QUOTE(Occultas @ Sep 8 2023, 14:18:45) *
reup,


here you are, 2CD Season Of Mist version 2023

Register
(7) Fyrentennimmar, kimkayoung, kluval, Mist13Signifier, Occultas, princeshr, thenecromancer,
Aug 29 2023, 09:02:41 Сайт долго грузится
Забавно, но "сайт долго грузится" и "сайт долго не грузится" - это одно и то же crazy.gif
(1) Deze,
Aug 19 2023, 17:57:04 Rotting Christ - The Apocryphal Spells, Vol. I + Vol. Ii [compilation] (2022)
Выходит, что на CD "The Apocryphal Spells" (2023) вошли все песни с цифровых EP Vol. I + Vol. II (2022),
кроме трека Noctis Era (Remixed) 04:50

Залил его бонусом, плюс ещё 2 редких концертных трека:

22 - Noctis Era (Remixed), взят с The Apocryphal Spells, Vol. II (EP) (2022)
23 - Societas Satanas (Thou Art Lord cover) (live), взят с Lucifer over Athens (live) 2015
24 - The Sign Of Evil Existence (live feat Nergal and Necroabyssious), взят с The Call (EP) 2018

Register

(5) Aresson, dermarsoran, Occultas, thenecromancer, Zenial,
Aug 18 2023, 13:40:31 Новости Gothic/Symphonic-направления
Новый альбом Within Temptation "Bleed Out" 20.10.2023

01. We Go To War
02. Bleed Out
03. Wireless
04. Worth Dying For
05. Ritual
06. Cyanide Love
07. The Purge
08. Don't Pray For Me
09. Shed My Skin (feat. Annisokay)
10. Unbroken
11. Entertain You

[youtube]qWi17KdvObI[/youtube]

(1) kim666,
Aug 18 2023, 08:31:46 Новости Death Metal направления
[youtube]eQHV5kZrZJs[/youtube]
(1) METALHUNTER,
Aug 18 2023, 08:09:40 Guns N' Roses - Perhaps [single] (2023)
QUOTE(vosmidesijatye @ Aug 18 2023, 07:49:32) *
Чо эт реал официальное новье от группы?


Естественно.

[youtube]qCHPBDN2Tp0[/youtube]
(1) vosmidesijatye,

47 Pages V   1 2 3 > » 
- Lo-Fi Version Support form
Copyrights and abuse reports form
Time is now: 5th March 2024 - 15:57:20