Welcome Guest ( Log In | Register )

История благодарностей участнику kostja ::: Спасибо сказали: 6402 раз(а)
Дата поста: В теме: За сообщение: Спасибо сказали:
Jul 16 2021, 15:20:18 Insomnium - The Antagonist [single] (2021)
QUOTE(Lucifer @ Jul 16 2021, 15:25:35) *
Track list
1 The Conjurer
2 The Reticent
3 The Antagonist
4 The Wanderer


И это всё будет называться EP "The Argent Moon", выходит 17 сентября.
https://metaladdicts.com/insomnium-announce...-argent-moon-ep
(4) infiltrator, krotovich, Old Vyaine, Olrak,
Jul 9 2021, 09:06:56 Новости Thrash Metal направления
[youtube]ybekW8fZHH0[/youtube]
(1) Occultas,
Jun 26 2021, 21:36:11 Thyrfing - Döp Dem I Eld [single] (2021)
I guess it's because the spectrum looks rather odd 1488.gif
(1) NachtWulf,
Jun 25 2021, 19:20:47 Новости Gothic/Symphonic-направления
[youtube]oG-VDwEA6hI[/youtube]
(1) kim666,
Jun 24 2021, 19:23:06 Новости Death Metal направления
DEE SNIDER - Time To Choose ft. George "Corpsegrinder" Fisher

[youtube]T7-ZN1D_85M[/youtube]
(5) infiltrator, Occultas, sabr, Thrashman, troll_swamp,
Jun 24 2021, 12:38:38 Pain - Party In My Head [single] (2021)
Party in My Head - офигенная тема, в десятке лучших у Pain, это точно.
Логическое продолжение Shut your Mouth.
(2) Alpha_Prime, WOLAND,
Jun 19 2021, 22:47:16 Metallica - ...And Justice For All (1988)
QUOTE(Shadowman @ Jun 19 2021, 23:19:59) *
Существенной разницы нет - тут разве что гула больше. Как такового баса не слыхать.


Вообще, в акустических местах его прекрасно слышно в отдельности,
например вот тут:
https://youtu.be/1MkUn1WfjwY?t=3426
(слушай с 57.06)
(1) Occultas,
Jun 19 2021, 19:03:47 Metallica - ...And Justice For All (1988)
QUOTE(vam1972 @ Jun 19 2021, 11:41:21) *
Официальную версию с басом можно не ждать. Авторы не считают нужным.


Чего???
Официальная версия с басом уже выходила официально на переиздании 2018 года
https://www.metal-archives.com/albums/Metal..._for_All/733685
(диск 11, "Rough Mixes from the Vault")
Это как раз и есть тот микс, с которого потом убрали бас.

[youtube]1MkUn1WfjwY[/youtube]
(1) Occultas,
Jun 19 2021, 17:37:40 Blackstar
QUOTE(Occultas @ Jun 19 2021, 18:00:53) *
request for: Blackstar - No Class (Motörhead Cover)


I don't think it was ever released.
(1) Occultas,
Jun 19 2021, 16:27:18 Pain - Party In My Head [single] (2021)


*Artist: Pain
*Album: Party In My Head [single]
*Year: 2021
*Genre: Electronic Metal
*Country: Sweden
*Format: mp3@CBR320kbps
*Size: 16MB

Tracklist:
1. Party in My Head 3:08
2. Gimme Shelter (The Rolling Stones cover) 3:58
******************************
Total playing time: 7:06

[more=Extended info][youtube]5nl7sKwPQo4[/youtube]
[youtube]J4hv_KpH3aY[/youtube][/more]

[more=Technical info]
Input File: 01 - Party in My Head.mp3
Channels : 2
Sample Rate : 44100
Precision : 16-bit
Duration : 00:03:08.20 = 8299576 samples = 14114.9 CDDA sectors
File Size : 7.58M
Bit Rate : 322k
Sample Encoding: MPEG audio (layer I, II or III)
Comments :
Title=Party in My Head
Artist=Pain
Album=Party In My Head
Tracknumber=01
Year=2021
Genre=Metal

[/more]

Register
(18) Alpha_Prime, Aresson, cancer1974, cenzored, garml2, gwar, hellbibber, Hexer, infozahist, Lanceatum, nekrokilldozer, Occultas, Olethros, Phlebotomized, vasilisk, Wail, WOLAND, wreak,
Jun 11 2021, 09:10:07 Dornenreich - Du Wilde Liebe Sei (2021)
бонус-трек:

[youtube]7mYhQyn18OU[/youtube]
(4) infiltrator, krotovich, rominow, Sanctus,
Jun 6 2021, 08:22:39 Libra Feat. My Dying Bride, Apocalyptica, Anneke Van Giersbergen, Paradise Lost, Moonspell, Type O Negative, Athanasia, Ruud Jolie - It Doesn't Matter Two (Lockdown Version) [single] (202
QUOTE(GRAF @ Jun 6 2021, 03:45:26) *
Одно непонятно: что именно в этом цветнике попсы, делает "My Dying Bride" и "Apocalyptica"?


Типа Paradise Lost, Moonspell и Type O Negative - это попса,
а My Dying Bride и Apocalyptica - нет? hmm.gif
(4) Bruce, Deze, Ghostb, infiltrator,
Jun 5 2021, 19:18:04 Libra Feat. My Dying Bride, Apocalyptica, Anneke Van Giersbergen, Paradise Lost, Moonspell, Type O Negative, Athanasia, Ruud Jolie - It Doesn't Matter Two (Lockdown Version) [single] (202


*Artist: Libra Feat. My Dying Bride, Apocalyptica, Anneke Van Giersbergen, Paradise Lost, Moonspell, Type O Negative, Athanasia, Ruud Jolie
*Album: It Doesn't Matter Two (Lockdown Version) [single]
*Year: 2021
*Genre: Melodic Death/Doom Metal
*Country: International
*Format: mp3@VBR274kbps
*Size: 12MB

Tracklist:
1. It Doesn't Matter Two (Lockdown Version) 6:15
******************************
Total playing time: 6:15

[more=Extended info][youtube]exluPmHSHJY[/youtube][/more]

[more=Technical info]
Input File: 01 - It Doesn\'t Matter Two (Lockdown Version).mp3
Channels : 2
Sample Rate : 44100
Precision : 16-bit
Duration : 00:06:15.41 = 16555361 samples = 28155.4 CDDA sectors
File Size : 12.9M
Bit Rate : 276k
Sample Encoding: MPEG audio (layer I, II or III)
Comments :
Title=It Doesn't Matter Two (Lockdown Version)
Artist=Libra feat. My Dying Bride, Apocalyptica, Anneke Van Giersbergen, Paradise Lost, Moonspell, Type O Negative, Athanasia, Ruud Jolie
Album=It Doesn't Matter Two (Lockdown Version)
Year=2021
Genre=Metal
Discnumber=1/1

[/more]

Register
(22) caro, Cartman223, chipsgott, dimmannius, dulak, garml2, gav-gafi, gwynnbleid, infiltrator, infozahist, Old Vyaine, quarantine, rammmirez, Rover, Scuns, skidnik, Taakeferd, thenecromancer, Un4given, Virgil, Wail, wreak,
Jun 3 2021, 21:55:29 Kárpátia - Csatazaj (2021)


*Artist: Kárpátia
*Album: Csatazaj
*Year: 2021
*Genre: Folk Metal
*Country: Hungary
*Format: mp3@CBR320kbps
*Size: 67MB

Tracklist:
1. Harcoljatok 02:20
2. Hópehely 03:45
3. Páncélos menetinduló 03:08
4. A köddel jövök 03:12
5. Barát vagy ellenség 02:28
6. Vadvirágok 02:36
7. Csillagbökös ég tetején 02:14
8. Tüzér 02:57
9. Ihaj-Csuhaj 03:09
10. Vasakarat 02:50
******************************
Total playing time: 28:39

[more=Extended info][youtube]fYfIhAOGTqI[/youtube]
[youtube]TNSbCdab0KY[/youtube]
[youtube]ThSb-otgmjM[/youtube]
[youtube]o4Rcl9RqOsM[/youtube]
[youtube]s3wR1PLmHIg[/youtube][/more]

[more=Technical info]
Input File: 01 - Harcoljatok.mp3
Channels : 2
Sample Rate : 44100
Precision : 16-bit
Duration : 00:02:19.00 = 6129900 samples = 10425 CDDA sectors
File Size : 5.71M
Bit Rate : 328k
Sample Encoding: MPEG audio (layer I, II or III)
Comments :
Title=Harcoljatok
Artist=Kárpátia
Album=Csatazaj
Tracknumber=1
Year=2021-13-05
Genre=Rock
Discnumber=1

[/more]

Register
(25) apostol_13, bOOLty, Bruce, Cartman223, chipsgott, djsema4, gwar, gwynnbleid, HMHamster, infiltrator, infozahist, Mogozoz, Olethros, Orkkh, Pentium.Disel, Phlebotomized, refleks22, Reverend, tt2008, VALERY, varlam4, Vitald, Wail, wreak, Сварог Барг,
Jun 3 2021, 21:43:58 Charlie Benante - Silver Linings (2021)


*Artist: Charlie Benante
*Album: Silver Linings
*Year: 2021
*Genre: Heavy Metal
*Country: United States
*Format: mp3@CBR320kbps
*Size: 146MB

Tracklist:
1. City of Blinding Light (feat. Frank Bello & Mark Osegudea) (U2 cover) 05:47
2. Chloe Dancer / Crown of Thorns (feat. Mark Menghi & Mark Osegueda) (Mother Love Bone cover) 09:05
3. Teardrop (feat. Carla Harvey & Ra Diaz) (Massive Attack cover) 05:56
4. Run Dmc Medley (feat. DMC, Rob Caggiano & Ra Diaz) (Run DMC cover) 05:51
5. Rhiannon (Mark Menghi, Randy Mcstine & Jennifer Cella) (Fleetwood Mac cover) 05:27
6. Yer so Bad (feat. Carla Harvey & Ra Diaz) (Tom Petty cover) 03:06
7. Transylvannia (Snake Sabo, Frank Bello & Jon Donais) (Iron Maiden cover) 04:10
8. Presto Vivace (feat. Ra Diaz, Alex Skolnick & Jordan Rudes) (U.K. cover) 01:34
9. Bad Guy (feat. Ra Diaz) (Billie Eilish cover) 03:12
10. Jimmy James Jam (feat. Ra Diaz) (Beastie Boys cover) 03:29
11. All the Way (feat. PJ Farley, Joe McGinness & John5) (Kiss cover) 03:18
12. Mr. Speed (feat. Joe McGinness & PJ Farley) (Kiss cover) 03:11
13. Public Image (feat. Hank Von Hell, Dave Brownsound & Cone McAslin) (Public Image cover) 03:03
14. Funny Vibe (feat. Ra Diaz, Corey Taylor & Henry Flurry) (Living Colour cover) 03:24
******************************
Total playing time: 1:00:33

[more=Extended info][youtube]SEhaWH2shtE[/youtube][/more]

[more=Technical info]
Input File: 08 - Presto Vivace (feat. Ra Diaz, Alex Skolnick & Jordan Rudes) (U.K. cover).mp3
Channels : 2
Sample Rate : 44100
Precision : 16-bit
Duration : 00:01:34.39 = 4162511 samples = 7079.1 CDDA sectors
File Size : 4.27M
Bit Rate : 362k
Sample Encoding: MPEG audio (layer I, II or III)
Comments :
Title=Presto Vivace (feat. Ra Diaz, Alex Skolnick & Jordan Rudes) (U.K. cover)
Artist=Charlie Benante
Album=Silver Linings
Tracknumber=8/14
Year=2021
Genre=Rock
Discnumber=1/1

[/more]

Register
(17) after21allD, cancer1974, caro, chipsgott, infiltrator, infozahist, Marek, mikkah, Mogozoz, multizwilling, Nobrain-Nopain, Olethros, refleks22, Rover, stumpheavyrock, Wail, wreak,
Jun 3 2021, 21:35:24 Volbeat - Wait A Minute My Girl/Dagen Før [single] (2021)


*Artist: Volbeat
*Album: Wait A Minute My Girl/Dagen Før [single]
*Year: 2021
*Genre: Heavy Metal/Rockabilly
*Country: Denmark
*Format: mp3@CBR320kbps
*Size: 16MB

Tracklist:
01. Wait A Minute My Girl (2:20)
02. Dagen Før (4:10)
******************************
Total playing time: 6:30

[more=Extended info][youtube]ENPzwcwQQ1s[/youtube]
[youtube]Vy1hkuafppQ[/youtube][/more]

[more=Technical info]
Input File: 01 Wait A Minute My Girl.mp3
Channels : 2
Sample Rate : 44100
Precision : 16-bit
Duration : 00:02:20.13 = 6179777 samples = 10509.8 CDDA sectors
File Size : 6.01M
Bit Rate : 343k
Sample Encoding: MPEG audio (layer I, II or III)
Comments :
Title=Wait A Minute My Girl
Artist=Volbeat
Album=Wait A Minute My Girl / Dagen Før
Tracknumber=1
Year=2021-21-20
Genre=Metal

[/more]

Register
(15) BladeOvDarkness, caro, chipsgott, comradEnemy, dafya328, gwar, infiltrator, Lukittaz, Mannard, neludz, Olethros, Reverend, SAPOGi, Wail, wreak,
May 28 2021, 09:06:33 Tanzwut - Die Tanzwut Kehrt Zurück (2021)


*Artist: Tanzwut
*Album: Die Tanzwut Kehrt Zurück
*Year: 2021
*Genre: Folk Metal
*Country: Germany
*Format: mp3@CBR320kbps
*Size: 120MB

Tracklist:
01. Die Tanzwut kehrt zurück:03:41
02. Feine Menschen 03:48
03. Bis zum Meer 04:54
04. Pack (feat. Saltatio Mortis) 04:34
05. Die Geister die wir riefen 04:34
06. Johann 03:34
07. Narziss 03:47
08. Schwarze Löcher 04:41
09. Auf Messers Schneide 03:45
10. Allein 03:39
11. Berlin 03:41
12. Virus 03:45
******************************
Total playing time: 48:23

[more=Extended info][youtube]VY78jhCVgK0[/youtube]
[youtube]UjUp2UjFyyA[/youtube]
[youtube]Hg4YPqXqnlc[/youtube]
[youtube]vINNbsE3qSc[/youtube]
[/more]

[more=Technical info]
Input File: 01 Die Tanzwut kehrt zurück.mp3
Channels : 2
Sample Rate : 44100
Precision : 16-bit
Duration : 00:03:41.59 = 9771943 samples = 16619 CDDA sectors
File Size : 9.61M
Bit Rate : 347k
Sample Encoding: MPEG audio (layer I, II or III)
Comments :
Title=Die Tanzwut kehrt zurück
Artist=Tanzwut
Album=Die Tanzwut kehrt zurück
Tracknumber=01/12
Year=2021
Genre=Folk Metal

[/more]

Register
(34) A.L.Rapsod, Aresson, aviacademy, cancer1974, Chasm, chipsgott, DenisKov, djsema4, DMIYUR, Femto, gwynnbleid, infiltrator, Kasper969, leks, Mogozoz, Mplast, oldvarg, Olethros, Olguard, Paradayz, Reverend, Rover, sergsazan, Shadechaser, smes, supremo, talismanFS, TeamatSE, varlam4, Victim of fate, Wail, wreak, zhol, Сварог Барг,
May 28 2021, 08:53:14 Silver Lake By Esa Holopainen - Silver Lake By Esa Holopainen (2021)


*Artist: Silver Lake By Esa Holopainen
*Album: Silver Lake By Esa Holopainen
*Year: 2021
*Genre: Melodic Progressive Metal/Rock
*Country: International
*Format: mp3@CBR320kbps
*Size: 97MB

Tracklist:
1. Silver Lake (instrumental) 3:04
2. Sentiment (feat. Jonas Renkse of Katatonia) 3:46
3. Storm (feat. Håkan Hemlin of Nordman) 4:14
4. Ray Of Light (feat. Einar Solberg of Leprous) 3:31
5. Alkusointu (feat. Vesa-Matti Loiri) 4:43
6. In Her Solitude (feat Tomi Joutsen of Amorphis) 4:48
7. Promising Sun (feat. Björn 'Speed' Strid of Soilwork / The Night Flight Orchestra) 4:17
8. Fading Moon (feat. Anneke Van Giersbergen) 4:28
9. Apprentice (feat. Jonas Renkse of Katatonia) 4:30
******************************
Total playing time: 37:21

[more=Extended info][youtube]wTQBfqxi4cc[/youtube]
[youtube]deipFVjm2Qk[/youtube][/more]

[more=Technical info]
Input File: 01 - Silver Lake.mp3
Channels : 2
Sample Rate : 44100
Precision : 16-bit
Duration : 00:03:04.46 = 8134862 samples = 13834.8 CDDA sectors
File Size : 8.52M
Bit Rate : 370k
Sample Encoding: MPEG audio (layer I, II or III)
Comments :
Title=Silver Lake
Artist=Silver Lake by Esa Holopainen
Album=Silver Lake by Esa Holopainen
Tracknumber=1/9
Year=2021
Genre=Rock

[/more]

Register
(44) andgrek28, aviacademy, Battaleon, caro, chipsgott, dcatagua, Deada, DenisKov, finmetal, garml2, Ghostb, gwynnbleid, Herrant, HMHamster, infiltrator, judaz, Lukittaz, Marek, MAYH, Mogozoz, Mplast, nadin85, Olethros, Phlebotomized, plfan93, popen13, refleks22, Rover, SaintVitus, Satyr, sergsazan, Slam91, stumpheavyrock, Stutthof, talismanFS, thenecromancer, Tino, varnack, Wail, wreak, xska, Yarri, ZA670, Сварог Барг,
May 22 2021, 22:22:24 Новости Thrash Metal направления
20 августа выходит новый EP Sodom "Bombenhagel"

01. Bombenhagel (6:06)
02. Coup De Grace (3:06)
03. Pestiferous Posse (5:05)


(3) Emm Human, infiltrator, Occultas,
May 9 2021, 10:06:22 __________, или Голосовалка за лучший альбом 2020 года, ИТОГИ
Впервые в истории голосовалок не слышал альбомов "победителей" и даже не собираюсь.
(1) Bruce,
May 6 2021, 13:47:19 Новости Black-направления
[youtube]wpedfWNCLtY[/youtube]
(2) infiltrator, Occultas,
May 3 2021, 18:20:28 __________, или Голосовалка за лучший альбом 2020 года, ФИНАЛ
Предлагаю следующую официальную голосовалку провести по альбомам и хитам Testament 1488.gif
(5) BleedingSun, infiltrator, Old Vyaine, plfan93, Thrashman,
Apr 28 2021, 12:19:07 Новости направления MBM| Symphonic Black Metal| Post-BM
[youtube]KXV-liK8nPQ[/youtube]
(1) Okultista,
Apr 22 2021, 19:16:55 Кто какие альбомы ждёт? Albums you are waiting for
Жду Линдеманна на русском языке 25.gif
[youtube]reD1JDyvdvg[/youtube]
(2) infiltrator, sabr,
Apr 17 2021, 14:30:38 Wednesday 13 - Necrophaze: Antidote [ep] (2021)


*Artist: Wednesday 13
*Album: Necrophaze: Antidote [ep]
*Year: 2021
*Genre: Heavy Metal/Horror Punk
*Country: United States
*Format: mp3@CBR320kbps
*Size: 35MB

Tracklist:
1. Your Mother Still Sucks Cock in Hell (Frankenstein Drag Queens From Planet 13 Cover) 03:03
2. Screwdriver 2 - The Return 02:14
3. Devil Inside (INXS Cover) 05:15
4. Films (Gary Numan Cover, feat. Calico Cooper) 04:25
******************************
Total playing time: 14:57

[more=Extended info][youtube]jK40mMa0FVI[/youtube]
[youtube]eY8OZKxqF0s[/youtube]
[youtube]m0E-1OJEiP0[/youtube][/more]

[more=Technical info]
Input File: 02 - Screwdriver 2 - The Return.mp3
Channels : 2
Sample Rate : 44100
Precision : 16-bit
Duration : 00:02:14.00 = 5909400 samples = 10050 CDDA sectors
File Size : 5.42M
Bit Rate : 324k
Sample Encoding: MPEG audio (layer I, II or III)
Comments :
Title=Screwdriver 2 - The Return
Artist=Wednesday 13
Album=Necrophaze: Antidote
Tracknumber=2
Year=2021-04-16
Genre=Heavy Metal / Horror Punk

[/more]

Register
(20) Astralgeist, canadaspaceman, caro, chipsgott, Forest Silence, ger_man_thorn, gwar, infiltrator, Kasper969, kluval, Mannard, Mogozoz, Olethros, randumbum, Sanctus, sergsazan, undeadlich, VALERY, varlam4, wreak,

39 Pages V   1 2 3 > » 
- Lo-Fi Version Support form
Copyrights and abuse reports form
Time is now: 6th August 2021 - 05:19:06