Welcome Guest ( Log In | Register )

История благодарностей участнику kostja ::: Спасибо сказали: 6590 раз(а)
Дата поста: В теме: За сообщение: Спасибо сказали:
Yesterday, 12:50:52 Bucovina - Stahl Kennt Keinen Rost [single] (2019)


*Artist: Bucovina
*Album: Stahl Kennt Keinen Rost [single]
*Year: 2019
*Genre: Black/Folk Metal
*Country: Romania
*Format: mp3@CBR320kbps
*Size: 13MB

Tracklist:
1. Stahl kennt keinen Rost (feat. Robert Dahn) 05:39
******************************
Total playing time: 5:39

[more=Extended info]Featuring Robert Dahn (Equilibrium) on vocals.
[youtube]wejUKxpNNVU[/youtube][/more]

[more=Technical info]
Input File: Bucovina - Stahl kennt keinen Rost.mp3
Channels : 2
Sample Rate : 44100
Precision : 16-bit
Duration : 00:05:39.61 = 14976801 samples = 25470.8 CDDA sectors
File Size : 13.6M
Bit Rate : 320k
Sample Encoding: MPEG audio (layer I, II or III)
Comments :
Title=Stahl kennt keinen Rost
Artist=Bucovina
Album=Stahl kennt keinen Rost (single)
Tracknumber=1
Year=2019
Genre=Pagan Metal

[/more]

Register
(9) artscald, Dante_D, sergsazan, stormhatt, supremo, varlam4, vasiljev_sergej, Wail, Wilczygniew Strzygoń,
Yesterday, 12:41:56 Black Crucifixion - Triginta (2021)


*Artist: Black Crucifixion
*Album: Triginta
*Year: 2021
*Genre: Black Metal
*Country: Finland
*Format: mp3@CBR320kbps
*Size: 82MB

Tracklist:
1. Night Birds Fall upon You 05:05
2. Beyond Linkola 03:11
3. Throneburner 03:34
4. Bitten by the Long Frosts of Life [live] 04:46
5. Frailest [live] 03:16
6. As Black as the Roses (as Weak as My Smile) [live] 03:18
7. Wrath without Hate [live] 03:47
8. Retaliation [live] 04:23
9. Black Crucifixion [live] 03:47
******************************
Total playing time: 35:07

[more=Extended info][youtube]lCAq_RX3bH0[/youtube][/more]

[more=Technical info]
Input File: 02 - Beyond Linkola.mp3
Channels : 2
Sample Rate : 44100
Precision : 16-bit
Duration : 00:03:11.51 = 8445415 samples = 14363 CDDA sectors
File Size : 7.85M
Bit Rate : 328k
Sample Encoding: MPEG audio (layer I, II or III)
Comments :
Title=Beyond Linkola
Artist=Black Crucifixion
Album=Triginta
Tracknumber=2/9
Year=2021-00-00
Genre=Black Metal

[/more]

Register
(21) aleon, AlexSmith, artscald, GorAtheist, Hexer, INDARKNESS, kim666, legion01, Marek, NachtWulf, nemx, Occultas, robertho777, stormhatt, stub888, supremo, thenecromancer, varlam4, vasiljev_sergej, Wail, wtk.412,
Nov 9 2021, 19:43:14 Новости направления MDM
А вот и клип подъехал!

[youtube]WByGv-qdZ4w[/youtube]
(3) Andrew, Emm Human, Winterdark,
Nov 9 2021, 12:35:55 Новости направления MDM
Кайф! Кайф Кайф! 20.gif

THE HALO EFFECT, the new project featuring five former members of the Swedish metal band IN FLAMES —

Jesper Strömblad (guitar),
Daniel Svensson (drums),
Peter Iwers (bass),
Niclas Engelin (guitar)
Mikael Stanne (vocals)

[youtube]_FHhYyze6qo[/youtube]
(1) plfan93,
Nov 7 2021, 22:24:32 Necromantia - To The Depths We Descend... (2021)
Бонус трек:

9. Faceless Gods MMXXI 03:49

[youtube]5kE9frXZmzw[/youtube]
(1) Occultas,
Nov 4 2021, 17:35:17 Новости Thrash Metal направления
оооо, вот это мега-новость 9.gif
Есть уже и обложка и треклист
https://www.cherryred.co.uk/product/lawnmow...ers-cd-edition/



Track Listing:

1 Into The Pit
2 I Don’t Want To
3 Botheration
4 Swarfega
5 Bastard Squad
6 Now He’s A Priest
7 Good Morning, Phil
8 Bobblehead
9 Raise Your Snails
10 Deth! Maim! Kill!
11 Christ Options
12 Hell’s Teeth
13 Blunt Cutters
14 Space Herpes
15 Nothing But Noise
16 Goodnight, Bob
17 Power Bagging
18 Agency Of COB
(2) Emm Human, METALHUNTER,
Oct 26 2021, 14:52:44 Mortemia - The Pandemic Pandemonium Sessions [ep] (2021)


*Artist: Mortemia
*Album: The Pandemic Pandemonium Sessions [ep]
*Year: 2021
*Genre: Symphonic Gothic Metal
*Country: Norway
*Format: mp3@CBR320kbps
*Size: 54MB

Tracklist:
01. The Enigmatic Sequel (feat. Madeleine Liljestam) 04:10
02. Death Turns a Blind Eye (feat. Marcela Bovio) 05:33
03. The Hour of Wrath (feat. Alessia Scolletti) 03:46
04. Decadence Deepens Within (feat. Liv Kristine) 05:03
05. Devastation Bound (feat. Melissa Bonny) 04:36
******************************
Total playing time: 23:08

[more=Extended info][youtube]QDUJneqp0zc[/youtube]
[youtube]OtiWEpond7Q[/youtube]
[youtube]xZh6NSAPvfE[/youtube]
[youtube]3fKeUVUa1Mg[/youtube]
[youtube]9awjxAjzcoI[/youtube][/more]

[more=Technical info]
Input File: 03 - The Hour of Wrath (feat. Alessia Scolletti).mp3
Channels : 2
Sample Rate : 44100
Precision : 16-bit
Duration : 00:03:45.97 = 9965101 samples = 16947.5 CDDA sectors
File Size : 9.26M
Bit Rate : 328k
Sample Encoding: MPEG audio (layer I, II or III)
Comments :
Title=The Hour of Wrath (feat. Alessia Scolletti)
Artist=Mortemia
Album=The Pandemic Pandemonium Sessions
Tracknumber=3
Year=2021
Genre=Symphonic Gothic Metal

[/more]

Register
(37) Alpha_Prime, artscald, Brutal, cacicandriera, cancer1974, caro, Cartman223, chipsgott, csgmnk, dulak, Evjenne, Femto, GorAtheist, gwar, gwynnbleid, kimkayoung, kluval, kryptor, leks, Ludwig Hagen, Lunaris, Maestrovs, Metalass, Mogozoz, Old Vyaine, oldvarg, Olethros, Olrak, postal67, sergsazan, thenecromancer, valera2010, VALERY, vasilisk, wreak, Zenial, Сварог Барг,
Oct 26 2021, 13:02:09 Новости направления MDM
16 декабря выходит новый альбом Eucharist "I Am the Void"
https://www.metal-archives.com/albums/Eucha...the_Void/971493

новый сингл очень крут! 20.gif

[youtube]Q-cJyDzIKxs[/youtube]
(1) Emm Human,
Oct 16 2021, 21:21:19 Новости Thrash Metal направления
QUOTE(babanguida @ Oct 16 2021, 21:32:02) *
Another mind reader that thinks for others. 1488.gif


Only fools think that simple observations require some mind reading skills...
(2) 6666666, Old Vyaine,
Oct 16 2021, 21:17:59 Pain - Just Hate Me [ep] (2002)
QUOTE(iiiyyy @ Oct 16 2021, 21:05:55) *
kostja,
can you re-upload it please?


re-uploaded
(new links in the header)
(1) iiiyyy,
Oct 16 2021, 20:30:39 Новости Thrash Metal направления
QUOTE(babanguida @ Oct 16 2021, 20:23:11) *
Another song from Donald Duck:


why are you so confident that nobody could post this before you? crazy.gif
(1) Old Vyaine,
Oct 15 2021, 17:57:50 Новости Thrash Metal направления
[youtube]aL8RvpLGZNM[/youtube]
(2) cancer1974, Emm Human,
Oct 14 2021, 21:21:17 Necromantia - To The Depths We Descend... (2021)
На Digipak версии есть ещё бонус:

9. Faceless Gods MMXXI

https://www.metal-archives.com/albums/Necro...46;./952210
(1) Occultas,
Oct 2 2021, 11:46:56 Various Artists - Black Waves Of Adrenochrome (The Sisters Of Mercy Tribute) [compilation] (2021)


*Artist: Various Artists
*Album: Black Waves Of Adrenochrome (The Sisters Of Mercy Tribute) [compilation]
*Year: 2021
*Genre: Various Metal
*Country: Many
*Format: mp3@CBR320kbps
*Size: 145MB

Tracklist:
1. Frown - Heartland 04:17
2. Atrocity - More 05:59
3. Paradise Lost - Walk Away 03:26
4. Cradle of Filth - No Time to Cry 03:24
5. Deadlock - Temple of Love 03:08
6. Nevergreen - More 06:43
7. Maryslim/Jyrki69 - This Corrosion 04:26
8. Daeonia - Alice 03:31
9. Kreator - Lucretia My Reflection 05:23
10. Cadaverous Condition/Kara Cephe - Floorshow 04:21
11. Dan Swanö - Lucretia My Reflection 04:10
12. Dreadful Shadows - 1959 03:28
13. Crematory - Temple of Love 04:46
14. Columbia Obstruction Box - Marian 05:43
******************************
Total playing time: 1:02:45

[more=Technical info]
Input File: 05 Deadlock - Temple of Love.mp3
Channels : 2
Sample Rate : 44100
Precision : 16-bit
Duration : 00:03:07.00 = 8246700 samples = 14025 CDDA sectors
File Size : 7.63M
Bit Rate : 326k
Sample Encoding: MPEG audio (layer I, II or III)
Comments :
Title=Temple of Love
Artist=Deadlock
Album=Black Waves of Adrenochrome (The Sisters of Mercy Tribute)
Tracknumber=5
Year=2021-06-25
Genre=Metal
Discnumber=1

[/more]

Register
(10) Bruce, Brutal, caro, gwar, Hell_Is_Here, Marek, Ostinato, robertho777, wreak, xska,
Sep 30 2021, 17:34:52 Klamydia - Hiljainen Pöytä Läheltä Orkesteria (2021)


*Artist: Klamydia
*Album: Hiljainen Pöytä Läheltä Orkesteria
*Year: 2021
*Genre: Punk Rock
*Country: Finland
*Format: mp3@CBR320kbps
*Size: 102MB

Tracklist:
1. Harmaa jätti 03:58
2. Sydämessä mukana 03:25
3. Yhdet Suomelle 03:28
4. Äijä ja poika 03:13
5. Pieni suuri elämä 03:37
6. Väärillä raiteilla 02:48
7. Hiljainen pöytä 03:01
8. Peilikuva 03:38
9. Hikiviiksen hekuma 03:50
10. Kaverii ei jätetä 03:07
11. Seinäruusunen 03:12
12. Outo aika 03:59
13. Surutyö 03:21
******************************
Total playing time: 44:37

[more=Extended info][youtube]OaHnHj5b85Q[/youtube]
[youtube]MzdonA1_c5g[/youtube]
[youtube]cg7B8WuhM0Q[/youtube][/more]

[more=Technical info]
Input File: 06 - Väärillä raiteilla.mp3
Channels : 2
Sample Rate : 44100
Precision : 16-bit
Duration : 00:02:48.10 = 7413386 samples = 12607.8 CDDA sectors
File Size : 6.75M
Bit Rate : 321k
Sample Encoding: MPEG audio (layer I, II or III)
Comments :
Title=Väärillä raiteilla
Artist=Klamydia
Album=Hiljainen pöytä läheltä orkesteria
Tracknumber=6
Year=2021
Genre=Punk Rock

[/more]

Register
(6) dcatagua, gwar, oldvarg, Olethros, p4B10, zobero,
Sep 30 2021, 17:22:52 Vesku Jokinen & Klamydia - Vain Elämää (2020)


*Artist: Vesku Jokinen & Klamydia
*Album: Vain Elämää
*Year: 2020
*Genre: Punk Rock
*Country: Finland
*Format: mp3@CBR320kbps
*Size: 82MB

Tracklist:
1. Joulu piritalossa (feat. Arja Koriseva) 04:12
2. Roy Orbison (Stig cover) 03:19
3. Härkäinen myrkynkeittäjä (Maria Rahikainen cover) 03:04
4. Huominen on sun (Reino Nordin cover) 03:01
5. Aplodit mulle (Jannika B cover) 03:21
6. Enkeleitä yövuorossa (Arja Koriseva cover) 04:04
7. Salama (Maj Karma cover) 03:24
8. Muisto vain jää (Norman Bergen cover) 02:09
9. Enkelin silmin (Arja Koriseva cover) 02:51
10. Tonttu (Lyyli Wartiovaara-Kallioniemi cover) 02:48
11. 1939 (Antony Parviainen cover) 03:40
******************************
Total playing time: 35:53

[more=Extended info][youtube]IQDx77ndaAc[/youtube][/more]

[more=Technical info]
Input File: 08 - Muisto vain jää (Norman Bergen cover).mp3
Channels : 2
Sample Rate : 44100
Precision : 16-bit
Duration : 00:02:08.74 = 5677258 samples = 9655.2 CDDA sectors
File Size : 5.18M
Bit Rate : 322k
Sample Encoding: MPEG audio (layer I, II or III)
Comments :
Title=Muisto vain jää (Norman Bergen cover)
Artist=Klamydia
Album=Vain elämää
Tracknumber=8
Year=2020
Genre=Rock

[/more]

Register
(1) gwar,
Sep 30 2021, 16:45:00 Katavasia - Invoking The Spirit Of Doom [ep] (2021)


*Artist: Katavasia
*Album: Invoking The Spirit Of Doom [ep]
*Year: 2021
*Genre: Melodic Black Metal
*Country: Greece
*Format: mp3@CBR320kbps
*Size: 23MB

Tracklist:
1. Descending to Acheron 05:03
2. Premonition of Doom 04:32
******************************
Total playing time: 9:35

[more=Technical info]
Input File: 02 - Premonition of Doom.mp3
Channels : 2
Sample Rate : 44100
Precision : 16-bit
Duration : 00:04:32.00 = 11995200 samples = 20400 CDDA sectors
File Size : 11.1M
Bit Rate : 326k
Sample Encoding: MPEG audio (layer I, II or III)
Comments :
Title=Premonition of Doom
Artist=Katavasia
Album=Invoking the Spirit of Doom
Tracknumber=2
Year=2021-10-01
Genre=Black Metal
Discnumber=1

[/more]

Register
(41) Angeldemon617, AnthonyHipHopkins, artscald, Black Cat, Boozer, BugEyes, Bzth, caro, gwynnbleid, Hell_Is_Here, igore2911, Ildjarn, judaz, kimkayoung, kluval, Lux, madera, Marek, Mencae77, Metalass, Mogozoz, nadin85, nemx, Olethros, Olrak, Paradayz, raattent, rammmirez, Reverend, sergsazan, Shadechaser, smes, symphonicadiction, VALERY, varlam4, vasiljev_sergej, VLADISLAV_V_K, vov7609, wreak, zhol, Авел,
Sep 26 2021, 21:18:44 Emperor - As The Shadows Rise [ep] (1994)
QUOTE(milosdjor @ Sep 26 2021, 21:20:32) *
Anyone have CD rip (Hammerheart Records re-release)?


it has been included onto the remastered 2020 re-issue of the Wrath of the Tyrant demo:
Emperor - Wrath Of The Tyrant [demo] (1992) [post #2519854]
(2) milosdjor, Occultas,
Sep 8 2021, 10:48:04 Пламя В Нас - Жаворонок (2021)
Переиздание под другим именем:
Рви Меха! - Жаворонок (2017)
(2) judaz, Shadechaser,
Aug 30 2021, 22:04:05 Новости Black-направления
[youtube]NtU4v_u7pUs[/youtube]
(8) Antichrist, cancer1974, Hexer, Kristaliar, Paatddal, sabr, thenecromancer, troll_swamp,
Aug 14 2021, 10:34:34 Новости Death Metal направления
QUOTE(babanguida @ Aug 14 2021, 11:15:26) *
Very poor.


but still better than other 99% of death metal shit
(1) Deze,
Aug 13 2021, 13:27:24 Новости Folk/Pagan/Viking
[youtube]BXXUTKQjIjU[/youtube]
(1) dragonhead,
Aug 13 2021, 10:07:00 Новости Death Metal направления
[youtube]34uxC0cfQc4[/youtube]
(5) Emm Human, METALHUNTER, obscenity, Occultas, troll_swamp,
Jul 17 2021, 11:52:12 Mayhem - Atavistic Black Disorder/Kommando [ep] (2021)
4. In Defense of Our Future (Discharge cover) 02:14
5. Hellnation (Dead Kennedys cover) 02:25
6. Only Death (Rudimentary Peni cover) 01:17
7. Commando (Ramones cover) 01:36

Единственные песни в исполнении Mayhem, которые более-менее понравились за всё их время существования 1488.gif
(1) Occultas,
Jul 16 2021, 15:20:18 Insomnium - The Antagonist [single] (2021)
QUOTE(Lucifer @ Jul 16 2021, 15:25:35) *
Track list
1 The Conjurer
2 The Reticent
3 The Antagonist
4 The Wanderer


И это всё будет называться EP "The Argent Moon", выходит 17 сентября.
https://metaladdicts.com/insomnium-announce...-argent-moon-ep
(4) infiltrator, krotovich, Old Vyaine, Olrak,

40 Pages V   1 2 3 > » 
- Lo-Fi Version Support form
Copyrights and abuse reports form
Time is now: 29th November 2021 - 23:05:03