Welcome Guest ( Log In | Register )

История благодарностей участнику nbhfy ::: Спасибо сказали: 9655 раз(а)
Дата поста: В теме: За сообщение: Спасибо сказали:
Apr 6 2013, 20:34:09 Репутации: Satanath и Fess в центре скандала
ЦИТАТА(Gestell @ Apr 6 2013, 23:22:15) *
Это не анархия, это советская власть, власть советов.


начните распространение её с хэви-музик.сру , а там посмотрим
(1) Emm Human,
Apr 6 2013, 19:21:18 Репутации: Satanath и Fess в центре скандала
Ну чо ,все сходили по нужде? Може пора модерам закрыть общественный туалет?
(3) aserius, Emm Human, Fess,
Apr 5 2013, 20:53:26 Detente - Recognize No Authority (1986)
[youtube]-nAA5cHISzk[/youtube]

Register
(6) avkruchinin, death77, muskatnuss, Samaritianin, Tino, troll_swamp,
Apr 5 2013, 20:27:00 Donor - Release (1994)


Register
(4) Kowalski, muskatnuss, varlam4, vosmidesijatye,
Apr 5 2013, 19:24:26 Judas Priest - Demolition (2001)
ЦИТАТА(hammer @ Apr 5 2013, 22:03:59) *
Они друг друга стоят.По музыке разные как вьетнамок и унт,но одинаковы в своей унылости..

Ну тут вот не уверен,в сабже есть приличные треки,к примеру

[youtube]kVrI06NhEvk[/youtube]

Его можно сравнить с Angel of Retribution,где тоже есть выборочно неплохие весчи. Но Нострадамус это конечно 21.gif
(1) hammer,
Apr 5 2013, 15:40:02 Crematory - Transmigration (1993)
[youtube]w1-jWsFFFUc[/youtube]

Всегда с удовольствием переслушиваю именно ранние альбомы, картинки из молодости так и прут ....круть !

Можно и в таком варианте 1488.gif

[youtube]bj_cfsL6Ljs[/youtube]

(1) Mick Dundee,
Apr 5 2013, 15:04:57 Crematory - Act Seven (1999)
[youtube]sslkkDQhy58[/youtube]

танцуют усе banana.gif
(1) death77,
Apr 5 2013, 08:09:25 Black Sabbath
[youtube]d4p86ALnIzo[/youtube]

Фрагмент маловат,но похоже альбом будет как минимум на уровне! Саунд как у Метлы загрузочного периода
(1) Diflock,
Apr 5 2013, 07:53:04 Новости Death Metal направления
немецкий ATROCITY вернулись к дэт митольному звучанию,сплав ранних альбомов с саундом Атлантиса. pray.gif новая песня и превью к альбому

[youtube]Cfl1MlfAcWM#![/youtube] [youtube]IcP7I_s7q1Y[/youtube]
(3) HA7tur, slack, Vrolok,
Apr 3 2013, 18:13:58 Infectious Grooves - Groove Family Cyco (1994)
[youtube]RYc3BBWoGVU[/youtube]

Register
(1) snot,
Apr 3 2013, 09:54:59 Mammoth Mammoth - Mammoth (2009)
ЦИТАТА(terrano2006 @ Apr 3 2013, 11:44:14) *
P.S. Пипл сайта не проперло, ну я да я сам такой, смотрю только свежак, на все времени не найти..


лучше тысяч слов, ссылка на прослушку http://www.mammothmammoth.com/
(1) terrano2006,
Apr 3 2013, 09:42:10 Black Space Riders - Black Space Riders (2010)
Register
(3) dead can dance, marilin, muskatnuss,
Apr 3 2013, 06:18:52 Anthrax - Anthems [ep] (2013)
[youtube]Csx2KbWIR4o[/youtube]


Register
(1) Maniakk,
Apr 2 2013, 21:55:46 Heavy Load - Full Speed At High Level (1978)
Register
(3) oldvarg, Unleashed, wgs73,
Apr 2 2013, 21:49:38 Heavy Load - Stronger Than Evil (1983)
Register
(3) oldvarg, Unleashed, wgs73,
Apr 2 2013, 21:40:17 Sorcery - Till Death Do We Part (1980)
[youtube]-GRkpwQxse4[/youtube]

Register


припанкованный Блэк Саббат + Hawkwind......советую
(2) hounced, Sky7Daemon,
Apr 2 2013, 21:10:10 Stone Sour - House Of Gold & Bones: Part 2 (2013)
почему я не могу сам себе спасибо поставить? 13.gif
(3) Anger, Mahmud_1, Ostinato,
Apr 2 2013, 20:55:54 Stone Sour - House Of Gold & Bones: Part 2 (2013)


*Artist: Stone Sour
*Album: House Of Gold & Bones: Part 2
*Year: 2013
*Genre: Alternative Metal/Nu-Metal
*Country: United States
*Format: mp3@CBR320kbps
*Size: 125MB

Tracklist:
01. Red City (4:39)
02. Black John (4:03)
03. Sadist (5:08)
04. Peckinpah (4:11)
05. Stalemate (4:48)
06. Gravesend (4:41)
07. '82 (3:42)
08. The Uncanny Valley (4:02)
09. Blue Smoke (2:07)
10. Do Me A Favor (3:44)
11. The Conflagration (4:56)
12. The House Of Gold & Bones (4:55)
13. Shine [Rough Demo] (3:26)
******************************
Total playing time: 54:22



[more=Extended info]


Input File: 02. Black John.mp3
Channels : 2
Sample Rate : 44100
Precision : 16-bit
Duration : 00:04:02.96 = 10714712 samples = 18222.3 CDDA sectors
File Size : 9.81M
Bit Rate : 323k
Sample Encoding: MPEG audio (layer I, II or III)
Comments :
Title=Black John
Artist=Stone Sour
Album=House Of Gold & Bones Part 2
Tracknumber=2/13
Year=2013
Genre=Alternative
Discnumber=1/1

[/more]

Register
(17) Aelitha, garretje, gena, Greymen, J0k3r, lyukon, Mahmud_1, MeatKnife, Mist13Signifier, nikfo, savaman, shadow666, sidJoy, silencer666, StoneTemple, vyrex, zerger,
Apr 2 2013, 16:33:36 Escadaia - Риверделл (2013)
не турецкий блэк,прохожу мимо
(1) aserius,
Apr 2 2013, 09:47:05 Torment Tool - Dawn Of War (2010)
Register
(1) metalboll,
Mar 31 2013, 13:09:03 Bride - Silence Is Madness (1989)
Register
(1) varlam4,
Mar 30 2013, 16:53:22 Infectious Grooves - The Plague That Makes Your Booty Move (1991)
[youtube]Ob3buKk6ALc[/youtube]


Register
(1) varlam4,
Mar 29 2013, 21:55:32 Portal - Vexovoid (2013)
Register
(15) Aresson, as71, doomTemplar, Dr.Grind Oim, Evgundel, gena, Hswhhh, infiltrator, muskatnuss, neoatheist, odin77da, RUSP73, svartrest, unas.slayer.of.gods, Vlood,
Mar 29 2013, 17:05:55 Gods Of Hellfire - Beneath The Waves [ep] (2012)
ЦИТАТА(Дерсу Узала @ Mar 29 2013, 20:03:26) *
но лучше, наверное, термином "прото-дум"


dooo.gif несомненно
(1) Дерсу Узала,
Mar 29 2013, 16:51:06 Elm Street - Barbed Wire Metal (2011)
Register
(1) Skybolter,

114 Pages V   1 2 3 > » 
- Lo-Fi Version Support form
Copyrights and abuse reports form
Time is now: 11th December 2019 - 09:26:45