Welcome Guest ( Log In | Register )

История благодарностей участнику p42es ::: Спасибо сказали: 3356 раз(а)
Дата поста: В теме: За сообщение: Спасибо сказали:
Feb 20 2016, 18:04:33 An Open Letter - An Open Letter [ep] (2015)
ЦИТАТА(Misanthrope@ @ Feb 20 2016, 19:25:22) *
Меня выкидывает на магазины типа этого
А там платить надо.
Вот и прошу здесь перезалить. Группа очень понравилась.

http://www.mediafire.com/download/bo65jp7k...Open+Letter.zip
(2) Misanthrope@, Uxama,
Dec 25 2015, 20:37:56 BATUSHKA
Кто на чем бабло делает. Идите дурачки, вперед smile1.gif
(1) tireheb,
Dec 17 2015, 11:05:25 Mammothwing - Morning Light (2015)
Музло скучноватое, но вокал выводит из каменного болота.
(1) Aresson,
Oct 15 2015, 18:07:14 Thy Catafalque - Sgùrr (2015)
Неговнотеговый залив:
Register
(33) AndreFrancis, Ash_1980, Beazth, blacky66, bloodwind, Buregon, Constantinus I, CRUNCH, dimitriusk, dm_372761, Evilded, fabriziomagno, hammer, Indamage, infiltrator, Korpse, lestllk, lucifix, Moonshtook, Old Vyaine, Perdition, Premature_Devotion, QuadenThyrane, Ruben, Saalingurth, Skogvaktar, stub888, v.v.m, varg-38ru, vasiljev_sergej, Vintersorg, yuratroll, zerger,
Oct 13 2015, 17:01:23 Hela & Lodo - Hela/Lodo [split] (2014)
Хела - классная группа. Похоже на Windhand немного.
Ссылка с дакволда:
Register
(2) Ostinato, varlam4,
Sep 6 2015, 18:13:16 Destitute Extant - Nihility [demo] (2015) (1) B_S,
Sep 6 2015, 18:06:45 Vacant Sea - Demonstration [demo] (2015)
(1) varlam4,
Aug 3 2015, 19:22:45 Régiment - On Les Aura! (2015)
блэк дэт
(1) neoatheist,
Jul 10 2015, 11:47:25 Weh - Folkloren (2013)
320
Register
(4) AlexCrazy, cancer1974, fragment, Konst,
Jul 9 2015, 20:21:02 Nevoa - The Absence Of Void (2015)
Зеркалка
Register
(14) AndreFrancis, Coroner, ddarkthrone, EvilSurround, Fess, Geo_log, gotherion, Indamage, Mist13Signifier, rimfrost, sethurius, simvolist777, varg-38ru, vasiljev_sergej,
Apr 5 2015, 08:51:52 Acid Black Cherry - Shoujo No Inori III [single] (2011)
B охота тебе было весь этот сингловый мусор оформлять...
(1) Velemysl,
Mar 14 2015, 11:46:08 Porta Nigra - Kaiserschnitt (2015)
Весь мир - баян, и люди в нём баяны :[|||||]:
(2) ent404, Kwaad,
Mar 3 2015, 17:38:15 Au-Dessus - Au-Dessus [ep] (2015)
Очень да.
(1) ShmiT,
Dec 15 2014, 00:30:12 Varsovie - L'Heure Et La Trajectoire (2014)
Всё-таки французский язык своими харкающими звуками отталкивает. Для песте нуар самое оно - харко-блевать в уши слушателям, а здесь совсем не в тему.
(1) ShmiT,
Dec 14 2014, 12:31:15 Arachnigod - Forest Of Stars (2014)
тег: post-black metal, можно melodic добавить.
Группа запомнилась по классной демке, но в данном альбоме она стала более постовой. Однако музыка очень достойная, без соплей, хоть и с медленными треками. Качественно записано, сыграно, кавер отличный. Вокал, пожалуй, не самый лучший. Ну и понасыщеннее хотелось бы.
(1) B_S,
Nov 30 2014, 12:40:21 Soli Diaboli Gloria - The Last Blessing (2014)
ЦИТАТА(Haunting @ Nov 29 2014, 18:17:34) *
Звучит на этом релизе SDG, на мой взгляд, ничуть не слабее (ну разве что чуть-чуть) или менее интереснее того же "Si Monvmentvm Reqvires, Circvmspice" или "Kénôse".

Смешно. Диссонансы и похожее звучание еще не повод сравнивать вообще, а уж ровнять с нетленкой просто уныло. Альбом сам по себе звучит прилично, но таких уже десятки записаны, ничего примечательного в нем нет. Он показывает лишь то, что группа смогла повторить звучание дсо, не боле. Ну смогли и молодцы. Если на месте не остановятся, тогда уже что-то будет достойное внимания. Например, в звук дсо привнести апокалиптик фолк или фьюнерал джаз - вот это будет нечто.
(6) ent404, infiltrator, lafuma, technoboy69, vosmidesijatye, Спектр,
Sep 17 2014, 23:17:28 Acherontas & Arditi & Shibalba & Puissance - Pylons Of The Adversary [split] (2014)


*Artist: Acherontas & Arditi & Shibalba & Puissance
*Album: Pylons Of The Adversary [split]
*Year: 2014
*Genre: Black Metal | Martial Industrial | Dark Ambient | Neoclassical/Industrial/Dark Ambient
*Country: Greece | Sweden | Greece | Sweden
*Format: mp3@CBR320kbps
*Size: 80MB

Tracklist:
Acherontas:
1. Architect Of The Astral 03:09
2. The Crescent Pillars Of Daath 08:01
3. Shevirah 03:08
Arditi:
4. Sanctum Regnum 05:25
5. Empire Of Royal Blood 04:56
Shibalba:
6. Κατοπτρον 04:51
Puissance:
7. Nox 04:05
******************************
Total playing time: 33:35




[more=Extended info]CD-rip[/more]

[more=Technical info]
Input File: 01 - Acherontas - Architect of the Astral.mp3
Channels : 2
Sample Rate : 44100
Precision : 16-bit
Duration : 00:03:10.06 = 8381690 samples = 14254.6 CDDA sectors
File Size : 7.61M
Bit Rate : 320k
Sample Encoding: MPEG audio (layer I, II or III)
Comments :
Title=Architect of the Astral
Artist=Acherontas
Album=Pylons of the Adversary
Tracknumber=1
Year=2014

[/more]

Register
(51) acerbus, artscald, blacky66, Boozer, Constantinus I, Darkthronefoad, Darkwood, ddarkthrone, deadterror, Demonologist, Dr.Grind Oim, Evrom, Fryz, Goatrex, Hell_Is_Here, Hromovlad14, Ildjarn, kim666, komhs, Koscheyushka, Lanceatum, lestllk, milosdjor, mondblut, Moonshtook, nsmetalhead, Occultas, Ostinato, Premature_Devotion, randumbum, Raw1488, Reverend, Rosen, rpa, RUSP73, Sangreal, satanist666, smes, suseka, the_cleanser, varlam4, vasiljev_sergej, Velkaarn, Vidder242, wreak, wtk.412, ZA670, Zenial, Абигор, Герб, некрософ,
Sep 14 2014, 09:23:46 Strzępy - Śmierć We Mnie, Nicość Poza Mną [ep] (2013)
О#уенная вещь.
(2) ent404, templ,
Aug 20 2014, 10:27:49 Vardan - Funeral Night And Majestic Flames (2014)
ЦИТАТА(Razorbladeswaltz @ Aug 19 2014, 19:38:35) *
что-то чел больно часто альбомы плодит...

Большая их часть - старые неизданные. Этот записан в 2006, например.
(1) Razorbladeswaltz,
Jul 16 2014, 12:54:46 Romuvos - Romuvan Dainas (2014)
Любителям Falkenbach строго рекомендуется.
(1) MeatWolf,
Jul 16 2014, 00:44:35 Romuvos - Romuvan Dainas (2014)


*Artist: Romuvos
*Album: Romuvan Dainas
*Year: 2014
*Genre: Epic Metal
*Country: Lithuania
*Format: mp3@CBR320kbps
*Size: 115MB

Tracklist:
01 - Under The Glaciers Of The Baltijos
02 - Beyond The Gates Of Ouroboros
03 - Thy Glory And Might Thus We Shall Stand
04 - Poems For The Dead
05 - Egle The Queen Of Serpents
06 - Sailing Far Away From Shores Of Men
07 - Inside The Lake
08 - Romuvan Dainas
******************************
Total playing time: 48:54



[more=Extended info]CD-rip[/more]

[more=Technical info]
Input File: 01 - Under The Glaciers Of The Baltijos.mp3
Channels : 2
Sample Rate : 44100
Precision : 16-bit
Duration : 00:07:03.89 = 18693681 samples = 31792 CDDA sectors
File Size : 17.0M
Bit Rate : 320k
Sample Encoding: MPEG audio (layer I, II or III)
Comments :
Title=Under The Glaciers Of The Baltijos
Artist=Romuvos
Album=Romuvan Dainas
Tracknumber=01
Year=2014
Genre=epic metal
Discnumber=1/1

[/more]

Register
(32) AndreFrancis, Any-maL, aviacademy, Black Cat, Boozer, Buregon, cryptal, dad, Darkthronefoad, folker, gwar, Koscheyushka, lestllk, MeatWolf, metala, Mogozoz, morbidangelo, neoatheist, oldvarg, popen13, rabindranad, randumbum, Rosen, RUDACHUR, satanist666, sperminator, StabWound, varg-38ru, varlam4, wanderer73, Wolfera, wreak,
Jul 16 2014, 00:33:19 Kladovest - Winterwards (2014)


*Artist: Kladovest
*Album: Winterwards
*Year: 2014
*Genre: Atmospheric Black Metal
*Country: Ukraine
*Format: mp3@CBR320kbps
*Size: 100MB

Tracklist:
01. The Pale Cold Morning
02. Far, The Leaving Cranes...
03. An Echo Of Thunder
04. Milestones Of Winter
******************************
Total playing time: 42:13



[more=Extended info]CD-rip[/more]

[more=Technical info]
Input File: 01 - The Pale Cold Morning.mp3
Channels : 2
Sample Rate : 44100
Precision : 16-bit
Duration : 00:08:40.67 = 22961371 samples = 39050 CDDA sectors
File Size : 20.8M
Bit Rate : 320k
Sample Encoding: MPEG audio (layer I, II or III)
Comments :
Title=The Pale Cold Morning
Artist=Kladovest
Album=Winterwards
Tracknumber=01
Year=2014
Genre=atmospheric black metal
Discnumber=1/1

[/more]

Register
(48) 0x13, 1968_janeart, 666BlackDeath, An225, andeimon, artscald, blacky66, Constantinus I, craP_cillA, dagger666, Darkthronefoad, Fess, Fryz, Hswhhh, Ildjarn, kim666, kolar666, lestllk, MMMMM, Moonshtook, NachtWulf, neoatheist, Noxius, nsmetalhead, Old Vyaine, oldvarg, Ostinato, princeshr, QuadenThyrane, randumbum, Razorbladeswaltz, recber, Rosen, RUDACHUR, RUSP73, satanist666, spiritualdecay666, SSBandera, tont, Tundra, VALERY, varg-38ru, vasiljev_sergej, Velemysl, Velmi, waldemardr, wreak, Госпромнадзор,
Jul 16 2014, 00:08:41 Hermóðr - Vinter (2014)
ЦИТАТА(Foresterrr @ Feb 7 2014, 15:15:37) *
Музло отличное.
После гигабайт прокаченного мусора всё таки нашёл то что искал 20.gif . На мой взгляд, вот так и должен звучать эталонный атмосферик.


Во-первых, это чистый депрессив, а не атмосферик. А во-вторых, надо быть полным профаном в музыке, чтобы назвать это уныние "эталонным атмосфериком". Вот новый Dead Hills еще как-то можно так охарактеризовать.
(1) smes,
Jul 14 2014, 22:06:53 Fimbulvinter - Ginnungagap [demo] (2014)
Атмосферик просто из всех щелей прет, ага.
(1) SSBandera,
Jun 1 2014, 09:23:50 Lidande - To Suffer (2014)
"Полное время альбома: 2:59:02"
пилядь...
(3) 666BlackDeath, DarkHorde, neoatheist,

8 Pages V   1 2 3 > » 
- Lo-Fi Version Support form
Copyrights and abuse reports form
Time is now: 13th May 2021 - 04:54:10