Welcome Guest ( Log In | Register )

История благодарностей участнику PieruG ::: Спасибо сказали: 63 раз(а)
Дата поста: В теме: За сообщение: Спасибо сказали:
Apr 12 2013, 22:40:12 Iced Earth - Live In Ancient Kourion [live] (2013)


*Artist: Iced Earth
*Album: Live In Ancient Kourion [live]
*Year: 2013
*Genre: Thrash Metal/Power Metal/Heavy Metal
*Country: United States
*Format: mp3@CBR320kbps
*Size: 329MB

Tracklist:
CD1:
01. Intro 1:22
02. Dystopia 4:53
03. Burning Times 3:37
04. Angel's Holocaust 4:34
05. Slave To The Dark 4:49
06. V 3:27
07. When The Night Falls 7:55
08. Died For You 4:55
09. Invasion 0:39
10. Motivation Of Man 1:32
11. Setian Massacre 4:20
12. Stormrider 4:13
13. Pure Evil 6:00
14. Wolf 5:48
15. Dark City 5:46
16. Dracula 5:59
17. Ten Thousand Strong 4:00
CD2:
01. Anthem 4:47
02. Declaration Day 4:23
03. Days Of Rage 3:07
04. Melancholy 4:55
05. Encore Intro 2:29
06. In Sacred Flames 1:27
07. Boiling Point 3:01
08. Damien 9:54
09. Watching Over Me 5:05
10. Dante's Inferno 18:03
11. Iced Earth 7:09
12. The Hunter 5:42
******************************
Total playing time: 2:23:51

[more=Technical info]
Input File: 09. Invasion.mp3
Channels : 2
Sample Rate : 44100
Precision : 16-bit
Duration : 00:00:39.82 = 1755930 samples = 2986.28 CDDA sectors
File Size : 1.60M
Bit Rate : 321k
Sample Encoding: MPEG audio (layer I, II or III)
Comments :
Title=Invasion
Artist=Iced Earth
Album=Live In Ancient Kourion
Tracknumber=9
Year=2013
Genre=Heavy Metal[/more]
Register
(9) garml2, Grimmsberg, Kuzya, madhammer, Mplast, watasan, wreak, xarjar, Zigarre,
Apr 12 2013, 20:51:46 Axel Rudi Pell - Live On Fire [live] (2013)


*Artist: Axel Rudi Pell
*Album: Live On Fire [live]
*Year: 2013
*Genre: Melodic Heavy Metal
*Country: Germany
*Format: mp3@CBR320kbps
*Size: 251MB

Tracklist:
CD 1:
01. The Guillotine Suite (Intro)
02. Ghost In The Black
03. Strong As A Rock
04. Before I Die
05. Masquerade Ball-Casbah-Dreaming Dead-Whole Lotta Love-Dreaming Dead
06. Drum Solo (Mike Terrana)
07. Mystica-Mistreaded-Mystica
CD 2:
08. Oceans Of Time
09. Circle Of The Oath
10. Fool Fool
11. Keyboard Solo-Carousel-Jam-Carousel
12. Tear Down The Walls-Nasty Reputation
13. Rock The Nation
******************************
Total playing time: 1:47:55

[more=Technical info]
Input File: 01. The Guillotine Suite (Intro).mp3
Channels : 2
Sample Rate : 44100
Precision : 16-bit
Duration : 00:02:17.52 = 6064808 samples = 10314.3 CDDA sectors
File Size : 5.58M
Bit Rate : 324k
Sample Encoding: MPEG audio (layer I, II or III)
Comments :
Title=The Guillotine Suite (Intro)
Artist=Axel Rudi Pell
Album=Live On Fire (CD1)
Tracknumber=1
Year=2013
Genre=Hard Rock

[/more]

Register
(4) AwaitingDawn, garretje, Olrak, wreak,
Apr 10 2013, 17:56:30 Havok - Murder By Metal [demo] (2006)


*Artist: Havok
*Album: Murder By Metal [demo]
*Year: 2006
*Genre: Thrash Metal
*Country: United States
*Format: mp3@CBR320kbps
*Size: 44MB

Tracklist:
1. Catagory of the Dead
2. The Disease
3. Die Young
4. Do or Die
******************************
Total playing time: 19:42

[more=Extended info]


Input File: 04. Do or Die.mp3
Channels : 2
Sample Rate : 48000
Precision : 16-bit
Duration : 00:03:37.11 = 10421472 samples ~ 16283.6 CDDA sectors
File Size : 8.68M
Bit Rate : 320k
Sample Encoding: MPEG audio (layer I, II or III)
Comments :
Title=Do Or Die
Artist=Havok
Album=Murdered By Metal (Demo)
Tracknumber=4
Year=2006
Genre=Thrash Metal

[/more]

Register
(5) avkruchinin, Samaritianin, Splatty, wgs73, wreak,
Apr 7 2013, 17:32:09 Gloryhammer - Angus McFife [studio clip] (2013)


*Performer: Gloryhammer
*Title: Angus McFife
*Type: Studio Clip
*Album: Tales From The Kingdom Of Fife
*Year: 2013
*Genre: Epic Power Metal
*Country: United Kingdom

*Audio: ac3@192kbps
*Video: h.264@2514kbps
*Resolution: 1280x720
*Size: 78MB
******************************
*Length: 00:04:02

Register
(7) gammaray94, gwar, Reverend, Rosen, Scuns, vint1324, wreak,
Apr 7 2013, 13:15:36 Axel Rudi Pell - Before I Die [single] (2012)


*Artist: Axel Rudi Pell
*Album: Before I Die [single]
*Year: 2012
*Genre: Melodic Heavy Metal
*Country: Germany
*Format: mp3@CBR320kbps
*Size: 23MB

Tracklist:
01. Before I Die
02. Where The Wild Waters Flow
******************************
Total playing time: 9:58

[more=Extended info]


Input File: 1. Before I Die.mp3
Channels : 2
Sample Rate : 44100
Precision : 16-bit
Duration : 00:04:28.28 = 11831104 samples = 20120.9 CDDA sectors
File Size : 10.7M
Bit Rate : 320k
Sample Encoding: MPEG audio (layer I, II or III)
Comments :
Title=Track1
Artist=AXEL RUDI PELL
Album= Before I Die
Tracknumber=1/2
Discnumber=1/1

[/more]

Register
(5) garretje, satanist666, senecazm, VALERY, wreak,
Feb 27 2013, 21:50:02 3 Inches Of Blood - Battlecry Under A Wintersun (2002)
3 Inches Of Blood - Battlecry Under A Wintersun 320kbps
Register
(1) Wolfera,
Sep 26 2012, 09:31:26 Axel Rudi Pell - Knights Live [live] (2002)
320kbps
Register
(1) VALERY,
Sep 21 2012, 10:26:24 Evile - In Dreams Of Terror [studio clip] (2011)


*Performer: Evile
*Title: In Dreams Of Terror
*Type: Studio Clip
*Album: Five Serpenth Teeth
*Year: 2011
*Genre: Thrash Metal
*Country: United Kingdom

*Audio: ac3@192kbps
*Video: h.264@2108kbps
*Resolution: 1280x720
*Size: 77MB
******************************
*Length: 00:05:07

Register
(7) -=Lion=-, gwar, MaelstromxXx, Necrokilldozer, vint1324, wreak, Смусмумбрик,
Aug 14 2012, 13:34:58 Machine Head - Darkness Within [studio clip] (2012)


*Performer: Machine Head
*Title: Darkness Within
*Type: Studio Clip
*Album: Unto The Locaust
*Year: 2012
*Genre: Thrash Metal
*Country: United States

*Audio: ac3@191kbps
*Video: h.264@2752kbps
*Resolution: 1920x1080
*Size: 155MB
******************************
*Length: 00:07:21

Register
(10) -=Lion=-, garml2, gwar, Necrokilldozer, neoatheist, Paradayz, Prisoner, Reverend, wreak, Смусмумбрик,
Jul 30 2011, 22:14:30 Judas Priest - Nostradamus (2008)
Nostradamus - 2008

FLAC


Register
(3) Bercov, infiltrator, Witchlord,
Jul 30 2011, 21:53:40 Judas Priest - Defenders Of The Faith (1984)
Defenders of the Faith - 1984

FLAC


Register
(1) EdNos,
Jul 30 2011, 21:51:56 Judas Priest - British Steel (1980)
British Steel - 1980

FLAC


Register
Jul 30 2011, 20:47:15 Mastodon - Leviathan (2004)
Mastodon - Leviathan (2004)


320kbps
Register
(1) gratsim,
Jul 30 2011, 20:46:20 Mastodon - Remission (2002)
Mastodon - Remission (2002)

320kbps
Register
(2) Horrnet, Wormtongue,

- Lo-Fi Version Support form
Copyrights and abuse reports form
Time is now: 4th February 2023 - 06:27:47