Welcome Guest ( Log In | Register )

История благодарностей участнику Haunting ::: Спасибо сказали: 4307 раз(а)
Дата поста: В теме: За сообщение: Спасибо сказали:
Sep 12 2021, 10:15:02 Новости Brutal Death Metal и Grind(core) направлений
(1) Chasm,
Jul 24 2021, 14:09:21 Diaboli - Awakening Of Nordic Storm (2021)
Пьяный чтоле? 1488.gif
(1) metamfer,
Jul 13 2021, 20:21:19 Today Needed
Paysage D'hiver & Lunar Aurora - Paysage D'hiver/Lunar Aurora [split] (2004)

2CD re-release (2020)
cloud.mail / yandex or mega, please.
(2) infiltrator, Occultas,
Jun 21 2021, 18:38:39 Новости Death Metal направления
ЦИТАТА(vosmidesijatye @ Jun 18 2021, 10:18:08) *
Carcass - Torn Arteries

(6) FullofHate, infiltrator, Occultas, Old Vyaine, Tular, vosmidesijatye,
Jun 20 2021, 10:06:25 Cities Last Broadcast - The Umbra Report (2021)
Pär Boström в последние годы своей музыкальной деятельности не заставляет ждать своих слушателей в ожидании: в прошлом году вышли новые работы Kammarheit, Bonini Bulga, Hymnambulae, Imprisoner, Altarmang, а первая половина 2021 году уже отметилась полноформатными релизами от Aindulmedir и Cities Last Broadcast. Удивительная продуктивность, особенно если вспомнить, что когда-то разница между альбомами "The Nest" и "The Starwheel" Kammarheit составляла десять лет и за это время талантливый швед очень редко вылезал из самоизоляции. Dark ambient в его исполнении всегда имел характерный, выверенно минималистичный только на первый взгляд саунд-дизайн, в глубине которого объёмный гул пустых пространств сплетался в своём застывающем мареве с обрывками проплывающих призрачных мелодий и шуршащими помехами потерянного радиоэфира, отдалёнными пульсациями и ржавым скрежетом металлических конструкций – при «слепом» прослушивании лично я угадаю его творческий почерк с вероятностью близкой к стопроцентному попаданию. И при кажущейся схожести, а для кого-то и однотипности такого подхода, различия во всех проектах определённо прослеживаются. Очень немногие, я считаю, в стиле могут похвастать такой уникальностью: Lustmord, raison d'être, Treha Sektori, возможно всплывёт в памяти ещё пара-тройка имён…
"The Umbra Report" как бы продолжает изданный ранее на Cryo Chamber "The Humming Tapes" – мерцающий тусклым светом, осыпающийся пылью postmortem фотографий и гудящий петлями старых аудиоплёнок совершенно потусторонний dark ambient – но при всём этом, чего-то такого неуловимого мне не хватает именно в этом альбоме. Вроде и целостное произведение и все характерные черты, за которые я ценю предыдущие работы на месте, но – нет, не цепляет, не проводит ознобом по загривку. Возникает ощущение, что весь этот релиз состоит из невошедших в другие альбомы наработок, докрученных исключительно для того, чтобы издать релиз ради самого факта издания. Отмечу, что от ранее выходивших на Cyclic Law "Oracular" и "Lucid Intrusion" проекта Ajna, например, аналогично веяло атмосферой паранормального, идеально воплощающей термин "haunting ambient" в звуке. И эти вещи хотелось слушать неоднократно, в отличии от...
Странный альбом, единственный (ну, за исключением ещё Aindulmedir) из всего творческого багажа Pär Boström, который я бы не купил, даже для "полноты" своей коллекции.
(3) Infidel, infiltrator, vosmidesijatye,
Jun 20 2021, 08:16:04 Det Kätterska Förbund - Lidaverken Del I: Att I Vådeld Förgås (2021)


*Artist: Det Kätterska Förbund
*Album: Lidaverken Del I: Att I Vådeld Förgås
*Year: 2021
*Genre: Death Industrial
*Country: Sweden
*Format: mp3@CBR320kbps
*Size: 77MB

Tracklist:
1. He Will Fall 6:58
2. Endless Golgatha 4:11
3. Att I Vådeld Förgås 4:06
4. Sacred Grounds 5:08
5. Bar Är Broderlös Rygg 3:05
6. Vid Hälleberg 5:28
7. Vanhelgat Vard Ditt Namn 5:22
******************************
Total playing time: 34:18



[more=Extended info]Det Kätterska Förbund, consisting of the two giants dominating the Death Industrial world - Thomas Ekelund (Trepaneringsritualen, Dead Letters Spell Out Dead Words) + Henrik Nordvargr Björkk (MZ.412, Pouppée Fabrikk, Folkstorm etc) - has been slowly and methodically working for almost 5 years to finish the first album of this double-headed abomination. Patience richly rewarded.

You can instantly feel the presence of lurking unease as the album slowly opens up a distorted world of familiar sounds and voices, but there is something special about these recordings; the menacing aura that has been created adds new elements to the otherwise rigid tropes of the genre. Punishingly heavy rhythmic tracks, with savage incantations from both Thomas and Nordvargr, gratifyingly familiar to fans of the artists' main projects, are flanked by these death-scarred lamentations (Cold Spring)[/more]

[more=Technical info]
Input File: 02. Endless Golgatha.mp3
Channels : 2
Sample Rate : 44100
Precision : 16-bit
Duration : 00:04:13.09 = 11161313 samples = 18981.8 CDDA sectors
File Size : 10.2M
Bit Rate : 322k
Sample Encoding: MPEG audio (layer I, II or III)
Comments :
Title=Endless Golgatha
Artist=Det Kätterska Förbund
Album=Lidaverken Del 1: Att I Vådeld Förgås
Tracknumber=02
Year=2021
Genre=Death Industrial

[/more]

Register
(15) as71, Carcharoth, gwar, Hell_Is_Here, Infidel, infiltrator, judaz, Krosis, milosdjor, nsmetalhead, Olethros, thenecromancer, VALERY, wtk.412, xentce,
Jun 13 2021, 17:03:11 Dornenreich - Du Wilde Liebe Sei (2021)
ЦИТАТА(Aectan @ Jun 13 2021, 17:42:32) *
Никакой попытки к возврату хоть как-то оценённого раннего творчества

Как будто этот возврат кто-то обещал.

Неожиданно понравился этот альбом, хотя и отдалённо не "Hexenwind" или "Durch Den Traum", но сложилось ощущение, что именно к такой форме музыканты долго стремились. С удовольствием бы послушал этот материал в концертном исполнении.
Да, заодно этот альбом напомнил, что я так и не послушал Empyrium и вообще совершенно забыл про него.
(2) infiltrator, krotovich,
Jun 12 2021, 07:53:37 Cities Last Broadcast - The Umbra Report (2021)


*Artist: Cities Last Broadcast
*Album: The Umbra Report
*Year: 2021
*Genre: Dark Ambient
*Country: Sweden
*Format: mp3@CBR320kbps
*Size: 90MB

Tracklist:
1. A Message 04:13
2. Unvocal 05:43
3. Conduct 05:04
4. Disembodied 04:40
5. Stares Back 06:03
6. Wherever the Heart Goes 06:53
7. Antumbra 07:04
******************************
Total playing time: 39:40



[more=Extended info]Cities Last Broadcast presents us his second solo album on Cryo Chamber, "The Umbra Report". A dark and dreamy journey.

Is it a depression, a séance, or an exorcism? Whatever it is, every nuance of it is thoroughly recorded and the result is terrifying yet oddly soothing. The tape machine is constantly hissing, every piece of machinery is making ominous noises, and something sings along. Pär Boström shows us again that he is a unique creator of sound design and paranormal electronics.

Recommended for fans of tape recordings and pitch-black drones.
Written, Produced, Performed - Pär Boström
Artwork & Mastering - Simon Heath[/more]

[more=Technical info]
Input File: 01 - A Message.mp3
Channels : 2
Sample Rate : 44100
Precision : 16-bit
Duration : 00:04:13.81 = 11193153 samples = 19036 CDDA sectors
File Size : 10.2M
Bit Rate : 322k
Sample Encoding: MPEG audio (layer I, II or III)
Comments :
Title=A Message
Artist=Cities Last Broadcast
Album=The Umbra Report
Tracknumber=01/07
Year=2021
Genre=Dark Ambient

[/more]

Register
(11) as71, ent404, gena, infiltrator, Konst, lucifix, nemx, Olethros, recber, veselchak_u, wtk.412,
Jun 9 2021, 19:49:34 Norwegian Black Metal
ЦИТАТА(Necrodictator @ Jun 9 2021, 15:51:45) *
Тут по ходу надо автоматическую блокировку клавиатуры во время алковозлияний устанавливать 1488.gif

Давно для себя выделил золотое правило: хорошо выпил - смотри форумы только в read only. А лучше вообще держись от них подальше 1488.gif

По вопросу топикстартера, который никого тут уже не интересует:
Burzum - потому что был первый и дал то, что я искал тогда в такой музыке.
Darkthrone - потому что вторые и дали то, что я ищу в такой музыке и сейчас.
Emperor - потому что "In the Nightside Eclipse" и "Anthems To the Welkin At Dusk"...
(2) Ainar, maxmagmas,
Jun 6 2021, 20:49:20 Новости Black-направления
W.T.C. переиздал в формате digiCD альбомы австрийцев Abigor "Verwüstung / Invoke the Dark Age", "Nachthymnen (From the Twilight Kingdom)" и "Orkblut - The Retaliation".
Позже будут выпущены также "Opus IV" и "Apokalypse" с "Supreme Immortal Art".

"In the early 90s, a special kind of energy was at work. Back at Hörnix, we may have captured a whiff of that incredibly dense atmosphere, and are honoured to present a small piece of Black Metal history - our testimony to the madness raging 3 decades ago. We have prepared these items for years, meticulously collected and assembled the artwork from original photos, books, snippets, drawings, negatives, postcards and rub-letters. Everything was rebuilt from scratch and comes from the same original bits and pieces as used back in the 90s. Nothing was cheaply scanned from old releases, like often the case with such old works. Some flaws were corrected, with the aim to retain and surpass the first pressings.
We bow our head and humbly share our memories of those glorious reckless days, when our youthful spirit was feeding the flame to burn the world to ashes.
ps: Once the remaining 3 albums ("Opus IV", "Apokalypse", "Supreme Immortal Art") are released, a box to collect all 6 Hörnix albums will be available"

[more=картинки]

[/more]
(5) infiltrator, Occultas, Strid, thenecromancer, Unknown,
Jun 3 2021, 18:05:37 Likferd - Watchtowers Of Anticosmos (2021)
ЦИТАТА(vosmidesijatye @ Jun 3 2021, 19:37:53) *
А че конкретно изменилось по сравнению с Фростом?

Имхо, прибавилось похожести на ранний Emperor за счёт эпизодических клавишных, а так - тот же почерк, что и на "Ancient Frost".
Хороший релиз. Специально за ним бегать не стану, конечно, но при случае взял бы в коллекцию.
(3) infiltrator, judaz, Occultas,
Jun 3 2021, 15:48:36 Некорректно отображаются страницы
ЦИТАТА(Necrodictator @ Jun 3 2021, 16:40:15) *
У меня у одного в последнее время иногда ползунок справа не появляется при загрузке страницы (причем именно на арейке)?

Аналогично.
(1) Occultas,
Jun 1 2021, 17:37:21 Black Metal в лицах
"Такой black metal рок'н'ролл..."
Orion - Nergal - Lord Ahriman

(3) infiltrator, Occultas, Rattenkonig,
May 31 2021, 16:15:54 Говнилиум - Всё B Дерьме (2010)
ЦИТАТА(vosmidesijatye @ May 31 2021, 17:53:58) *
А че, сабж реально сам Солитьюд издал?


ЦИТАТА
Лейбл: Mercy Despise

Дистрибьюция же.
(2) infiltrator, vosmidesijatye,
May 24 2021, 15:36:12 Goatpsalm - Downstream (2016)
Aesthetic Death: I am really pleased to be working on a new collaboration between... Horthodox + Goatpsalm
Having worked with Goatpsalm over the last decade on the release of their previous two albums ("Erset La Tari" + "Downstream") - I have seen the amazing development and maturity of their sound and recordings.
This new collaboration was not an actively planned release - prior to the new full Goatpsalm album - but as it developed these musical creations fitted in perfectly with the focus of both Horthodox and Goatpsalm. Taking both acts into directions towards one another's sound.
This is some of the best material I have heard from either act. A fascinating and wondrous recording.
Await more info soon. Release planned for the autumn.
(1) Chasm,
May 20 2021, 19:19:12 METAL OVER RUSSIA: 23-25 ИЮЛЯ 2021
ЦИТАТА(SAPOGi @ May 20 2021, 19:24:00) *
Сруб так ваще Raw Black crazy.gif

Ну, Шапранский вроде как ещё хотел или даже уже делал какие-то поползновения в сторону atmospheric black metal, если я не путаю.

Я искренне не могу понять как в рамках одного фестиваля можно уместить Korea с Phurpa, Majdanek Waltz с Pyre, а Гран-кураж c теми же Туга...
Дикуха полная. Паука только ещё не хватает в качестве конферансье, зигующего со сцены и поливающего страшных голых баб крымскими винами, например.
Хотя может все посетители там попросту перепьют огненной воды и устроят грандиозное побоище, доказывая неверным и праклятым пазерам, что death metal/black metal/dark folk/heavy metal/alternative metal - говно 1488.gif
Мне и из первоначального состава были интересны лишь 2,5 группы (так что вопрос о посещении даже не рассматривался), но текущий выбор организатора вообще вызывает какую-то такую реакцию:


ЦИТАТА(ent404 @ May 20 2021, 20:58:48) *
зачем, если есть Пхурпа)

Phurpa под спидами это любопытный экспириенс crazy.gif
(2) Brann, Kazoth,
May 20 2021, 17:15:04 METAL OVER RUSSIA: 23-25 ИЮЛЯ 2021
Лайнап - полная дичь 1488.gif
Ещё бы драмчика или габбу завезли для ночной программы и было бы совсем прекрасно.
(2) 6666666, VerminGhost,
May 3 2021, 11:11:20 Black Metal в лицах
(5) Black Cat, Dis, infiltrator, Occultas, thenecromancer,
May 3 2021, 10:34:48 Morbific - Ominous Seep Of Putridity (2021)
Охеренный материал, однозначный попаданец в персональный топ osdm 2021.
(1) troll_swamp,
Apr 25 2021, 10:01:09 Today Needed
ЦИТАТА(6666666 @ Apr 22 2021, 23:38:47) *
Aythis - "Secrets from Below"

Ежели ещё актуально:
Register
(2) 6666666, Veggr,
Apr 10 2021, 08:31:14 Merzbow & Prurient - Black Crows Cyborg [collaboration] (2021)
ЦИТАТА(ent404 @ Apr 10 2021, 09:54:51) *
можно примеры от шарящих людей?

"Scene", "Here", "Offering", "Achromatic", ну и совместные с Nordvargr три части "Partikel" вероятно туда же...
В дискографии японца имеется ещё релиз под названием "Merzbient", но я пока не добрался до него, да и сомневаюсь, что там близкое к ambient.
(3) ent404, infiltrator, Tular,
Apr 8 2021, 18:28:03 Яблоня - Тень Среди Теней [ep] (2021)
Отлично! Теперь блэк-металлисты-творцы могут не ломать часами голову над традиционным названием своей группы в духе "туман чорного леса" или "полнолуние над сатанинскими руинами", а смело называться "ольхой", "осиной" или даже "репейником" и смело топать записывать все эти свои "вжжжжж".
(9) Bzth, Foneg, infiltrator, Maximvs, mondlicht, nsk2008, Shadowman, VerminGhost, vosmidesijatye,
Apr 2 2021, 16:25:42 Новости направления MDM
We can now reveal that the upcoming album will be entitled “The Nightmare Of Being”, it will be released on July 2nd, 2021 via Century Media Records.

While main parts for “The Nightmare Of Being” were recorded in several different Swedish studios - Drums at Studio Gröndal with Jens Bogren, guitars and bass with Andy La Rocque at Sonic Train Studio and vocals at Welfare Sounds with Per Stålberg -, the album was mixed and mastered at Fascination Street Studios (Amon Amarth, Opeth, Kreator, etc.) by Jens Bogren, who has previously worked with At The Gates on their “At War With Reality” comeback album in 2014. The album’s visual concept (The frontcover is to be seen above!) was developed by artist Eva Nahon.

At The Gates vocalist Tomas Lindberg Redant checked in with the following comment about the album’s concept: "The overall theme deals with the topic of pessimism, and I have been diving deep down in pessimistic philosophers. Trying to understand this way of looking at the world. It is not a negative album, more a gateway into new ideas for me personally, trying out different perspectives. You could call the album an introduction to pessimism as a concept, I guess. It is a very dark album, but not negative…”.

And musically, while “The Nightmare Of Being” unveils a newly liberated and adventurous At The Gates via some of the bravest and most mesmerising material they have ever written, Lindberg Redant adds: “It still sounds like At The Gates, 100 percent. It is just more of everything….”

The album’s standard tracklisting will be as follows:
1. Spectre of Extinction
2. The Paradox
3. The Nightmare of Being
4. Garden of Cyrus
5. Touched by the White Hands of Death
6. The Fall into Time
7. Cult of Salvation
8. The Abstract Enthroned
9. Cosmic Pessimism
10. Eternal Winter of Reason

Further details about “The Nightmare Of Being” and its various formats will be revealed on April 30th, 2021 with the start of the album’s pre-order campaign – So mark your calendars!

(3) 6666666, Emm Human, infiltrator,
Mar 30 2021, 19:53:35 Dispersed - Where Silence Reigns (2021)
Попырил в обложку и решил ознакомиться с группой, тем более релизы издательства в прошлом неизменно радовали и несколько штук стоят не на самой дальней полке в коллекции.
Ну, brutal death metal, да. Такой совершенно ничем не примечательный brutal death metal, напрочь лишённый каких-либо запоминающихся моментов вообще, будь то инструментальное изуверство или хотя бы нокаутирующий саунд альбома. Пальцы по струнам елозят, издавая какой-то дждждж, палочки в кастрюли стучат, глухо рычит кто-то посреди всего этого - а какой профит-то? Оформление вот понравилось, а в остальном... не вижу для себя ни единого аргумента в пользу того, чтобы оставить релиз в коллекции. И без "Where Silence Reigns" есть что послушать, тем более сложно представить себе ту неебическую массу брутала, записанного за время существования жанра. Да хоть тех же Ominous Scriptures и Relics of Humanity.
"уууааааыыыуууааа, х@й чё поймёшь ёпт" ©
(1) Chasm,
Mar 26 2021, 15:42:31 This Morn' Omina - The Roots Of Saraswati (2021)


*Artist: This Morn' Omina
*Album: The Roots Of Saraswati
*Year: 2021
*Genre: Tribal Industrial
*Country: Belgium
*Format: mp3@CBR320kbps
*Size: 175MB

Tracklist:
1. Nadisti Sukta 04:09
2. The Mongoose King 07:02
3. Naous 06:57
4. Vadavigni (The All Consuming Fire) 06:24
5. People of the Serpent 07:46
6. 1000 Cuts (Lingh Chi) 10:02
7. The Nothing Space 06:05
8. Blood Oath 06:04
9. Nepenthe 07:58
10. (A) Song of Eloi’im 13:15
******************************
Total playing time: 1:15:42




[more=Extended info]With "The Roots of Saraswati", This Morn' Omina add a new, dark facet to their already impressive catalogue. The latest album by the Belgian tribal industrial pioneers can be seen both as a continuation of their previous work as well as a welcome expansion of their stylistic palette.
The broadening of their musical horizon is partly due to Karolus Leroq having been replaced by Ivardensphere drummer and electro-musician Scott Fox. The Canadian from Edmonton arrived with new sound elements in his bag when he joined This Morn' Omina. This line-up change resulted in the current tracks offering an increased compositional depth and a darker atmosphere compared to the previous album "Kundalini Rising" (2017).
The organic structures of the current songs put more emphasis on the tribal heart of the Belgians, while their psychedelic trance influences shining through on their previous albums have been audibly trimmed back. The extremely well-honed production of "The Roots of Saraswati" seamlessly blends driving atmospheric electronics with organic percussion, which will also prick up listeners' ears.
Lyrically, This Morn' Omina remain true to their fascination for the spiritual traditions of the Indian subcontinent on "The Roots of Saraswati". In Hinduism, the name "Saraswati" ("The Flowing One") represents the goddess of wisdom, art, and learning, yet also denotes a mysterious river from which knowledge, inspiration and divine grace spring. In Hindu teachings, "Saraswati" is also used as a term for scholars and seekers of truth. All the aspects of this word contain an element of flowing and profound transcendence as a common theme, which also defines the content of the new album, musically, lyrically, and in the artwork as well.
"The Roots of Saraswati" irresistibly call to the dancefloor via hypnotic club hits such as 'The Mongoose King' and 'The Nothing Space'. Yet after several spins, the raw percussive power and cinematic scope of mid-tempo tracks like 'Vadavighni ("The All Consuming Fire")' and 'Nepenthe' starts to grow into focus. The coup de grace is delivered by the soothing chords of 'Song of Elo'im' that could have had a starring role on a John Carpenter soundtrack – seasoned with a tasty industrial dash.
The impressive evolution of This Morn' Omina finds a perfect outlet with the hypnotic and varied tribal industrial masterpiece "The Roots of Saraswati" (Dependent)[/more]

[more=Technical info]
Input File: 06 - 1000 Cuts (Lingh Chi).mp3
Channels : 2
Sample Rate : 44100
Precision : 16-bit
Duration : 00:10:02.13 = 26553889 samples = 45159.7 CDDA sectors
File Size : 24.4M
Bit Rate : 324k
Sample Encoding: MPEG audio (layer I, II or III)
Comments :
Title=1000 Cuts (Lingh Chi)
Artist=This Morn' Omina
Album=The Roots Of Saraswati
Tracknumber=06
Year=2021
Genre=Rhythmic Noise/Tribal Industrial

[/more]

Register
(7) Halfden, Hell_Is_Here, Infidel, infiltrator, Krosis, mirotvorets, Olethros,

28 Pages V   1 2 3 > » 
- Lo-Fi Version Support form
Copyrights and abuse reports form
Time is now: 23rd September 2021 - 18:07:54