Welcome Guest ( Log In | Register )

История благодарностей участнику Haunting ::: Спасибо сказали: 3759 раз(а)
Дата поста: В теме: За сообщение: Спасибо сказали:
Aug 27 2019, 19:54:15 Новости Black-направления
[youtube]J5RXlevWNNk[/youtube]
(10) avather, Black Cat, infiltrator, Moonshtook, Occultas, Samogon, Strid, Stutthof, suseka, Wizard_in_Black,
Aug 25 2019, 13:57:21 Disentomb - The Decaying Light (2019)
Фо, а, нет, извиняюсь за дезинформацию. Почему то думал, что видел эту работу в инстаграме именно Кантора.
Автор арта - Nick Keller.
(2) infiltrator, Фо,
Jul 18 2018, 17:02:06 лучшие Death Metal альбомы 2018
Wombripper "From the Depths of Flesh", The Occult "Necropolis", Lik "Carnage", Organic "Carved In Flesh", Mortuous "Through Wilderness", Skeletal Remains "Devouring Mortality", Cist "The Frozen Casket", Deathwards "Towards Death" и Skinless "Savagery".
Также понравились Flesh Consumed "Hymn For the Leeches", Typhonian "Beneath the Streams of Life" и Abythic "Beneath Ancient Portals", но в "лучшие" их записать не могу.
(1) Chasm,
Mar 19 2018, 12:38:32 Autopsy - Puncturing The Grotesque [ep] (2017)
Файлы с нормальным звуком с iTunes:
Register
(10) Aresson, Bitchkiller, cesar, gena, metal73, metalfanatic666, METALHUNTER, SadistikSlayer, sperminator, troll_swamp,
Mar 7 2018, 19:25:11 лучшие Death Metal альбомы 2018
Wombripper "From the Depths of Flesh", The Occult "Necropolis" и мини-альбом Cist "The Frozen Casket"
(1) mirotvorets,
Feb 22 2018, 17:58:24 Новости Experimental/Progressive Metal
ЦИТАТА(Haunting @ Feb 18 2018, 21:18:05) *
Ihsahn "Ámr".
04.05.2018 Candlelight/Spinefarm

[youtube]7Ou6oGFBJsg[/youtube]
(2) Baudolino, Lux,
Feb 17 2018, 12:43:06 Новости Death Metal направления
"Seismic Abyss" - композиция с нового альбома Skeletal Remains "Devouring Mortality".


ЦИТАТА(Tular @ Feb 8 2018, 23:27:34) *
Даеморф божит! Люблю такие полотна.

Сразу всплыла в памяти картина к Benediction "Transcend the Rubicon".
Сам "Некрополь", в принципе, очень даже неплохо зашёл. Маловато только по времени.
(3) Samogon, Thrashman, troll_swamp,
Feb 9 2018, 16:33:25 Sopor Aeternus & The Ensemble Of Shadows - The Spiral Sacrifice (2018)
ЦИТАТА(Shub @ Feb 8 2018, 06:58:53) *
Чет не раздуплил пока

У меня такое было с каждым альбомом проекта, наверное, кроме "Poetica" и "La Chambre D'Echo - Where the Dead Birds Sing". 1488.gif
Тут надо поймать настроение и в спокойной обстановке тщательно вникать. Так вот "о, новый альбом вышел - надо заслушать в первую очередь" как-то не проходит у меня с Анной-Варни. Неизвестно когда настроюсь, но авансом в топ года уже внесу.
(2) infiltrator, vosmidesijatye,
Jan 26 2018, 16:33:18 Wombripper - From The Depths Of Flesh (2018)


*Artist: Wombripper
*Album: From The Depths Of Flesh
*Year: 2018
*Genre: Old School Death Metal
*Country: Russian Federation
*Format: mp3@CBR320kbps
*Size: 84MB

Tracklist:
1. Still Unborn 03:28
2. Immolation Rites 03:00
3. Torn by the Nails 03:35
4. Frantic Exhumation 03:10
5. Restless 03:39
6. The Suicidal Recreation 03:28
7. Locked in the Iced Coffin 05:01
8. Godless Slaughter (In the Name of Doom) 06:31
9. Prenatal Death 03:08
******************************
Total playing time: 35:00



[more=Extended info]Guest vocal on tracks "Restless" and "Godless Slaughter (In The Name Of Doom)" - Dym Nox (Pyre, Blazing Rust, Teitanfyre etc) and Kostek Dolganov (Internal Damage).

Limited 500 copies in jewel case with 12-page booklet.[/more]

[more=Technical info]
Input File: Wombripper - 02 - Immolation Rites.mp3
Channels : 2
Sample Rate : 44100
Precision : 16-bit
Duration : 00:03:00.26 = 7949510 samples = 13519.6 CDDA sectors
File Size : 7.44M
Bit Rate : 330k
Sample Encoding: MPEG audio (layer I, II or III)
Comments :
Title=Immolation Rites
Artist=Wombripper
Album=From the Depths of Flesh
Tracknumber=2
Year=2018

[/more]

Register
(45) AHBAnep, An226, andreikun, as71, avkruchinin, BERZERK, Chasm, Evilded, Golodomor, hammer, Hell_Is_Here, infiltrator, jollo, judaz, Metalass, METALHUNTER, mirotvorets, MMMMM, necromasochist, Ostinato, Pentium.Disel, Razorbladeswaltz, ripper33, Rosen, Ruben, RUSP73, Sabbathian, Samaritianin, samokot, Scuns, Spunkynut, SS2998, SymbyoticEntity, Thrashman, THROWER666, Tino, toluol, vader69, VALERY, varlam4, vyacheslav, wgs73, WX419, zotyo1975, Лицемер,
Jan 24 2018, 20:43:39 Atrium Carceri & Herbst9 - Ur Djupan Dal [collaboration] (2018)


*Artist: Atrium Carceri & Herbst9
*Album: Ur Djupan Dal [collaboration]
*Year: 2018
*Genre: Dark Ambient | Dark Ambient
*Country: Sweden | Germany
*Format: mp3@CBR320kbps
*Size: 126MB

Tracklist:
1. Mot Främmande Land 07:24
2. Sov Ej Hos Kvinna, Som Är Kunnig I Trolldom 05:26
3. Österländska Tempel 06:46
4. Ur Evighetens Pipa 05:38
5. Vida Jättars Väg 06:12
6. Blott Den Vet Som Vida Reser 06:16
7. Drakhuvud 05:39
8. Händer Skola Hålla Hårda Yxor 04:33
9. Den Döda Trollkvinnan 07:34
******************************
Total playing time: 55:28



[more=Extended info]Ambient Veterans Atrium Carceri & Herbst9 team up on this mysterious album.
The harbor was humid and hot in this mysterious land, nothing like the frosty cold ports of home. Yellow smoke danced to the beat of the drum joined by hypnotic women. The crowd spiraled inward, dancing to far away bells and the murmur beneath the ground.
You awoke sweat clad in linen sheets, the naked woman passed a long pipe. The cherry sparked red like a dragons eye. Head leaned back against a soft pillow, body free falling from soothed skies. A thud as your body hit the ground on a pathway built by giants.

Chanting, ritual drumming and spoken word weave in and out of this album that pays tribute to the old ways.

2018. Cryo Chamber[/more]

[more=Technical info]
Input File: 02 - Sov Ej Hos Kvinna, Som ?r Kunnig I Trolldom.mp3
Channels : 2
Sample Rate : 44100
Precision : 16-bit
Duration : 00:05:26.04 = 14378408 samples = 24453.1 CDDA sectors
File Size : 13.0M
Bit Rate : 320k
Sample Encoding: MPEG audio (layer I, II or III)
Comments :
Title=Sov Ej Hos Kvinna, Som Г„r Kunnig I Trolldom
Artist=Atrium Carceri & Herbst9
Album=Ur Djupan Dal
Tracknumber=02
Year=2018

[/more]

Register
(22) Boozer, Cruor, garmonbozia, gena, Hell_Is_Here, Infidel, kefka, lucifix, marilin, milosdjor, Mirddin, Nhmrath, princeshr, r1348, recber, RUSP73, spiritualdecay666, stub888, thenecromancer, tOmV, Veligor, wtk.412,
Jan 23 2018, 18:41:26 Cist - The Frozen Casket [ep] (2018)
Показательный ретро-дэт метал - натурально машина времени для ностальгирующих.
На последнем фестивале Faces Of Death втащили кавер на "Deathhammer" Asphyx с такой подачей, что чуть труха с потолка не посыпалась.
(3) Samaritianin, samokot, vosmidesijatye,
Jan 20 2018, 19:30:25 Bad Sector - Live At Maschinenfest 2015 [live] (2017)


*Artist: Bad Sector
*Album: Live At Maschinenfest 2015 [live]
*Year: 2017
*Genre: Dark Ambient/Experimental/Industrial
*Country: Italy
*Format: mp3@CBR320kbps
*Size: 120MB

Tracklist:
1. CCEM 6:42
2. Mutua Mutazione 5:10
3. Electa 5:22
4. Cephus 6:59
5. Darion 3:05
6. Jimena 6:37
7. Radial Body 2 6:26
8. Telemetry 5:12
9. Gifts 3:08
10. Ampos 7:35
******************************
Total playing time: 56:16

[more=Technical info]
Input File: 04 - Bad Sector - Cephus.mp3
Channels : 2
Sample Rate : 44100
Precision : 16-bit
Duration : 00:06:59.28 = 18490160 samples = 31445.9 CDDA sectors
File Size : 16.8M
Bit Rate : 321k
Sample Encoding: MPEG audio (layer I, II or III)
Comments :
Title=Cephus
Artist=Bad Sector
Album=Live At Maschinenfest 2015
Tracknumber=04/10
Year=2017
Genre=Dark Ambient, Experimental, Industrial

[/more]

Register
(10) as71, Emhyr var Emreis, gena, Hell_Is_Here, Infidel, kefka, spiritualdecay666, thornfields, trirepeti, veselchak_u,
Jan 17 2018, 20:12:39 Новости Death Metal направления
Autopsy "Critical Madness: The Demo Years"

Following the band's 30th anniversary, "Critical Madness: The Demo Years" compiles the earliest recordings by the kings of sickness.

Chronicling the band's formative years, the collection contains Autopsy’s first demo from 1987 as well as 1988’s legendary "Critical Madness" demo (which quickly resulted in the band inking a deal with Peaceville and the subsequent release of the genre staple debut, 1989’s "Severed Survival").
This special archive release is completed by the rare track "Christ Denied" and a selection of raw rehearsal recordings from 1987 and 1988, most of which would later feature on the band’s studio debut.

https://a.radikal.ru/a02/1801/33/30abe68fe49f.jpg

23.02.2018 Peaceville Records.
(2) infiltrator, Medicate,
Jan 15 2018, 16:44:30 Новости Death Metal направления (5) AB5, Dmitry1977, infiltrator, Samogon, troll_swamp,
Jan 11 2018, 15:55:01 Grunt - Castrate The Illusionist (2018)


*Artist: Grunt
*Album: Castrate The Illusionist
*Year: 2018
*Genre: Power Electronics
*Country: Finland
*Format: mp3@CBR320kbps
*Size: 97MB

Tracklist:
1. Castrate The Illusionist 03:06
2. Hunting Within Civilization 04:00
3. The Iron Curtain Of Discreet Silence 04:06
4. Human Storage 02:05
5. Purge Of Violence 03:07
6. Quacksalver Of Dying Breed 03:32
7. Judas Cradle 03:08
8. Panacea 04:31
9. No Longer Ours 05:31
10. Scavenger's Daughter 02:57
11. Choir of Corpses 03:23
******************************
Total playing time: 39:26



[more=Extended info]This path of recent 10 years Grunt focused mostly on creation of coherent albums. Each album has had its own character, yet often continuation of sound and themes of the previous one. Three years between the albums often spent on smaller releases and extensive amount of live gigs.
”Castrate The Illusionist” album represents both, sonic rawness of direct live-on-tape recordings as well as obsessive care on small detail. 40 minute album consists of 11 tracks, making most of them short, loaded with strong impact what leaves one hunger for more. Sound combines traditions of experimental electronics to fierce power electronics and industrial noise, aiming to fusion of interesting textures and details without losing ripping violent force of dark side of noise.
Freak Animal Records.[/more]

[more=Technical info]
Input File: 02 - Hunting Within Civilization.mp3
Channels : 2
Sample Rate : 44100
Precision : 16-bit
Duration : 00:04:00.85 = 10621265 samples = 18063.4 CDDA sectors
File Size : 9.78M
Bit Rate : 325k
Sample Encoding: MPEG audio (layer I, II or III)
Comments :
Title=Hunting Within Civilization
Artist=Grunt
Album=Castrate The Illusionist
Tracknumber=02/11
Year=2018

[/more]

Register
(8) Boozer, garmonbozia, Hell_Is_Here, Infidel, RUSP73, spiritualdecay666, warning616, wtk.412,
Jan 8 2018, 19:12:04 Martyria - Martyria (2018)


Опосля первого прослушивания показалось замечательным релизом. Будем вникать далее.
(1) abob,
Dec 31 2017, 13:58:28 Genocide Organ - Civilization [compilation] (2017)


*Artist: Genocide Organ
*Album: Civilization [compilation]
*Year: 2017
*Genre: Death Industrial/Power Electronics
*Country: Germany
*Format: mp3@CBR320kbps
*Size: 264MB

Tracklist:
CD1:
1. Death With Dignity 4:51
2. I Want James Meredith 3:50
3. John Birch Society 4:02
4. Kill Useless Nations 4:51
5. Patria Y Libertad 11:41
6. Violent Coordinating Committee 5:23
7. Dogday 7:09
8. R.F. And His Law 2:28
9. Weg Der Verlorenen 4:26
10. TonTon Macoutes 3:14
11. Klan Kountry 5:41
12. We Grow 5:25
13. Search A Place To Die 6:01
CD2:
1. Live At Lever Sunlicht/Mannheim 15.12.90 49:25
******************************
Total playing time: 1:58:27

[more=Extended info]Limited first edition comes as deluxe linenpaper covered, foilblocked and debossed Hard-Slipcase, incl. Coverpak with double CD and extensive large 24p booklet. Only this first edition comes as special Hard-Slipcase Set with the additional Live CD. The CDs come in A5 digipak in hardbook slider. Contains A5 booklet.
CD 2 is indexed as one track.

1-1 to 1-6: Reissue of Save Our Slaves
1-7: Previously released on Various - Exploration One.
1-8: Previously released on Various - Trans-Action.
1-9 Previously released on Various - Natural Order.
1-10: Previously released on Various - The Sound Of Hate, Volume 7: Germany.
1-11 and 1-12: Previously released on Genocide Organ Klan Kountry.
1-13: Previously released on Various - Perpetual State Of Oracular Dream.

2017. Tesco Organisation[/more]

[more=Technical info]
Input File: 07 - Dogday.mp3
Channels : 2
Sample Rate : 44100
Precision : 16-bit
Duration : 00:07:09.60 = 18945404 samples = 32220.1 CDDA sectors
File Size : 17.2M
Bit Rate : 321k
Sample Encoding: MPEG audio (layer I, II or III)
Comments :
Title=Dogday
Artist=Genocide Organ
Album=Civilization
Tracknumber=07
Year=2017
Genre=Death Industrial/Power Electronics

[/more]

Register
(11) abob, garmonbozia, Hell_Is_Here, Infidel, kefka, LOCUSTFURNACE, Necroalex, Saalingurth, spiritualdecay666, wtk.412, Абигор,
Dec 26 2017, 16:18:28 Hesychia - Metanoia (2017)


*Artist: Hesychia
*Album: Metanoia
*Year: 2017
*Genre: Drone Ambient
*Country: Austria
*Format: mp3@CBR320kbps
*Size: 85MB

Tracklist:
1. Apatheia 10:26
2. Metanoia 03:00
3. Nepsis 09:16
4. Maranatha 10:54
5. Revelation 21;5 06:12
******************************
Total playing time: 39:48



[more=Extended info]New project by Austrian Arthur Rosar (former member of Abigor). The album is a meditation on freedom from all passions (apatheia) and repentance (metanoia) through fundamental concepts established by early christian mysticism (the desert fathers) with respect to zen buddhism and pre-christian European traditions. An aural guide to force the removal of all illusions and be in total awareness of the eternal now, forging a stillness of the soul, going beyond the mundane. The music is a savvy achievement of total surrender through improvised analog atmospherics and field recordings.
2017. Cyclic Law[/more]

[more=Technical info]
Input File: 01 - Apatheia.mp3
Channels : 2
Sample Rate : 44100
Precision : 16-bit
Duration : 00:10:26.14 = 27612862 samples = 46960.6 CDDA sectors
File Size : 25.2M
Bit Rate : 322k
Sample Encoding: MPEG audio (layer I, II or III)
Comments :
Title=Apatheia
Artist=Hesychia
Album=Metanoia
Tracknumber=01/05
Year=2017
Genre=Drone Ambient

[/more]

Register
(5) garmonbozia, gena, Sickrites, stub888, Un4given,
Dec 11 2017, 21:22:45 Prurient - Rainbow Mirror (2017)
ЦИТАТА(garmonbozia @ Dec 11 2017, 23:13:53) *
кто подскажет, на каком ресурсе можно найти вышеперечисленные проекты.

Здесь, например.
Lussuria есть вконтакте или в iTunes.
(1) garmonbozia,
Dec 11 2017, 20:15:05 Stromstad - New Devoted Human (2017)


*Artist: Stromstad
*Album: New Devoted Human
*Year: 2017
*Genre: Industrial
*Country: Finland
*Format: mp3@CBR320kbps
*Size: 81MB

Tracklist:
1. Inherent Resurrection 04:18
2. Fever Wave Dream Function 04:06
3. Blood Consciousness 03:47
4. Nattsvermer 06:37
5. Reluctant Traveller (feat. Grutle Kjellson) 03:24
6. Exchanging Eyes 04:32
7. New Devoted Human 05:03
8. Kosto 04:27
******************************
Total playing time: 36:14



[more=Extended info]Few names imply mind-bending, forward thinking heavy electronics like Finnish stalwarts STROM.ec, and with every release, they seem to further stretch the boundaries of what can be a pretty rigid genre, and navigate realms never before seen or heard. Similar things can be said of Norwegian atmospheric heavy weight and Malignant staple, Kristoffer Oustad, whose particular strain of dark ambient and post-industrial soundscapes are incredibly dynamic, at times surreal and cinematic, other times more driving and heavy, but all with a recognizable, highly emotive touch.
Featuring a guest appearance by Grutle Kjellson from the mighty Enslaved, mastering by Henrik Nordvargr Björkk, paintings by Jeff Klena and design by Alonso Urbanos.
2017. Malignant Records.[/more]

[more=Technical info]
Input File: 05 - Reluctant Traveller (feat. Grutle Kjellson).mp3
Channels : 2
Sample Rate : 44100
Precision : 16-bit
Duration : 00:03:24.10 = 9000590 samples = 15307.1 CDDA sectors
File Size : 8.73M
Bit Rate : 342k
Sample Encoding: MPEG audio (layer I, II or III)
Comments :
Title=Reluctant Traveller (feat. Grutle Kjellson)
Artist=Stromstad
Album=New Devoted Human
Tracknumber=05
Year=2017
Genre=Death Industrial/Dark Ambient

[/more]

Register
(6) as71, garmonbozia, gwar, Hell_Is_Here, Infidel, VALERY,
Dec 1 2017, 18:33:39 Новости Black-направления
Necrophobic "Mark of the Necrogram" 23.02.2018
Century Media Records.

http://s04.radikal.ru/i177/1712/2b/da5b34d5f1b9.jpg

(7) avather, Goatrex, neoatheist, Nerevar, ripper33, rom666, vasilisk,
Dec 1 2017, 17:49:55 Новости Black-направления
Совсем не black metal, но тем не менее:
New project by Austrian Arthur Rosar (former member of Abigor). The album is a meditation on freedom from all passions (apatheia) and repentance (metanoia) through fundamental concepts established by early christian mysticism (the desert fathers) with respect to zen buddhism and pre-christian European traditions. An aural guide to force the removal of all illusions and be in total awareness of the eternal now, forging a stillness of the soul, going beyond the mundane. The music is a savvy achievement of total surrender through improvised analog atmospherics and field recordings. Recorded during lent 2016 A.D. by Arthur Rosar with Erik Mayer at Bethlehem, Vienna. Artwork by Dehn Sora.
Cyclic Law. December 24, 2017
(1) Premature_Devotion,
Nov 29 2017, 16:03:14 Grunt & Bizarre Uproar & Deathkey & Caligula031 - Beyond [split] (2017)
Register
(1) Raw1488,
Nov 26 2017, 20:04:28 Новости Black-направления
Abigor "Höllenzwang - Chronicles of Perdition"
is now being sent off to the pressing plant. True to our continuing refusal of commercial marketing, there won´t be any fancy youtube video, tons of merch or other promotion campaigns. This is the first glimpse of what you could expect on the forthcoming album - condensed to 36 minutes of pure aural evil.
The only noteworthy information to pass on is the underlying musical / technical concept of the album: there is no - not one single - additional guitar track recorded. No additional melody, no solo, no doubletracks. Instrumentally, we limited ourselves to record a rather natural and direct album consisting of 2 guitars, a bass and „blastbeat“ free drums. To remember the original idea of early 90s Black Metal which always meant both - TRADITION and at the same time INNOVATION. The past is alive, the black flame burns bright - all hail darkness and evil!

(4) DarkHorde, infiltrator, VECTOR, yuratroll,
Nov 15 2017, 16:44:49 Altarmang - Void (2017)
Register
(2) recber, stub888,

24 Pages V   1 2 3 > » 
- Lo-Fi Version Support form
Copyrights and abuse reports form
Time is now: 5th April 2020 - 19:36:18