Welcome Guest ( Log In | Register )

История благодарностей участнику satanist666 ::: Спасибо сказали: 7790 раз(а)
Дата поста: В теме: За сообщение: Спасибо сказали:
Nov 2 2021, 17:30:33 Labium Minora - Coryphaeus Spreader Hatred (2016)
Залито на Ядиск - 25.5Mb в 128kbps:
Register

metaler.gif
(2) wanderer73, wreak,
Oct 26 2021, 16:17:03 Purulent Spermcanal & Carnal Diafragma - Purulent Spermcanal/Carnal Diafragma [split] (2020)


*Artist: Purulent Spermcanal & Carnal Diafragma
*Album: Purulent Spermcanal/Carnal Diafragma [split]
*Year: 2020
*Genre: Death Metal/Goregrind | Goregrind
*Country: Czech Republic | Czech Republic
*Format: mp3@CBR320kbps
*Size: 67MB

Tracklist:
Purulent Spermcanal:
01. Todays Menu - Human Roast 02:16
02. Carnal Diafragma Is Not Grind Core 00:16
03. Mouth Full Of Blood 00:46
04. Pus 02:41
05. And Rožan Knows It.... 00:47
06. Maggot Feast For Invitees 02:29
07. Leg Ass Torso 02:09
Carnal Diafragma:
08. Preventivní Ejakulace Obyvatel 02:10
09. S Červy Nejsou Žerty 01:38
10. Vaječní Zajatci V Konzervačním Táboře 01:41
11. Hymen Monster 03:39
12. Purulent Spermcanal Is Not Impetigo 02:38
******************************
Total playing time: 23:10

[more=Extended info]





[youtube]L2JbZrZpWAw[/youtube]

Recorded, Mixed & Mastered at Davos Studio: November /December 2018.
At Výškov City Czech Republic. Releated 14 August 2020.

Size: 66.6 Mb[/more]

[more=Technical info]
Input File: 01. Purulent Spermcanal - Todays Menu - Human Roast.mp3
Channels : 2
Sample Rate : 44100
Precision : 16-bit
Duration : 00:02:16.66 = 6026574 samples = 10249.3 CDDA sectors
File Size : 5.97M
Bit Rate : 349k
Sample Encoding: MPEG audio (layer I, II or III)
Comments :
Title=Todays Menu - Human Roast
Artist=Purulent Spermcanal
Album=Purulent Spermcanal & Carnal Diafragma Split (320)
Tracknumber=01
Year=2020
Genre=Metal

[/more]

Register
(9) caro, djsema4, GorAtheist, Hell_Is_Here, julianotidre, popen13, Unknown, vyacheslav, wreak,
Oct 26 2021, 15:56:32 Festering Saliva - Zeroline (2012)


*Artist: Festering Saliva
*Album: Zeroline
*Year: 2012
*Genre: Death Metal
*Country: Germany
*Format: mp3@CBR320kbps
*Size: 78MB

Tracklist:
01. Bloodthirst 02:40
02. Torn Apart 03:55
03. Evil Undead 03:14
04. Military Song 03:34
05. Rising 05:02
06. 3 Minutes 03:10
07. A Phonic Facial 03:36
08. Down Through The Gullet 03:55
09. Zeroline 04:28
******************************
Total playing time: 33:34

[more=Extended info]
[youtube]Mx5_-JluqIc[/youtube]
[youtube]xFu0jGWEgyM[/youtube]
[youtube]hTStCeC4j-Y[/youtube][/more]

[more=Technical info]
Input File: 01. Bloodthirst.mp3
Channels : 2
Sample Rate : 44100
Precision : 16-bit
Duration : 00:02:40.40 = 7073772 samples = 12030.2 CDDA sectors
File Size : 6.56M
Bit Rate : 327k
Sample Encoding: MPEG audio (layer I, II or III)
Comments :
Title=Bloodthirst
Artist=Festering Saliva
Album=Zeroline
Tracknumber=01/09
Year=2012
Genre=Death Metal
Discnumber=01/01

[/more]

Register
(14) artscald, caro, chipsgott, DiegoMassakre, GorAtheist, julianotidre, Marek, METALHUNTER, Olethros, supremo, Svafrlami, vyacheslav, wanderer73, wreak,
Oct 26 2021, 15:23:10 Cernunnos - From Roots [ep] (2018)


*Artist: Cernunnos
*Album: From Roots [ep]
*Year: 2018
*Genre: Folk Metal
*Country: Argentina
*Format: mp3@CBR320kbps
*Size: 42MB

Tracklist:
01. Leaves Of Blood (Acoustic Version) 01:10
02. The Battle Of Moytirra (Acoustic Version) 03:20
03. Birth Of Galatia (Acoustic Version) 04:27
04. Let's Folk And Roll (Acoustic Version) 03:43
05. Scarborough Fair (Acoustic Version) 05:38
******************************
Total playing time: 18:18

[more=Extended info]

[youtube]dt6APVo3AA8[/youtube][/more]

[more=Technical info]
Input File: 01. Leaves Of Blood (Acoustic Version).mp3
Channels : 2
Sample Rate : 44100
Precision : 16-bit
Duration : 00:01:10.85 = 3124441 samples = 5313.68 CDDA sectors
File Size : 2.83M
Bit Rate : 320k
Sample Encoding: MPEG audio (layer I, II or III)
Comment : 'Genre=12'

[/more]

Register
(10) artscald, caro, Cartman223, chipsgott, gwar, homelike, julianotidre, Olethros, Svafrlami, wreak,
Oct 26 2021, 15:12:45 Cernunnos - Survivors [single] (2018)


*Artist: Cernunnos
*Album: Survivors [single]
*Year: 2018
*Genre: Folk Metal
*Country: Argentina
*Format: mp3@CBR320kbps
*Size: 10MB

Tracklist:
01. Survivors 03:46
******************************
Total playing time: 3:46

[more=Extended info]

[youtube]rs_wLaz04IE[/youtube][/more]

[more=Technical info]
Input File: 01. Survivors.mp3
Channels : 2
Sample Rate : 44100
Precision : 16-bit
Duration : 00:03:45.32 = 9936568 samples = 16898.9 CDDA sectors
File Size : 9.01M
Bit Rate : 320k
Sample Encoding: MPEG audio (layer I, II or III)

[/more]

Register
(8) artscald, caro, Cartman223, chipsgott, gwar, Olethros, Svafrlami, wreak,
Oct 25 2021, 10:31:00 Throne Ov Shiva - The Last Anthem (2019)
THRONE OF SHIVA:
(1) Occultas,
Oct 24 2021, 17:24:27 Cognitive - The Horrid Swarm [ep] (2012)


Залито на Ядиск - 35Mb в 320kbps!!!:
Register

metaler.gif
(1) kimkayoung,
Oct 24 2021, 15:37:55 Жнец - Пробуждение [demo] (2014)
Можно скачть Б/П в 320kbps!!!:
ЖНЕЦ:

metaler.gif
(1) kimkayoung,
Oct 19 2021, 09:22:40 Seer Of Gallows - Entropy Of Holocene (2021)
IRON, BLOOD & DEATH Corporation:


SCHATTENKULT Produktionen:
(1) Mencae77,
Oct 19 2021, 09:06:35 Скверна Линия - Snowfall [ep] (2020)


*Artist: Скверна Линия
*Album: Snowfall [ep]
*Year: 2020
*Genre: Black Metal
*Country: Russian Federation
*Format: mp3@CBR320kbps
*Size: 30MB

Tracklist:
01. Interlude 01:35
02. Snowfall 05:37
03. Колыбельная Для Солнца (Flёur Cover) 05:56
******************************
Total playing time: 13:08

[more=Extended info]

[youtube]OXMglCLyYik[/youtube][/more]

[more=Technical info]
Input File: 01. Interlude.mp3
Channels : 2
Sample Rate : 44100
Precision : 16-bit
Duration : 00:01:35.07 = 4192499 samples = 7130.1 CDDA sectors
File Size : 3.82M
Bit Rate : 322k
Sample Encoding: MPEG audio (layer I, II or III)
Comments :
Title=Interlude
Artist=Ñêâåðíà ëèíèÿ
Album=Snowfall
Tracknumber=1
Year=2020

[/more]

Register
(9) artscald, caro, julianotidre, Olethros, SilentNidhogg, stormhatt, VALERY, varlam4, wreak,
Oct 17 2021, 15:52:31 Rotting Anal Bead Ejaculation & Rigor Mortal Fucktoys - Flesh Party [split] (2016)
Можно скачать Б/П в 320kbps!!!:
ROTTING ANAL BEAD EJACULATION:

metaler.gif
(1) wreak,
Oct 17 2021, 15:52:19 Rotting Anal Bead Ejaculation & Lord Piggy - Rotting Anal Bead Ejaculation/Lord Piggy [split] (2016)
Можно скачать Б/П в 320kbps!!!:
ROTTING ANAL BEAD EJACULATION:

metaler.gif
(1) wreak,
Oct 17 2021, 15:51:52 Rotting Anal Bead Ejaculation - Kentucky Fried Deepthroat [ep] (2016)
Можно скачать Б/П в 320kbps!!!:
ROTTING ANAL BEAD EJACULATION:

metaler.gif
(1) wreak,
Oct 17 2021, 15:51:36 Rotting Anal Bead Ejaculation - Please Stop Me [single] (2015)


*Artist: Rotting Anal Bead Ejaculation
*Album: Please Stop Me [single]
*Year: 2015
*Genre: Pornogrind/Noisecore
*Country: United Kingdom
*Format: mp3@CBR320kbps
*Size: 2MB

Tracklist:
01. Please Stop Me 00:51
******************************
Total playing time: 0:51

[more=Extended info]
[youtube]khm3IyKSuJU[/youtube][/more]

[more=Technical info]
Input File: 01. Please Stop Me.mp3
Channels : 2
Sample Rate : 44100
Precision : 16-bit
Duration : 00:00:51.86 = 2286982 samples = 3889.43 CDDA sectors
File Size : 2.19M
Bit Rate : 338k
Sample Encoding: MPEG audio (layer I, II or III)
Comments :
Title=Please Stop Me
Artist=Rotting Anal Bead Ejaculation
Year=2015

[/more]

Register
(4) caro, Olethros, Svafrlami, wreak,
Oct 17 2021, 14:29:30 Spectral Darkwave - The Price Of Victory [single] (2019)


*Artist: Spectral Darkwave
*Album: The Price Of Victory [single]
*Year: 2019
*Genre: Symphonic Death/Doom Metal
*Country: United Kingdom
*Format: mp3@CBR320kbps
*Size: 14MB

Tracklist:
01. The Price Of Victory 05:57
******************************
Total playing time: 5:57

[more=Extended info]


[youtube]PEif2EOpP8I[/youtube][/more]

[more=Technical info]
Input File: 01. The Price Of Victory.mp3
Channels : 2
Sample Rate : 44100
Precision : 16-bit
Duration : 00:05:57.72 = 15775232 samples = 26828.6 CDDA sectors
File Size : 14.3M
Bit Rate : 320k
Sample Encoding: MPEG audio (layer I, II or III)

[/more]

Register
(10) artscald, caro, chipsgott, kimkayoung, krotovich, lacrimoza, Olethros, quarantine, sergsazan, wreak,
Oct 17 2021, 13:03:44 I Porno You & Curd - Hey! Baby It S Harsh [split] (2016)


*Artist: I Porno You & Curd
*Album: Hey! Baby It S Harsh [split]
*Year: 2016
*Genre: Experimental Noise | Gorenoise/Noisegrind/Noisecore
*Country: Ecuador | Canada
*Format: mp3@CBR256kbps
*Size: 25MB

Tracklist:
I Porno You:
01. Rape With Love 01:27
02. I Like So Much You Love It 01:39
03. Nouh 00:50
04. My Life With Cadaver Thrill Girls Kill Kult (.I. Porno You Mix) 01:52
Curd:
05. Highway Head 00:14
06. Shit Sandwichs 00:15
07. Bettys Bed 00:19
08. Grandpas Ashes 00:12
09. Toilet In The Sand 00:18
10. Hippietreehumper 00:13
11. Trina Tyed To Fit 00:06
12. Buried In Waste 00:17
13. Ester Ate Andys Eyes 00:13
14. Chuck Chuked His Chainsaw 00:10
15. Bass Boost 00:14
16. Shauna Had The Shakes 00:18
17. Cris Huffed Crazy Glue 00:14
18. Yuri Yearned For It 00:11
19. Willie Had Genital Warts 00:12
20. Allergies 00:19
21. Propane Shaker 00:15
22. Shameful Act 00:11
23. Herry Felt The Heat 00:15
24. Frank Started The Fire 00:10
25. Tommy Had His Tonsels Removed 00:12
26. Stacy Snatched It 00:12
27. Cannon Ride 00:10
28. Jessie Jumped 00:17
29. Terrys Knife Tore Through 00:13
******************************
Total playing time: 11:28

[more=Extended info]
[youtube]EfGOCjsjaEI[/youtube][/more]

[more=Technical info]
Input File: 01. I Porno You - Rape With Love.mp3
Channels : 2
Sample Rate : 44100
Precision : 16-bit
Duration : 00:01:27.82 = 3872994 samples = 6586.72 CDDA sectors
File Size : 2.22M
Bit Rate : 203k
Sample Encoding: MPEG audio (layer I, II or III)
Comments :
Title=Rape With Love
Artist=I PORNO YOU
Album=Hey! Baby It´s Harsh
Tracknumber=1

[/more]

Register
(4) caro, dcatagua, Lanceatum, wreak,
Oct 17 2021, 12:10:48 I Porno You & Vile Seeds Of Wasteful Vomiting - Retarted Split For Anti Music Fags [split] (2017)


*Artist: I Porno You & Vile Seeds Of Wasteful Vomiting
*Album: Retarted Split For Anti Music Fags [split]
*Year: 2017
*Genre: Experimental Noise | Gorenoise/Noisegrind
*Country: Ecuador | United States
*Format: mp3@CBR320kbps
*Size: 12MB

Tracklist:
I Porno You:
01. Metilendioximetanfetamina 00:36
02. Digitaltitsanguy 00:27
03. Paralelépípedo 00:47
04. Miedo Al Numero 666 00:44
05. Homopedonecrozoofilico 00:28
Vile Seeds Of Wasteful Vomiting:
06. Be Hand Not Behead 00:08
07. Seven Trax 00:30
******************************
Total playing time: 3:40

[more=Extended info]

[/more]

[more=Technical info]
Input File: 01. I Porno You - Metilendioximetanfetamina.mp3
Channels : 2
Sample Rate : 44100
Precision : 16-bit
Duration : 00:00:36.39 = 1604931 samples = 2729.47 CDDA sectors
File Size : 1.58M
Bit Rate : 347k
Sample Encoding: MPEG audio (layer I, II or III)
Comments :
Title=Metilendioximetanfetamina
Artist=I Porno You
Album=Retarted Split For Anti Music Fags
Tracknumber=1

[/more]

Register
(4) caro, dcatagua, Lanceatum, wreak,
Oct 17 2021, 11:55:01 Vile Seeds Of Wasteful Vomiting & Leninist Necrophile - Vxsxoxwxv Vs Leninist Necrophile [split] (2017)


*Artist: Vile Seeds Of Wasteful Vomiting & Leninist Necrophile
*Album: Vxsxoxwxv Vs Leninist Necrophile [split]
*Year: 2017
*Genre: Gorenoise/Noisegrind | Goregrind/Pornogrind/Noisegrind
*Country: United States | United States
*Format: mp3@CBR320kbps
*Size: 12MB

Tracklist:
Vile Seeds Of Wasteful Vomiting:
01. Drowning In Vomit 01:47
02. Vile Seeds Of Wasteful Vomiting 01:11
Leninist Necrophile:
03. The People's Bath House 00:32
04. Screaming Bloody Revolution 01:22
******************************
Total playing time: 4:52

[more=Extended info]

[youtube]d5dzH8HhpnQ[/youtube][/more]

[more=Technical info]
Input File: 01. Vile Seeds Of Wasteful Vomiting - Drowning In Vomit.mp3
Channels : 2
Sample Rate : 44100
Precision : 16-bit
Duration : 00:01:47.50 = 4740882 samples = 8062.72 CDDA sectors
File Size : 4.45M
Bit Rate : 332k
Sample Encoding: MPEG audio (layer I, II or III)
Comments :
Title=Drowning In Vomit
Artist=Vile Seeds Of Wasteful Vomiting
Album=VxSxOxWxV vs Leninist Necrophile
Tracknumber=1
Year=2017

[/more]

Register
(4) carnegrinder, caro, Lanceatum, wreak,
Oct 17 2021, 11:41:57 Leninist Necrophile - Queer Vanguard [demo] (2017)


*Artist: Leninist Necrophile
*Album: Queer Vanguard [demo]
*Year: 2017
*Genre: Goregrind/Pornogrind/Noisegrind
*Country: United States
*Format: mp3@CBR320kbps
*Size: 34MB

Tracklist:
01. Gulag Sexstore 00:55
02. Gay Juche 01:28
03. Queer Vanguard 00:39
04. Modern Spartan Intercourse 01:31
05. Supreme Leader Sex Fest 01:18
06. Screaming Bloody Revolution 01:22
07. Stalin's Slut Squad 01:05
08. The People's Bath House 00:31
09. Khrushchev's Snuff Fetish 05:46
******************************
Total playing time: 14:35

[more=Extended info]
[/more]

[more=Technical info]
Input File: 01. Gulag Sexstore.mp3
Channels : 2
Sample Rate : 44100
Precision : 16-bit
Duration : 00:00:55.18 = 2433262 samples = 4138.2 CDDA sectors
File Size : 2.26M
Bit Rate : 327k
Sample Encoding: MPEG audio (layer I, II or III)
Comments :
Title=Gulag Sexstore
Artist=Leninist Necrophile
Album=Queer Vanguard
Tracknumber=1
Year=2017

[/more]

Register
(5) carnegrinder, caro, Olethros, vyacheslav, wreak,
Oct 17 2021, 11:33:54 Leninist Necrophile - Demo 2017 [demo] (2017)


*Artist: Leninist Necrophile
*Album: Demo 2017 [demo]
*Year: 2017
*Genre: Goregrind/Pornogrind/Noisegrind
*Country: United States
*Format: mp3@CBR320kbps
*Size: 22MB

Tracklist:
01. 38,700,000,000,000,000 Dead Kulaks (The Act Of Making Stalin Look Like A Fucking Anarchist) 01:47
02. Joseph Beats Them Kulak Cheeks 01:57
03. Eviscerating Bourgeois Urethras 01:58
04. Nuclear-Armed Fully-Automated Luxury Gay Intergalactic Transhumanist Social Egoist Transgender Anarcho-Leninism 03:51
******************************
Total playing time: 9:33

[more=Extended info]
[/more]

[more=Technical info]
Input File: 01. 38,700,000,000,000,000 Dead Kulaks (The Act Of Making Stalin Look Like A Fucking Anarchist).mp3
Channels : 2
Sample Rate : 44100
Precision : 16-bit
Duration : 00:01:47.21 = 4728049 samples = 8040.9 CDDA sectors
File Size : 4.36M
Bit Rate : 325k
Sample Encoding: MPEG audio (layer I, II or III)
Comments :
Title=38,700,000,000,000,000 Dead Kulaks (The Act of Making Stalin Look Like a Fucking Anarchist)
Artist=Leninist Necrophile
Album=Demo 2017
Tracknumber=1
Year=2017

[/more]

Register
(5) carnegrinder, caro, Olethros, vyacheslav, wreak,
Oct 17 2021, 11:17:28 Stromptha - Killed Her [demo] (2019)


*Artist: Stromptha
*Album: Killed Her [demo]
*Year: 2019
*Genre: Atmospheric Doom/Black Metal
*Country: Greenland
*Format: mp3@CBR320kbps
*Size: 28MB

Tracklist:
01. Killed Her 11:50
******************************
Total playing time: 11:50

[more=Extended info]


[youtube]b2mKvCvFkOo[/youtube]

''Killed Her'' - unreleased track from 2015. Released August 3, 2019.
Location: Qaanaaq, Avannaata (early); Toulouse, Occitanie, France (later).[/more]

[more=Technical info]
Input File: 01. Killed Her.mp3
Channels : 2
Sample Rate : 44100
Precision : 16-bit
Duration : 00:11:50.52 = 31333932 samples = 53289 CDDA sectors
File Size : 28.5M
Bit Rate : 321k
Sample Encoding: MPEG audio (layer I, II or III)
Comments :
Title=Killed Her
Artist=Stromptha
Album=Killed Her
Tracknumber=1
Year=2019

[/more]

Register
(11) artscald, caro, Forest Silence, julianotidre, Olethros, sergsazan, SilentNidhogg, stormhatt, Taakeferd, VALERY, wreak,
Oct 13 2021, 15:46:42 Infuzoria Tufelka - Tasty Food (Ep Album) [ep] (2013)


*Artist: Infuzoria Tufelka
*Album: Tasty Food (Ep Album) [ep]
*Year: 2013
*Genre: Goregrind/Brutal Death Metal
*Country: Russian Federation
*Format: mp3@CBR320kbps
*Size: 14MB

Tracklist:
01. Intestinal Nodules 01:59
02. Gangrene Semifinished 00:58
03. Salt For Baths 00:24
04. Double Genitals 01:16
05. Ants Masochists 01:19
******************************
Total playing time: 5:56

[more=Extended info]
https://vk.com/infuzoriatukelka
[youtube]c3dWAqynm2c[/youtube][/more]

[more=Technical info]
Input File: 01. Intestinal Nodules.mp3
Channels : 2
Sample Rate : 44100
Precision : 16-bit
Duration : 00:01:59.70 = 5278770 samples = 8977.5 CDDA sectors
File Size : 4.79M
Bit Rate : 320k
Sample Encoding: MPEG audio (layer I, II or III)

[/more]

Register
(5) carnegrinder, caro, Olethros, Svafrlami, wreak,
Oct 13 2021, 15:33:57 Pile Of Priests - Tenebrous Labyrinth [ep] (2017)


*Artist: Pile Of Priests
*Album: Tenebrous Labyrinth [ep]
*Year: 2017
*Genre: Death/Thrash Metal
*Country: United States
*Format: mp3@CBR128kbps
*Size: 28MB

Tracklist:
01. Tenebrous Labyrinth 04:25
02. Kafir 04:21
03. Interglacial Departure 05:45
04. Divine Step (Coroner Cover) 06:36
05. Through The Eyes Of Greed (Sadus Cover) 04:12
06. Hate Inside Your Head (Kreator Cover) 03:33
******************************
Total playing time: 28:52

[more=Extended info]


[youtube]vYSbxG_o03o[/youtube][/more]

[more=Technical info]
Input File: 01. Tenebrous Labyrinth.mp3
Channels : 2
Sample Rate : 44100
Precision : 16-bit
Duration : 00:04:24.57 = 11667713 samples = 19843 CDDA sectors
File Size : 4.43M
Bit Rate : 134k
Sample Encoding: MPEG audio (layer I, II or III)
Comments :
Title=Tenebrous Labyrinth
Artist=Pile Of Priests
Album=Tenebrous Labyrinth (EP)
Tracknumber=01
Year=2017
Genre=Death Metal, Thrash Metal

[/more]

Register
(5) Olethros, sergsazan, Volk11911, vyacheslav, Xtohar,
Oct 13 2021, 13:20:00 Pile Of Priests - Redemptionem Per Cruciatu [single] (2017)


*Artist: Pile Of Priests
*Album: Redemptionem Per Cruciatu [single]
*Year: 2017
*Genre: Death/Thrash Metal
*Country: United States
*Format: mp3@CBR320kbps
*Size: 12MB

Tracklist:
01. Redemptionem Per Cruciatu 04:51
******************************
Total playing time: 4:51

[more=Extended info]

[youtube]x5dpstt6xQE[/youtube][/more]

[more=Technical info]
Input File: 01. Redemptionem Per Cruciatu.mp3
Channels : 2
Sample Rate : 44100
Precision : 16-bit
Duration : 00:04:51.39 = 12850255 samples = 21854.2 CDDA sectors
File Size : 11.8M
Bit Rate : 324k
Sample Encoding: MPEG audio (layer I, II or III)
Comments :
Title=Redemptionem Per Cruciatu
Artist=Pile of Priests
Year=2017

[/more]

Register
(8) artscald, boby9052, caro, METALHUNTER, Olethros, stumpheavyrock, Svafrlami, wreak,
Oct 12 2021, 17:27:49 Pandemic Outbreak - Collecting The Trophies [ep] (2018)
Можно скачать Б/П в 320kbps!!!:
PANDEMIC OUTBREAK:

metaler.gif
(1) wreak,

74 Pages V   1 2 3 > » 
- Lo-Fi Version Support form
Copyrights and abuse reports form
Time is now: 29th November 2021 - 22:44:25