Welcome Guest ( Log In | Register )

История благодарностей участнику satanist666 ::: Спасибо сказали: 5087 раз(а)
Дата поста: В теме: За сообщение: Спасибо сказали:
Today, 10:16:27 Range Of Mutilated - Post Traumatic Perish (2016)
WAAR Productions:
(1) Occultas,
May 12 2021, 18:51:10 Lalssu - The Elements (2020)


*Artist: Lalssu
*Album: The Elements
*Year: 2020
*Genre: Ambient/Doom/Black Metal
*Country: Brazil
*Format: mp3@CBR128kbps
*Size: 35MB

Tracklist:
01. Ethereal 03:39
02. The Betrayer From The Ocean 07:35
03. Volcanic Echoes 08:04
04. Dancing With The Devil 05:49
05. Sands Of Time 02:35
06. Enlil 08:09
******************************
Total playing time: 35:51

[more=Extended info]
[youtube]KZOnaCh_z7E[/youtube][/more]

[more=Technical info]
Input File: 01. Ethereal.mp3
Channels : 2
Sample Rate : 44100
Precision : 16-bit
Duration : 00:03:39.56 = 9682640 samples = 16467.1 CDDA sectors
File Size : 3.59M
Bit Rate : 131k
Sample Encoding: MPEG audio (layer I, II or III)
Comments :
Title=Ethereal
Artist=LALSSU
Album=The Elements
Tracknumber=1/6
Year=2020

[/more]

Register
(4) metala, Olethros, thenecromancer, VALERY,
May 12 2021, 18:25:14 Malediction 666 - We, Demons (2019)


*Artist: Malediction 666
*Album: We, Demons
*Year: 2019
*Genre: Death/Black Metal
*Country: Brazil
*Format: mp3@CBR320kbps
*Size: 81MB

Tracklist:
01. Before Times 02:33
02. We, Demons 03:04
03. From The Infernal Womb 02:48
04. Unmasked Savior (Feat. Sakis Tolis of Rotting Christ) 03:13
05. Summon The God Inside You 03:13
06. Portal 04:08
07. Forgotten Rage 04:42
08. Cursed Penumbra (Feat. Stephan Necroabyssious of Varathron) 03:49
09. All Hail The Serpent King 03:14
10. Look Into The Eyes Of Death 04:08
******************************
Total playing time: 34:52

[more=Extended info]

[youtube]lGN21_JGYlk[/youtube][/more]

[more=Technical info]
Input File: 01. Before Times.mp3
Channels : 2
Sample Rate : 44100
Precision : 16-bit
Duration : 00:02:33.48 = 6768336 samples = 11510.8 CDDA sectors
File Size : 6.14M
Bit Rate : 320k
Sample Encoding: MPEG audio (layer I, II or III)

[/more]

Register
(8) AlexSmith, caro, kauyumari, Olethros, Pinhead666, Taakeferd, VALERY, wtk.412,
May 12 2021, 17:47:26 Legio Inferi - Tragédias Do Infinito Nascer (2014)


*Artist: Legio Inferi
*Album: Tragédias Do Infinito Nascer
*Year: 2014
*Genre: Black Metal
*Country: Brazil
*Format: mp3@CBR320kbps
*Size: 87MB

Tracklist:
01. Devorando As Partes Da Alma 07:50
02. Nascido Do Ventre Apodrecido 05:15
03. Da Carne Ao Obscuro 08:55
04. Ária A Sabedoria Da Morte 05:17
05. Tragédias Do Infinito Nascer 02:44
06. Luna Viam Illustrat (Instrumental) 01:12
07. Do Altar Para Eternidade (Instrumental) 05:22
******************************
Total playing time: 36:35

[more=Extended info]
[youtube]1MrqHONTE54[/youtube][/more]

[more=Technical info]
Input File: 01. Devorando As Partes Da Alma.mp3
Channels : 2
Sample Rate : 44100
Precision : 16-bit
Duration : 00:07:50.70 = 20757870 samples = 35302.5 CDDA sectors
File Size : 18.8M
Bit Rate : 320k
Sample Encoding: MPEG audio (layer I, II or III)

[/more]

Register
(9) caro, kauyumari, kim666, Olethros, Reverend, Rover, Taakeferd, thenecromancer, VALERY,
May 12 2021, 17:08:06 Legio Inferi - Não Existem Sacrifícios... Apenas Deixe De Existir [ep] (2020)


*Artist: Legio Inferi
*Album: Não Existem Sacrifícios... Apenas Deixe De Existir [ep]
*Year: 2020
*Genre: Black Metal
*Country: Brazil
*Format: mp3@CBR320kbps
*Size: 21MB

Tracklist:
01. Não Existem Sacrifícios... Apenas Deixe De Existir 04:26
02. Regresse Ao Caminho Do Desespero 04:39
******************************
Total playing time: 9:05

[more=Extended info]
[youtube]https://www.youtube.com/watch?app=desktop&v=jBcpsJ6rf58[/youtube][/more]

[more=Technical info]
Input File: 01. Não Existem Sacrifícios... Apenas Deixe De Existir.mp3
Channels : 2
Sample Rate : 44100
Precision : 16-bit
Duration : 00:04:26.44 = 11749916 samples = 19982.9 CDDA sectors
File Size : 10.7M
Bit Rate : 320k
Sample Encoding: MPEG audio (layer I, II or III)

[/more]

Register
(6) caro, Olethros, Reverend, Taakeferd, thenecromancer, VALERY,
May 12 2021, 16:36:42 Mørk Visdom - Obscure Symphonies (The Cursed Chant Of The Fallen Angels) (2021)


*Artist: Mørk Visdom
*Album: Obscure Symphonies (The Cursed Chant Of The Fallen Angels)
*Year: 2021
*Genre: Black Metal
*Country: Brazil
*Format: mp3@CBR320kbps
*Size: 96MB

Tracklist:
01. Beginning The Dark Infernal Act 01:51
02. OdiVm A Christo 04:32
03. Among The Master Of Black Shadows 03:40
04. Obscure Symphonies (The Cursed Chant Of The Fallen Angels) 05:26
05. Interlude Of Chaos, The Profane Wisdom 03:13
06. From The Deepest Abyss, The Blood Offered 04:52
07. Unholy Army (We Salute Of Angel Of The Light) 03:53
08. The Dark Breath In The Black Wind 04:04
09. Morbid Melancholy, The Cry Of Lost Souls 05:04
10. The Question Of Last Chapter ...?... 04:48
******************************
Total playing time: 41:23

[more=Extended info]
[youtube]pIiaQYp6248[/youtube][/more]

[more=Technical info]
Input File: 01. Beginning The Dark Infernal Act.mp3
Channels : 2
Sample Rate : 44100
Precision : 16-bit
Duration : 00:01:51.81 = 4930821 samples = 8385.75 CDDA sectors
File Size : 4.47M
Bit Rate : 320k
Sample Encoding: MPEG audio (layer I, II or III)

[/more]

Register
(4) craP_cillA, kim666, Marek, Olethros,
May 12 2021, 10:31:16 Anapilin - Neganda [single] (2020)


*Artist: Anapilin
*Album: Neganda [single]
*Year: 2020
*Genre: Black Metal
*Country: Lithuania
*Format: mp3@CBR320kbps
*Size: 14MB

Tracklist:
01. Neganda 05:56
******************************
Total playing time: 5:56

[more=Extended info]

[youtube]MFAdeEQgtsE[/youtube][/more]

[more=Technical info]
Input File: 01. Neganda.mp3
Channels : 2
Sample Rate : 44100
Precision : 16-bit
Duration : 00:05:56.67 = 15729103 samples = 26750.2 CDDA sectors
File Size : 14.4M
Bit Rate : 323k
Sample Encoding: MPEG audio (layer I, II or III)
Comments :
Title=Neganda
Artist=Anapilin
Year=2019

[/more]

Register
(2) Olethros, Taakeferd,
May 12 2021, 08:58:33 Terminalist - Voyagers [single] (2020)


*Artist: Terminalist
*Album: Voyagers [single]
*Year: 2020
*Genre: Black/Thrash Metal
*Country: Denmark
*Format: mp3@CBR320kbps
*Size: 14MB

Tracklist:
01. Voyagers 05:40
******************************
Total playing time: 5:40

[more=Extended info]
[/more]

[more=Technical info]
Input File: 01. Voyagers.mp3
Channels : 2
Sample Rate : 44100
Precision : 16-bit
Duration : 00:05:40.89 = 15033249 samples = 25566.8 CDDA sectors
File Size : 13.7M
Bit Rate : 322k
Sample Encoding: MPEG audio (layer I, II or III)
Comments :
Title=Voyagers
Artist=Terminalist
Year=2020

[/more]

Register
(7) boby9052, caro, Olethros, scorpionmk, stumpheavyrock, Taakeferd, wgs73,
May 12 2021, 00:00:59 Mangled Carpenter - A Very Mangled Christmas [ep] (2020)


*Artist: Mangled Carpenter
*Album: A Very Mangled Christmas [ep]
*Year: 2020
*Genre: Death Metal/Grindcore
*Country: United States
*Format: mp3@CBR320kbps
*Size: 23MB

Tracklist:
01. Jingle Bells (Slashing Through The Snow) 02:12
02. God Rest Ye Merry Gentlemen 02:02
03. Christmas All Around 01:39
04. Riverbottom Nightmare Band 01:34
05. What's This 02:00
******************************
Total playing time: 9:27

[more=Extended info]

[youtube]IQv0BhOCBN8[/youtube][/more]

[more=Technical info]
Input File: 01. Jingle Bells (Slashing Through The Snow).mp3
Channels : 2
Sample Rate : 44100
Precision : 16-bit
Duration : 00:02:12.35 = 5836459 samples = 9925.95 CDDA sectors
File Size : 5.45M
Bit Rate : 330k
Sample Encoding: MPEG audio (layer I, II or III)
Comments :
Title=Jingle Bells (Slashing through the Snow)
Artist=Mangled Carpenter
Album=A Very Mangled Christmas
Tracknumber=1
Year=2020
Discnumber=1

[/more]

Register
(5) Begemot70, infiltrator, Olethros, Taakeferd, vyacheslav,
May 11 2021, 23:54:35 Mangled Carpenter - Early Slices [ep] (2019)


*Artist: Mangled Carpenter
*Album: Early Slices [ep]
*Year: 2019
*Genre: Death Metal/Grindcore
*Country: United States
*Format: mp3@CBR320kbps
*Size: 18MB

Tracklist:
01. Prowler 01:21
02. Flatline 02:35
03. Dying Inside 01:34
04. No Friend 01:06
05. Strongholds 01:09
******************************
Total playing time: 7:45

[more=Extended info][/more]

[more=Technical info]
Input File: 01. Prowler.mp3
Channels : 2
Sample Rate : 44100
Precision : 16-bit
Duration : 00:01:21.43 = 3591107 samples = 6107.32 CDDA sectors
File Size : 3.26M
Bit Rate : 320k
Sample Encoding: MPEG audio (layer I, II or III)
Comments :
Title=Prowler
Artist=Mangled Carpenter
Album=Early Slices - EP
Tracknumber=01
Year=2019
Genre=Grind

[/more]

Register
(1) Olethros,
May 11 2021, 23:46:18 Mangled Carpenter - Mary's Seven Demons [single] (2019)


*Artist: Mangled Carpenter
*Album: Mary's Seven Demons [single]
*Year: 2019
*Genre: Death Metal/Grindcore
*Country: United States
*Format: mp3@CBR320kbps
*Size: 6MB

Tracklist:
01. Mary's Seven Demons 02:38
******************************
Total playing time: 2:38

[more=Extended info][/more]

[more=Technical info]
Input File: 01. Mary\'s Seven Demons.mp3
Channels : 2
Sample Rate : 44100
Precision : 16-bit
Duration : 00:02:38.23 = 6978031 samples = 11867.4 CDDA sectors
File Size : 6.40M
Bit Rate : 324k
Sample Encoding: MPEG audio (layer I, II or III)
Comments :
Title=Mary's Seven Demons
Artist=Mangled Carpenter
Album=The Days of Tribulation
Tracknumber=32
Year=2021

[/more]

Register
(3) infiltrator, Olethros, Taakeferd,
May 11 2021, 18:41:37 Revoid Of Existence - Early Revelation [single] (2020)


*Artist: Revoid Of Existence
*Album: Early Revelation [single]
*Year: 2020
*Genre: Progressive Death Metal
*Country: Russian Federation
*Format: mp3@CBR320kbps
*Size: 11MB

Tracklist:
01. Early Revelation 04:20
******************************
Total playing time: 4:20

[more=Extended info]

https://vk.com/revoid66
[youtube]gqd2pE4eIw4[/youtube][/more]

[more=Technical info]
Input File: 01. Early Revelation.mp3
Channels : 2
Sample Rate : 44100
Precision : 16-bit
Duration : 00:04:20.30 = 11479142 samples = 19522.4 CDDA sectors
File Size : 10.6M
Bit Rate : 325k
Sample Encoding: MPEG audio (layer I, II or III)
Comments :
Title=Early revelation
Artist=Revoid of existence
Year=2020

[/more]

Register
(8) after21allD, caro, chipsgott, infiltrator, Olethros, Taakeferd, VALERY, wanderer73,
May 11 2021, 18:32:57 Revoid Of Existence - 2043 [ep] (2019)


*Artist: Revoid Of Existence
*Album: 2043 [ep]
*Year: 2019
*Genre: Progressive Death Metal
*Country: Russian Federation
*Format: mp3@CBR320kbps
*Size: 55MB

Tracklist:
01. Life And Death 02:20
02. 2043 05:58
03. Alien 04:11
04. Xenomorph (Do Not Trust Android) 08:52
05. Code Evoli 01:49
******************************
Total playing time: 23:10

[more=Extended info]

https://vk.com/revoid66
[youtube]b0NkyQTvezI[/youtube]
[youtube]ZqODpeLH0o8[/youtube][/more]

[more=Technical info]
Input File: 01. Life And Death.mp3
Channels : 2
Sample Rate : 44100
Precision : 16-bit
Duration : 00:02:20.08 = 6177352 samples = 10505.7 CDDA sectors
File Size : 5.73M
Bit Rate : 327k
Sample Encoding: MPEG audio (layer I, II or III)
Comments :
Title=Life and death
Artist=Revoid of existence
Album=2043
Tracknumber=1
Year=2019

[/more]

Register
(11) after21allD, caro, chipsgott, infiltrator, Marek, metala, Olethros, stumpheavyrock, Taakeferd, VALERY, wanderer73,
May 11 2021, 17:47:45 Gvorn - Sounds From The Crypt [single] (2020)


*Artist: Gvorn
*Album: Sounds From The Crypt [single]
*Year: 2020
*Genre: Atmospheric Doom/Death Metal
*Country: Russian Federation
*Format: mp3@CBR320kbps
*Size: 25MB

Tracklist:
01. Sounds From The Crypt 10:37
******************************
Total playing time: 10:37

[more=Extended info]

[youtube]Jonq8kFjOX4[/youtube][/more]

[more=Technical info]
Input File: 01. Sounds From The Crypt.mp3
Channels : 2
Sample Rate : 44100
Precision : 16-bit
Duration : 00:10:38.10 = 28140298 samples = 47857.6 CDDA sectors
File Size : 26.3M
Bit Rate : 330k
Sample Encoding: MPEG audio (layer I, II or III)
Comments :
Title=Sounds From The Crypt
Artist=Gvorn
Album=Sounds From The Crypt (Single)
Tracknumber=01
Year=2020
Genre=Doom/Death Metal

[/more]

Register
(10) Bregon, chipsgott, Forest Silence, infiltrator, Krosis, lacrimoza, Olethros, stumpheavyrock, Taakeferd, VALERY,
May 11 2021, 08:51:34 Binary Creed - Into The Light [single] (2020)


*Artist: Binary Creed
*Album: Into The Light [single]
*Year: 2020
*Genre: Progressive Power Metal
*Country: Sweden
*Format: mp3@CBR320kbps
*Size: 9MB

Tracklist:
01. Into The Light 03:16
******************************
Total playing time: 3:16

[more=Extended info]
[youtube]rl1US4QnBYc[/youtube][/more]

[more=Technical info]
Input File: 01. Into The Light.mp3
Channels : 2
Sample Rate : 44100
Precision : 16-bit
Duration : 00:03:16.19 = 8652023 samples = 14714.3 CDDA sectors
File Size : 7.85M
Bit Rate : 320k
Sample Encoding: MPEG audio (layer I, II or III)

[/more]

Register
(8) after21allD, boby9052, caro, HMHamster, infiltrator, Olethros, stumpheavyrock, Taakeferd,
May 10 2021, 18:23:43 Laparotomy - Laparotomy [ep] (2018)


*Artist: Laparotomy
*Album: Laparotomy [ep]
*Year: 2018
*Genre: Slam/Brutal Death Metal
*Country: United States
*Format: mp3@CBR320kbps
*Size: 21MB

Tracklist:
01. Shattered Enamel 02:52
02. Open Casket Fragmentary Embodiment 02:46
03. Discharge Of An Ophidian Deity 02:57
******************************
Total playing time: 8:35

[more=Extended info][/more]

[more=Technical info]
Input File: 01. Shattered Enamel.mp3
Channels : 2
Sample Rate : 44100
Precision : 16-bit
Duration : 00:02:52.65 = 7613953 samples = 12948.9 CDDA sectors
File Size : 7.11M
Bit Rate : 329k
Sample Encoding: MPEG audio (layer I, II or III)
Comments :
Title=Shattered Enamel
Artist=Laparotomy
Album=Laparotomy
Tracknumber=1
Year=2018

[/more]

Register
(4) caro, infiltrator, Olethros, vyacheslav,
May 10 2021, 17:37:32 Apterous - Apterous [ep] (2020)


*Artist: Apterous
*Album: Apterous [ep]
*Year: 2020
*Genre: Progressive/Melodic Death Metal
*Country: United States
*Format: mp3@CBR320kbps
*Size: 58MB

Tracklist:
01. The Event (Instrumental) 00:48
02. Prognosis 05:11
03. Ire 04:18
04. Futility 04:40
05. Desolation 03:43
06. Reconstruction 05:56
******************************
Total playing time: 24:36

[more=Extended info]
[/more]

[more=Technical info]
Input File: 01. The Event (Instrumental).mp3
Channels : 2
Sample Rate : 44100
Precision : 16-bit
Duration : 00:00:48.28 = 2128972 samples = 3620.7 CDDA sectors
File Size : 2.06M
Bit Rate : 341k
Sample Encoding: MPEG audio (layer I, II or III)
Comments :
Title=The Event
Artist=Apterous
Album=Apterous
Tracknumber=1
Year=2020

[/more]

Register
(9) caro, chipsgott, infiltrator, Lukittaz, Marek, Olethros, sadmannn, stumpheavyrock, VALERY,
May 10 2021, 16:59:26 Cryptic Enslavement - Perverse Hallucinatory Descent (2018)
GORE HOUSE Productions:
(1) Occultas,
May 10 2021, 16:44:30 Hate Storm Annihilation - Following The Path To Eternal Fire (2018)
HATE STORM ANNIHILATION:
(1) Occultas,
May 10 2021, 16:39:04 Deadspawn - Pestilence Reborn (2020)
Можно скачать Б/П в 320kbps!!!:

metaler.gif
(1) Occultas,
May 10 2021, 16:21:26 Ancient Settlers - Autumnus [ep] (2021)


*Artist: Ancient Settlers
*Album: Autumnus [ep]
*Year: 2021
*Genre: Melodic Death Metal/Metalcore
*Country: International
*Format: mp3@CBR320kbps
*Size: 38MB

Tracklist:
01. Prelude To The Fall 01:48
02. A Monument Restored 04:22
03. Die Around Me 04:13
04. Diamond Eyes 05:33
******************************
Total playing time: 15:56

[more=Extended info]


[youtube]sZomkcyhJAg[/youtube]
[youtube]1hqod_7L5Us[/youtube][/more]

[more=Technical info]
Input File: 01. Prelude To The Fall.mp3
Channels : 2
Sample Rate : 44100
Precision : 16-bit
Duration : 00:01:47.69 = 4748909 samples = 8076.38 CDDA sectors
File Size : 4.47M
Bit Rate : 332k
Sample Encoding: MPEG audio (layer I, II or III)
Comments :
Title=Prelude To The Fall
Artist=Ancient Settlers
Album=Autumnus
Tracknumber=1
Year=2021
Genre=Melodic Dark Metal

[/more]

Register
(8) caro, chipsgott, de4th_parasIte, infiltrator, Lukittaz, Marek, Olethros, VALERY,
May 10 2021, 15:10:35 Godawfulnoise - The Epitome Of Suffering (2016)


*Artist: Godawfulnoise
*Album: The Epitome Of Suffering
*Year: 2016
*Genre: Grindcore
*Country: United States
*Format: mp3@CBR320kbps
*Size: 51MB

Tracklist:
01. Completely Fucking Disgusted 02:44
02. Keep Them Sick 01:36
03. We The Parasites 01:13
04. King Of The Bastards 00:51
05. Contempt 01:11
06. Dying Is A Way Of Life 01:04
07. Blood Offering 01:36
08. Blue Lives Murders 01:25
09. Self Induced Destruction Pattern 01:18
10. Incarcerated Nation 01:34
11. Wallow In The Stench 02:02
12. Victim 00:42
13. No Escape 00:59
14. Perpetuation Of Delusiional Disorders 02:16
******************************
Total playing time: 20:31

[more=Extended info]


[youtube]axnA9wGhjZE[/youtube][/more]

[more=Technical info]
Input File: 01. Completely Fucking Disgusted.mp3
Channels : 2
Sample Rate : 44100
Precision : 16-bit
Duration : 00:02:44.69 = 7262609 samples = 12351.4 CDDA sectors
File Size : 6.82M
Bit Rate : 331k
Sample Encoding: MPEG audio (layer I, II or III)
Comments :
Title=Completely Fucking Disgusted
Artist=godawfulnoise
Album=The Epitome of Suffering
Tracknumber=1
Year=2016

[/more]

Register
(5) infiltrator, Olethros, SadistikSlayer, Zhelezjaka, Луч,
May 10 2021, 14:45:39 Inducing Terror - Inducing Terror [ep] (2020)


*Artist: Inducing Terror
*Album: Inducing Terror [ep]
*Year: 2020
*Genre: Technical Death Metal
*Country: United States
*Format: mp3@CBR320kbps
*Size: 35MB

Tracklist:
01. Continuous Ignition 03:41
02. Honor Kill 03:02
03. Agony In Recess 02:44
04. Venomous Recoil 02:43
05. Vivisynthesis 02:40
******************************
Total playing time: 14:50

[more=Extended info]

[youtube]glTRRgFY0Jc[/youtube][/more]

[more=Technical info]
Input File: 01. Continuous Ignition.mp3
Channels : 2
Sample Rate : 44100
Precision : 16-bit
Duration : 00:03:41.43 = 9764887 samples = 16607 CDDA sectors
File Size : 9.07M
Bit Rate : 328k
Sample Encoding: MPEG audio (layer I, II or III)
Comments :
Title=Continuous Ignition
Artist=Inducing Terror
Album=Inducing Terror
Tracknumber=1
Year=2020

[/more]

Register
(9) caro, chipsgott, infiltrator, maochen, Marek, metala, Olethros, VALERY, vyacheslav,
May 10 2021, 14:22:04 Cordyceps - Ep Ii [ep] (2015)


*Artist: Cordyceps
*Album: Ep Ii [ep]
*Year: 2015
*Genre: Brutal Death Metal
*Country: Switzerland
*Format: mp3@CBR320kbps
*Size: 37MB

Tracklist:
01. I Deflower Your Anus With A Jar 03:43
02. Cunt Decapitation 03:03
03. Greedy Starbucks Bitch 03:19
04. MLG 02:58
05. MLG (Without Stupid Samples) 02:58
******************************
Total playing time: 16:01

[more=Extended info]

[youtube]d9Szl5kT-N8[/youtube][/more]

[more=Technical info]
Input File: 01. I Deflower Your Anus With A Jar.mp3
Channels : 2
Sample Rate : 44100
Precision : 16-bit
Duration : 00:03:43.12 = 9839768 samples = 16734.3 CDDA sectors
File Size : 9.02M
Bit Rate : 323k
Sample Encoding: MPEG audio (layer I, II or III)
Comments :
Title=I Deflower Your Anus With A Jar
Artist=Cordyceps
Album=EP II
Tracknumber=1
Year=2015

[/more]

Register
(3) caro, infiltrator, Olethros,
May 10 2021, 13:19:34 Buried In Pieces - Separated [ep] (2018)


*Artist: Buried In Pieces
*Album: Separated [ep]
*Year: 2018
*Genre: Brutal Deathcore
*Country: International
*Format: mp3@CBR320kbps
*Size: 35MB

Tracklist:
01. Intro 01:34
02. Draining You 01:53
03. Separated 02:17
04. Pornographic Apathy 02:40
05. Murder Tolerance 03:23
06. Smeared On Gravel 02:02
******************************
Total playing time: 13:49

[more=Extended info]


[youtube]BZ2uDL_YZu4[/youtube][/more]

[more=Technical info]
Input File: 01. Intro.mp3
Channels : 2
Sample Rate : 44100
Precision : 16-bit
Duration : 00:01:34.60 = 4171728 samples = 7094.78 CDDA sectors
File Size : 4.01M
Bit Rate : 340k
Sample Encoding: MPEG audio (layer I, II or III)
Comments :
Title=Intro
Artist=Buried In Pieces
Album=Separated (EP)
Tracknumber=1
Year=2018
Genre=Slamimg Beatdown

[/more]

Register
(1) Olethros,

59 Pages V   1 2 3 > » 
- Lo-Fi Version Support form
Copyrights and abuse reports form
Time is now: 14th May 2021 - 11:48:34