Welcome Guest ( Log In | Register )

История благодарностей участнику satanist666 ::: Спасибо сказали: 8836 раз(а)
Дата поста: В теме: За сообщение: Спасибо сказали:
Apr 25 2022, 13:59:45 First Days Of Humanity - Bone Hut [ep] (2022)


*Artist: First Days Of Humanity
*Album: Bone Hut [ep]
*Year: 2022
*Genre: Goregrind
*Country: United States
*Format: mp3@CBR320kbps
*Size: 18MB

Tracklist:
01. Inhalation Of Fetid Cave Vapors 01:08
02. Regurgitating Chunks Of Mammoth 01:52
03. Masticating On The Raw 01:34
04. Paleolithic Armageddon 01:21
05. Murdered By The Extinct 01:34
******************************
Total playing time: 7:29

[more=Extended info]
[youtube]Au-HWPiZs-E[/youtube][/more]

[more=Technical info]
Input File: 01. Inhalation Of Fetid Cave Vapors.mp3
Channels : 2
Sample Rate : 44100
Precision : 16-bit
Duration : 00:01:08.42 = 3017234 samples = 5131.35 CDDA sectors
File Size : 2.86M
Bit Rate : 335k
Sample Encoding: MPEG audio (layer I, II or III)
Comments :
Title=Inhalation of Fetid Cave Vapors
Artist=First Days of Humanity
Album=Bone Hut
Tracknumber=1
Year=2022

[/more]

Register
(7) artscald, carnegrinder, caro, kefka, Olethros, rominow, wreak,
Apr 25 2022, 13:49:11 Dehydrated - Sickness [single] (2016)


*Artist: Dehydrated
*Album: Sickness [single]
*Year: 2016
*Genre: Death Metal
*Country: Russian Federation
*Format: mp3@CBR320kbps
*Size: 41MB

Tracklist:
01. Sickness (Video Version) 06:04
02. Sickness (Unplugged Version) 03:18
03. Ace Of Spades (Motörhead Cover) 02:55
04. Sickness (Instrumental) (Bonus Track 2017) 06:08
******************************
Total playing time: 18:25

[more=Extended info]

[youtube]7iftIBbFBqY[/youtube][/more]

[more=Technical info]
Input File: 01. Sickness.mp3
Channels : 2
Sample Rate : 44100
Precision : 16-bit
Duration : 00:06:04.97 = 16095001 samples = 27372.5 CDDA sectors
File Size : 14.6M
Bit Rate : 320k
Sample Encoding: MPEG audio (layer I, II or III)
Comments :
Title=Sickness
Artist=Dehydrated
Album=Sickness (Single)
Tracknumber=1
Year=2016
Genre=22

[/more]

Register
(7) artscald, caro, Hell_Is_Here, Marek, Olethros, wanderer73, wreak,
Apr 25 2022, 13:38:52 Dehydrated - Scar Inside [single] (2015)


*Artist: Dehydrated
*Album: Scar Inside [single]
*Year: 2015
*Genre: Death Metal
*Country: Russian Federation
*Format: mp3@CBR320kbps
*Size: 45MB

Tracklist:
01. Scar Inside 05:00
02. U.N.S.A.N.E (Lake Of Tears Cover) 04:44
03. Thirst Of Dose (Remastering 2014) 04:13
04. Scar Inside (Instrumental) 05:12
******************************
Total playing time: 19:09

[more=Extended info]

[youtube]CZhXkEPXSII[/youtube][/more]

[more=Technical info]
Input File: 01. Scar Inside.mp3
Channels : 2
Sample Rate : 44100
Precision : 16-bit
Duration : 00:05:00.38 = 13246538 samples = 22528.1 CDDA sectors
File Size : 12.0M
Bit Rate : 320k
Sample Encoding: MPEG audio (layer I, II or III)
Comments :
Title=Scar Inside
Artist=Dehydrated
Album=Scar Inside
Tracknumber=1
Year=2015
Genre=Brutal Deathcore

[/more]

Register
(2) Marek, wanderer73,
Apr 13 2022, 18:08:35 Among Your Gods - Shards Of Yourself [ep] (2020)
Залито на Ядиск - 29.5Mb в 320kbps!!!:
Register

metaler.gif
(2) chipsgott, varlam4,
Apr 13 2022, 18:04:43 Among Your Gods - Your Choice [single] (2020)


*Artist: Among Your Gods
*Album: Your Choice [single]
*Year: 2020
*Genre: Melodic Death Metal
*Country: Belarus
*Format: mp3@CBR320kbps
*Size: 12MB

Tracklist:
01. Your Choice 04:50
******************************
Total playing time: 4:50

[more=Extended info]

[youtube]A9g6vzXDg6U[/youtube][/more]

[more=Technical info]
Input File: 01. Your Choice.mp3
Channels : 2
Sample Rate : 44100
Precision : 16-bit
Duration : 00:04:50.16 = 12796100 samples = 21762.1 CDDA sectors
File Size : 11.6M
Bit Rate : 320k
Sample Encoding: MPEG audio (layer I, II or III)
Comments :
Title=Your Choice
Artist=Among Your Gods
Album=Your Choice
Tracknumber=1
Year=2020

[/more]

Register
(8) Altkiller, artscald, caro, chipsgott, Olethros, Taakeferd, varlam4, wreak,
Apr 13 2022, 17:57:48 Among Your Gods - Flight To Immortality [single] (2019)


*Artist: Among Your Gods
*Album: Flight To Immortality [single]
*Year: 2019
*Genre: Melodic Death Metal
*Country: Belarus
*Format: mp3@CBR320kbps
*Size: 10MB

Tracklist:
01. Flight To Immortality 03:57
******************************
Total playing time: 3:57

[more=Extended info]

[youtube]7T02MmYr6Y0[/youtube][/more]

[more=Technical info]
Input File: 01. Flight To Immortality.mp3
Channels : 2
Sample Rate : 44100
Precision : 16-bit
Duration : 00:03:57.97 = 10494257 samples = 17847.4 CDDA sectors
File Size : 9.52M
Bit Rate : 320k
Sample Encoding: MPEG audio (layer I, II or III)
Comments :
Title=Flight to Immortality
Artist=Among Your Gods
Album=Flight to Immortality
Tracknumber=1
Year=2019

[/more]

Register
(7) artscald, caro, chipsgott, Olethros, Taakeferd, varlam4, wreak,
Apr 13 2022, 17:48:08 Slut Muncher - Vile Lolicon Achromatopsia (2021)


*Artist: Slut Muncher
*Album: Vile Lolicon Achromatopsia
*Year: 2021
*Genre: Brutal Death Metal/Grindcore
*Country: Yemen
*Format: mp3@CBR320kbps
*Size: 112MB

Tracklist:
01. Stage Set: Petra 03:40
02. Perish In Anime Pixels 02:44
03. Yandere Histeria Schizophrenia 04:11
04. Doujinshi Of All Human Forms 06:05
05. Welcome To The Terror Plot 02:55
06. Sculpture Of Ningen No Hentai 04:33
07. Stage Set: Petra (Instrumental) 03:40
08. Perish In Anime Pixels (Instrumental) 02:39
09. Yandere Histeria Schizophrenia (Instrumental) 04:18
10. Doujinshi Of All Human Forms (Instrumental) 06:01
11. Welcome To The Terror Plot (Instrumental) 02:56
12. Sculpture Of Ningen No Hentai (Instrumental) 04:29
******************************
Total playing time: 48:11

[more=Extended info]





[youtube]vmMXwiIXzxY[/youtube][/more]

[more=Technical info]
Input File: 01. Stage Set - Petra (Ft. Andrew from Yanderechainsawregurgitationfactory).mp3
Channels : 2
Sample Rate : 44100
Precision : 16-bit
Duration : 00:03:40.28 = 9714172 samples = 16520.7 CDDA sectors
File Size : 8.98M
Bit Rate : 326k
Sample Encoding: MPEG audio (layer I, II or III)
Comments :
Title=Stage set: Petra
Artist=Slut Muncher
Album=Vile Lolicon Achromatopsia
Tracknumber=1
Year=2021

[/more]

Register
(11) artscald, caro, cesar, grobator, metala, Olethros, supremo, Taakeferd, varlam4, vyacheslav, wreak,
Apr 12 2022, 20:03:33 Morbid Gorgeous Girl & Ghostslug & Uwu & Bokunopicono & Slut Muncher & Gokkun & Schoolgirl Upon Thy Corpse - Goretastic Execution Of Splits Ways [split] (2022)


*Artist: Morbid Gorgeous Girl & Ghostslug & Uwu & Bokunopicono & Slut Muncher & Gokkun & Schoolgirl Upon Thy Corpse
*Album: Goretastic Execution Of Splits Ways [split]
*Year: 2022
*Genre: Death Metal/Goregrind | Death Metal/Grindcore | Brutal Death Metal/Goregrind | Brutal Death Metal/Grindcore | Brutal Death Metal/Grindcore | Goregrind/Death Metal | Brutal Death Metal/Goregrind
*Country: Costa Rica | United States | United States | United States | Yemen | United States | Russian Federation
*Format: mp3@CBR320kbps
*Size: 88MB

Tracklist:
Morbid Gorgeous Girl:
01. Sadistic Creature 01:14
02. Murdere Junkie 02:07
Ghostslug:
03. 56K 01:44
04. Karaoke Death Cult 02:50
UwU:
05. Kill Or Be Killed 01:23
06. Fuck Around And Find Out 01:39
Bokunopicono:
07. Meat Served Fresh 02:28
08. Vengeance Is Mine 01:35
Slut Muncher:
09. Perish In Anime Pixels 02:44
10. Doujinshi Of All Human Forms 06:05
Gokkun:
11. Matando Gueros (Brujeria Cover) 03:20
12. Putrid Musume Tissue Digestion 03:28
Schoolgirl Upon Thy Corpse:
13. Phrygian Dominant Rape Suite 03:20
14. Death On The Grind Floor 02:42
******************************
Total playing time: 36:39

[more=Extended info]











[/more]

[more=Technical info]
Input File: 01. Morbid Gorgeous Girl - Sadistic Creature.mp3
Channels : 2
Sample Rate : 44100
Precision : 16-bit
Duration : 00:01:14.71 = 3294887 samples = 5603.55 CDDA sectors
File Size : 3.24M
Bit Rate : 347k
Sample Encoding: MPEG audio (layer I, II or III)
Comments :
Title=Morbid Gorgeous Girl - Sadistic Creature
Artist=UwU Records
Album=Goretastic Execution of Splits Ways (Compilation)
Tracknumber=1
Year=2022

[/more]

Register
(7) artscald, Dante_D, grobator, Hell_Is_Here, Lanceatum, varlam4, wreak,
Apr 12 2022, 19:16:30 Vault - Consumed By Nuclear Devastation [demo] (2021)


*Artist: Vault
*Album: Consumed By Nuclear Devastation [demo]
*Year: 2021
*Genre: Brutal Death Metal
*Country: Austria
*Format: mp3@CBR320kbps
*Size: 16MB

Tracklist:
01. The Great War 02:07
02. Consumed By Nuclear Devastation 04:44
******************************
Total playing time: 6:51

[more=Extended info][/more]

[more=Technical info]
Input File: 01. The Great War.mp3
Channels : 2
Sample Rate : 44100
Precision : 16-bit
Duration : 00:02:07.69 = 5631261 samples = 9576.97 CDDA sectors
File Size : 5.20M
Bit Rate : 326k
Sample Encoding: MPEG audio (layer I, II or III)
Comments :
Title=The Great War
Artist=Vault Records
Album=Consumed by Nuclear Devastation (Demo)
Tracknumber=1
Year=2021

[/more]

Register
(6) artscald, grobator, Hell_Is_Here, Olethros, varlam4, wreak,
Apr 12 2022, 19:11:13 Vault - Interdimensional Embryonic Assault Squad [ep] (2022)


*Artist: Vault
*Album: Interdimensional Embryonic Assault Squad [ep]
*Year: 2022
*Genre: Brutal Death Metal
*Country: Austria
*Format: mp3@CBR320kbps
*Size: 47MB

Tracklist:
01. Interdimensional Embryonic Assault Squad 03:20
02. Anime Was A Mistake 02:44
03. ChinChinChopper 03:43
04. Wait...That's Not Chocolate Milk 03:12
05. The Holy Hand Grenade Of Antioch 03:39
06. Don't Forget Your Towel! 03:18
******************************
Total playing time: 19:56

[more=Extended info]
[youtube]NK1D25YzK8c[/youtube][/more]

[more=Technical info]
Input File: 01. Interdimensional Embryonic Assault Squad (Ft. Gangrenectomy, Qlippothic Oracle).mp3
Channels : 2
Sample Rate : 44100
Precision : 16-bit
Duration : 00:03:20.55 = 8844387 samples = 15041.5 CDDA sectors
File Size : 8.15M
Bit Rate : 325k
Sample Encoding: MPEG audio (layer I, II or III)
Comments :
Title=Interdimensional Embryonic Assault Squad (ft. Gangrenectomy, Qlippothic Oracle)
Artist=Vault
Album=Interdimensional Embryonic Assault Squad (EP)
Tracknumber=1
Year=2022

[/more]

Register
(9) artscald, grobator, Hell_Is_Here, Olethros, sludge666, varlam4, vyacheslav, wanderer73, wreak,
Apr 12 2022, 19:02:53 Vault & Uwu - Cryptdwellers [split] (2022)


*Artist: Vault & Uwu
*Album: Cryptdwellers [split]
*Year: 2022
*Genre: Brutal Death Metal | Brutal Death Metal/Goregrind
*Country: Austria | United States
*Format: mp3@CBR320kbps
*Size: 77MB

Tracklist:
Vault:
01. Fantastic 03:40
02. Average Fallout Fan 02:53
03. You're My Sweetest Sugarbomb! 01:24
04. Troglodyte Degeneration Contagion 04:11
05. Dirty Dan (Pinhead Larry Remix ft. Larry Wang) 02:23
UwU:
06. Moe Funeral Resurrection 03:33
07. Forceful Penetration Of The Rectal Wall 03:15
08. Cryptdweller 02:51
09. 赤い空 03:02
10. That One Ugly Bastard Hentai 02:29
******************************
Total playing time: 29:41

[more=Extended info]

[/more]

[more=Technical info]
Input File: 01. Vault - Fantastic.mp3
Channels : 2
Sample Rate : 44100
Precision : 16-bit
Duration : 00:03:40.98 = 9745306 samples = 16573.6 CDDA sectors
File Size : 8.99M
Bit Rate : 325k
Sample Encoding: MPEG audio (layer I, II or III)
Comments :
Title=Fantastic
Artist=Vault, UwU
Album=Cryptdwellers (UwU+Vault Split)
Tracknumber=1
Year=2022

[/more]

Register
(8) alikkon, artscald, grobator, Hell_Is_Here, Lanceatum, supremo, varlam4, wreak,
Apr 12 2022, 09:46:43 Ascète - Bruit Blanc Dans Une Nuit Monochrome [single] (2020)


*Artist: Ascète
*Album: Bruit Blanc Dans Une Nuit Monochrome [single]
*Year: 2020
*Genre: Black Metal
*Country: France
*Format: mp3@CBR320kbps
*Size: 17MB

Tracklist:
01. Bruit Blanc Dans Une Nuit Monochrome 06:52
******************************
Total playing time: 6:52

[more=Extended info]

[youtube]bTD3jMHklfI[/youtube]

*- Cover of "White Noise In A Monochrome Night" originally by The Skaden.
The lyrics have been translated into French.[/more]

[more=Technical info]
Input File: 01. Bruit Blanc Dans Une Nuit Monochrome (The Skaden Cover).mp3
Channels : 2
Sample Rate : 44100
Precision : 16-bit
Duration : 00:06:52.08 = 18172640 samples = 30905.9 CDDA sectors
File Size : 16.7M
Bit Rate : 324k
Sample Encoding: MPEG audio (layer I, II or III)
Comments :
Title=Bruit Blanc dans une Nuit Monochrome (single)
Artist=Ascète
Year=2020

[/more]

Register
(8) Altkiller, artscald, disney666, Olethros, stormhatt, Taakeferd, varlam4, wreak,
Apr 12 2022, 08:46:07 Helldrifter - Die Another Day [single] (2019)


*Artist: Helldrifter
*Album: Die Another Day [single]
*Year: 2019
*Genre: Melodic Death Metal
*Country: Germany
*Format: mp3@CBR320kbps
*Size: 8MB

Tracklist:
01. Die Another Day 03:11
******************************
Total playing time: 3:11

[more=Extended info]

[youtube]K9l2OeHSDUQ[/youtube][/more]

[more=Technical info]
Input File: 01. Die Another Day.mp3
Channels : 2
Sample Rate : 44100
Precision : 16-bit
Duration : 00:03:11.12 = 8428216 samples = 14333.7 CDDA sectors
File Size : 7.64M
Bit Rate : 320k
Sample Encoding: MPEG audio (layer I, II or III)

[/more]

Register
(6) artscald, csgmnk, Olethros, Taakeferd, varlam4, wreak,
Apr 10 2022, 18:57:18 Ghoulchapel - Feeble God [single] (2019)


*Artist: Ghoulchapel
*Album: Feeble God [single]
*Year: 2019
*Genre: Symphonic Black Metal
*Country: Armenia
*Format: mp3@CBR320kbps
*Size: 20MB

Tracklist:
01. Feeble God 09:05
******************************
Total playing time: 9:05

[more=Extended info]

[youtube]R2BE3SOU3HA[/youtube][/more]

[more=Technical info]
Input File: 01. Feeble God.mp3
Channels : 2
Sample Rate : 44100
Precision : 16-bit
Duration : 00:09:05.66 = 24063430 samples = 40924.2 CDDA sectors
File Size : 21.8M
Bit Rate : 320k
Sample Encoding: MPEG audio (layer I, II or III)

[/more]

Register
(3) stormhatt, thenecromancer, Wail,
Apr 10 2022, 17:36:09 Lifeblood - Melancholic Euphoria (2021)


*Artist: Lifeblood
*Album: Melancholic Euphoria
*Year: 2021
*Genre: Depressive Black/Doom Metal
*Country: Japan
*Format: mp3@CBR128kbps
*Size: 44MB

Tracklist:
01. Melancholic Euphoria 05:44
02. Fading Into Oblivion 05:56
03. Inner Devastation 04:17
04. Obscure Thoughts Of Suicide 05:38
05. Into The Woods... 01:19
06. Ruined, Depraved And Devastated 07:20
07. Wailing On The Blackened Earth 08:39
08. Ostentation And Decadence 07:33
******************************
Total playing time: 46:26

[more=Extended info]

[youtube]fDpvrOgjlh0[/youtube][/more]

[more=Technical info]
Input File: 01. Melancholic Euphoria.mp3
Channels : 2
Sample Rate : 44100
Precision : 16-bit
Duration : 00:05:44.75 = 15203563 samples = 25856.4 CDDA sectors
File Size : 5.52M
Bit Rate : 128k
Sample Encoding: MPEG audio (layer I, II or III)
Comments :
Title=Melancholic Euphoria
Artist=Lifeblood
Album=Melancholic Euphoria
Tracknumber=1
Year=2021

[/more]

Register
(4) metala, stormhatt, VALERY, ZloySamaritianin,
Apr 10 2022, 17:18:11 Azgarath - Possessed By The Moon [demo] (2018)


*Artist: Azgarath
*Album: Possessed By The Moon [demo]
*Year: 2018
*Genre: Black Metal
*Country: France
*Format: mp3@CBR320kbps
*Size: 84MB

Tracklist:
01. Possessed By The Moon 06:18
02. Buried Alive 05:00
03. The Blood Hunt 07:43
04. Endless Void 10:28
05. Nocturnal Mass And Christ's Damnation (Baxaxaxa Cover) 03:21
06. Possessed By The Moon (Pre Demo) 06:15
******************************
Total playing time: 39:05

[more=Extended info]
[youtube]hWWv0PssCLo[/youtube][/more]

[more=Technical info]
Input File: 01. Possessed By The Moon.mp3
Channels : 2
Sample Rate : 44100
Precision : 16-bit
Duration : 00:06:21.75 = 16835087 samples = 28631.1 CDDA sectors
File Size : 15.3M
Bit Rate : 321k
Sample Encoding: MPEG audio (layer I, II or III)
Comments :
Title=Possessed By The Moon
Artist=Azgarath
Album=Possessed By The Moon (Demo)
Tracknumber=01/06
Year=2018
Genre=Black Metal

[/more]

Register
(10) Carcharoth, Gylve, Ildjarn, kim666, Occultas, sacrut, stormhatt, varlam4, Wail, yarrsuaa,
Apr 7 2022, 18:40:38 Costectomy - Demo 2020 [demo] (2020)


*Artist: Costectomy
*Album: Demo 2020 [demo]
*Year: 2020
*Genre: Death Metal/Goregrind
*Country: United States
*Format: mp3@CBR320kbps
*Size: 14MB

Tracklist:
01. Liquefied Into Nature 00:56
02. Cut In Half From The Groin To The Head 00:53
03. Visceral Expulsion Of Bodily Fluids 01:09
04. Eye Sockets Full Of Maggots 00:43
05. Biting Off The Fingers 00:44
06. Inhaled Asbestos Fibres Causing Inflammation Of The Lungs With The Result Of Pleural Fibrosis And Malignancies (Hyperemesis Cover) 00:48
******************************
Total playing time: 5:13

[more=Extended info]
[youtube]KM9ze8hqjO0[/youtube][/more]

[more=Technical info]
Input File: 01. Liquefied Into Nature.mp3
Channels : 2
Sample Rate : 44100
Precision : 16-bit
Duration : 00:00:56.56 = 2494208 samples = 4241.85 CDDA sectors
File Size : 2.36M
Bit Rate : 334k
Sample Encoding: MPEG audio (layer I, II or III)
Comments :
Title=LIQUEFIED INTO NATURE
Artist=COSTECTOMY
Album=DEMO 2020
Tracknumber=1
Year=2020

[/more]

Register
(6) artscald, carnegrinder, caro, Olethros, sych113, wreak,
Apr 7 2022, 17:52:08 Costectomy & First Days Of Humanity - Glacial [split] (2021)


*Artist: Costectomy & First Days Of Humanity
*Album: Glacial [split]
*Year: 2021
*Genre: Death Metal/Goregrind | Goregrind
*Country: United States | United States
*Format: mp3@CBR320kbps
*Size: 32MB

Tracklist:
Costectomy:
01. The Uncontrollable Urge Of Familicide 01:00
02. Haunting Paranormal Visions Of Gore 00:37
03. No Hope For Escape While Hunted During A Blizzard 01:08
04. Hacked Apart With An Axe 01:01
05. A Tragic Case Of Murder-Suicide 01:18
06. Corpses Buried Underneath The Snow 01:13
First Days Of Humanity:
07. Skin Clinging To The Ice 01:44
08. Stomach Sliced Open And Steaming In The Cold Air 01:13
09. Eating Yourself To Survive 01:28
10. Refrigerator Filled With Heads 01:16
11. Final Stages Of Hypothermia 00:53
******************************
Total playing time: 12:51

[more=Extended info]

[youtube]VZFZPoeZVaA[/youtube][/more]

[more=Technical info]
Input File: 01. Costectomy - The Uncontrollable Urge Of Familicide.mp3
Channels : 2
Sample Rate : 44100
Precision : 16-bit
Duration : 00:01:00.19 = 2654335 samples = 4514.18 CDDA sectors
File Size : 2.57M
Bit Rate : 341k
Sample Encoding: MPEG audio (layer I, II or III)
Comments :
Title=THE UNCONTROLLABLE URGE OF FAMILICIDE
Artist=COSTECTOMY
Album=SPLIT WITH FIRST DAYS OF HUMANITY
Tracknumber=1
Year=2021

[/more]

Register
(4) artscald, carnegrinder, caro, wreak,
Apr 7 2022, 16:52:29 Costectomy & Nyctophagia - Drone Hunting Missionaries For Sport [split] (2021)


*Artist: Costectomy & Nyctophagia
*Album: Drone Hunting Missionaries For Sport [split]
*Year: 2021
*Genre: Death Metal/Goregrind | Death Metal/Goregrind
*Country: United States | United States
*Format: mp3@CBR320kbps
*Size: 37MB

Tracklist:
Costectomy:
01. Depraved Homicidal Habits 01:00
02. Partially Skeletonized Human Remains 00:47
03. Undignified Decapitations 01:06
04. Transcendental Bodily Mutation 01:37
05. Feasting On The Brains In The Morgue 01:11
06. Affliction (Dysmenorrheic Hemorrhage Cover) 00:48
Nyctophagia:
07. Puke Circle 00:50
08. Impaled On Frozen Worms 00:39
09. Epidemic Of Robot Suicide 01:17
10. Drone Hunting Missionaries for Sport 00:45
11. Unyielding Terminatrix (Male Imbalance) 01:11
12. Corpses Duct-Taped Together 00:30
13. Toilet Full Of Acid 00:58
14. Total Defeat Of The Police 01:21
******************************
Total playing time: 14:00

[more=Extended info]

[/more]

[more=Technical info]
Input File: 01. Costectomy - Depraved Homicidal Habits.mp3
Channels : 2
Sample Rate : 44100
Precision : 16-bit
Duration : 00:01:00.06 = 2648558 samples = 4504.35 CDDA sectors
File Size : 2.59M
Bit Rate : 345k
Sample Encoding: MPEG audio (layer I, II or III)
Comments :
Title=Costectomy - Depraved Homicidal Habits
Artist=Nyctophagia
Album=split with Costectomy
Tracknumber=1
Year=2021

[/more]

Register
(5) artscald, carnegrinder, caro, Taakeferd, wreak,
Apr 7 2022, 16:32:18 Nyctophagia & Butt Juice - Worship The Worm Column [split] (2021)


*Artist: Nyctophagia & Butt Juice
*Album: Worship The Worm Column [split]
*Year: 2021
*Genre: Death Metal/Goregrind | Goregrind/Noisegrind
*Country: United States | Canada
*Format: mp3@CBR320kbps
*Size: 40MB

Tracklist:
Nyctophagia:
01. Documents Redacted Of Any Useful Information 01:34
02. Broker Of Celebrity Scabs And Pubic Hair 01:07
03. Microbial Air Quality In Offices At Municipal Landfills 01:26
04. Mummy Meat 00:46
05. A Classic Smash And Grab Operation 01:11
06. Blood Scene (Flyblown Cover) 01:18
07. Quilt Of Foreskins 01:21
Butt Juice:
08. 81 Untitled Tracks 08:30
******************************
Total playing time: 17:13

[more=Extended info]

[youtube]BAvr2gRm9tg[/youtube]

According to NYCTOPHAGIA: released October 19, 2021.
According to BUTT JUICE: released January 6, 2022.[/more]

[more=Technical info]
Input File: 01. Nyctophagia - Documents Redacted Of Any Useful Information.mp3
Channels : 2
Sample Rate : 44100
Precision : 16-bit
Duration : 00:01:34.57 = 4170449 samples = 7092.6 CDDA sectors
File Size : 3.99M
Bit Rate : 338k
Sample Encoding: MPEG audio (layer I, II or III)
Comments :
Title=Documents Redacted of Any Useful Information
Artist=Nyctophagia
Album=split with Butt Juice
Tracknumber=1
Year=2021

[/more]

Register
(5) artscald, carnegrinder, caro, deadterror, wreak,
Apr 7 2022, 15:35:48 Nyctophagia - Nemesis Of The Pulpit [ep] (2020)


*Artist: Nyctophagia
*Album: Nemesis Of The Pulpit [ep]
*Year: 2020
*Genre: Death Metal/Goregrind
*Country: United States
*Format: mp3@CBR320kbps
*Size: 21MB

Tracklist:
01. Poison-Seeping Wounds 00:48
02. Killed In The Shadows 01:12
03. Outbreak Of Radioactive Fire 01:10
04. Secret Disposal Sites 01:16
05. Boiling Bleach 00:36
06. Infested With CIA Nanobots 01:06
07. Slovenian Sleeper Agent 01:01
08. Filth Attack 00:18
09. Nemesis Of The Pulpit 01:32
******************************
Total playing time: 8:59

[more=Extended info]
[youtube]8lzhYxWvA70[/youtube][/more]

[more=Technical info]
Input File: 01. Poison-Seeping Wounds.mp3
Channels : 2
Sample Rate : 44100
Precision : 16-bit
Duration : 00:00:48.96 = 2158960 samples = 3671.7 CDDA sectors
File Size : 2.04M
Bit Rate : 333k
Sample Encoding: MPEG audio (layer I, II or III)
Comments :
Title=Poison-Seeping Wounds
Artist=Nyctophagia
Album=Nemesis of the Pulpit
Tracknumber=1
Year=2020

[/more]

Register
(6) artscald, caro, METALHUNTER, Olethros, Taakeferd, wreak,
Apr 7 2022, 15:22:09 Nyctophagia - Rampaging Triclops Of War [ep] (2020)


*Artist: Nyctophagia
*Album: Rampaging Triclops Of War [ep]
*Year: 2020
*Genre: Death Metal/Goregrind
*Country: United States
*Format: mp3@CBR320kbps
*Size: 12MB

Tracklist:
01. Extinction No Longer Forestalled 01:03
02. Guilty Of Being Alive 00:42
03. Sewer Fire In Downtown El Paso 01:06
04. Polluting Into Another Dimension 00:54
05. Suffocated In The Tunnel 00:47
06. Rancid Phlegm On Esophago (Autophagia Cover) 00:29
******************************
Total playing time: 5:01

[more=Extended info]
[youtube]_rwmzChbEms[/youtube][/more]

[more=Technical info]
Input File: 01. Extinction No Longer Forestalled.mp3
Channels : 2
Sample Rate : 44100
Precision : 16-bit
Duration : 00:01:03.56 = 2802952 samples = 4766.93 CDDA sectors
File Size : 2.64M
Bit Rate : 333k
Sample Encoding: MPEG audio (layer I, II or III)
Comments :
Title=Extinction No Longer Forestalled
Artist=Nyctophagia
Album=Rampaging Triclops of War
Tracknumber=1
Year=2020

[/more]

Register
(6) artscald, caro, METALHUNTER, Olethros, Taakeferd, wreak,
Apr 7 2022, 13:19:43 Nyctophagia - Putrefied By The Mist [ep] (2020)


*Artist: Nyctophagia
*Album: Putrefied By The Mist [ep]
*Year: 2020
*Genre: Death Metal/Goregrind
*Country: United States
*Format: mp3@CBR320kbps
*Size: 13MB

Tracklist:
01. Atomic Maggots 00:52
02. Puerile Belief System 01:02
03. Evangelical Kakistocracy 01:04
04. No Pride In Society 00:32
05. Injected With Benzene And Crack 00:47
06. Centrifuged Human Shit 00:59
******************************
Total playing time: 5:16

[more=Extended info]
[youtube]qpgifR_fjFM[/youtube][/more]

[more=Technical info]
Input File: 01. Atomic Maggots.mp3
Channels : 2
Sample Rate : 44100
Precision : 16-bit
Duration : 00:00:52.30 = 2306430 samples = 3922.5 CDDA sectors
File Size : 2.16M
Bit Rate : 331k
Sample Encoding: MPEG audio (layer I, II or III)
Comments :
Title=Atomic Maggots
Artist=Nyctophagia
Album=Putrefied by the Mist
Tracknumber=1
Year=2020

[/more]

Register
(6) artscald, caro, chipsgott, METALHUNTER, uk82grind, wreak,
Apr 7 2022, 13:06:53 Nyctophagia - Silent Planet [ep] (2021)


*Artist: Nyctophagia
*Album: Silent Planet [ep]
*Year: 2021
*Genre: Death Metal/Goregrind
*Country: United States
*Format: mp3@CBR320kbps
*Size: 15MB

Tracklist:
01. Buried In Advertisements 01:23
02. Serve The Long Pig 00:35
03. Worldwide Cult Of Violence 01:01
04. People Hired To Kill 00:43
05. Re-Abducted 00:50
06. Pumping Out Electrosmog 01:22
******************************
Total playing time: 5:54

[more=Extended info]
[youtube]xhlNtXoNjEI[/youtube][/more]

[more=Technical info]
Input File: 01. Buried In Advertisements.mp3
Channels : 2
Sample Rate : 44100
Precision : 16-bit
Duration : 00:01:23.75 = 3693507 samples = 6281.47 CDDA sectors
File Size : 3.51M
Bit Rate : 336k
Sample Encoding: MPEG audio (layer I, II or III)
Comments :
Title=Buried in Advertisements
Artist=Nyctophagia
Album=Silent Planet
Tracknumber=1
Year=2021

[/more]

Register
(7) artscald, caro, chipsgott, METALHUNTER, Olethros, uk82grind, wreak,
Apr 7 2022, 12:57:47 Nyctophagia - Bangladesh Bank Heist [ep] (2021)


*Artist: Nyctophagia
*Album: Bangladesh Bank Heist [ep]
*Year: 2021
*Genre: Death Metal/Goregrind
*Country: United States
*Format: mp3@CBR320kbps
*Size: 28MB

Tracklist:
01. Night Brain 01:24
02. Hacked Soul Of A Robot 01:39
03. Forcing Popes To Fight Each Other 01:30
04. Bangladesh Bank Heist 01:18
05. Crispy Burnt-Up Human Legs 01:46
06. Holy Laughter (Deranged Pastor Syndrome) 01:43
07. Die At The Hands Of My Own Clone 01:04
08. Pseudocide Escape Fantasy 01:27
******************************
Total playing time: 11:51

[more=Extended info]
[youtube]rHhybkH6Zd4[/youtube][/more]

[more=Technical info]
Input File: 01. Night Brain.mp3
Channels : 2
Sample Rate : 44100
Precision : 16-bit
Duration : 00:01:24.77 = 3738445 samples = 6357.9 CDDA sectors
File Size : 3.51M
Bit Rate : 331k
Sample Encoding: MPEG audio (layer I, II or III)
Comments :
Title=Night Brain
Artist=Nyctophagia
Album=Bangladesh Bank Heist
Tracknumber=1
Year=2021

[/more]

Register
(8) artscald, caro, chipsgott, LordOvDarkness, METALHUNTER, Olethros, uk82grind, wreak,

81 Pages V   1 2 3 > » 
- Lo-Fi Version Support form
Copyrights and abuse reports form
Time is now: 29th May 2022 - 09:57:03