Welcome Guest ( Log In | Register )

История благодарностей участнику satanist666 ::: Спасибо сказали: 7270 раз(а)
Дата поста: В теме: За сообщение: Спасибо сказали:
Jul 10 2021, 20:15:16 Lost In Grey - The Grey Realms (2017)
LOST IN GREY:
(1) Sanctus,
Jul 10 2021, 17:42:20 Futility - Futility (2009)
Можно скачать Б/П в 320kbps!!!:
FUTILITY:

metaler.gif
(1) wreak,
Jul 10 2021, 12:59:55 Necrological - Identity (2018)


*Artist: Necrological
*Album: Identity
*Year: 2018
*Genre: Black/Death Metal
*Country: International
*Format: mp3@CBR128kbps
*Size: 49MB

Tracklist:
01. Intro (Parasite World) 01:53
02. Advent Of Silence 04:55
03. Catharsis 04:37
04. In Nomine Patris 04:06
05. Drowned In Misery 04:17
06. Innocence 04:39
07. Spirit Of The Storm 05:03
08. Enslaved 05:27
09. Parasite 03:19
10. Necrological Madness 04:35
11. Faceless (Reedition) 05:50
12. Desoriented (Instrumental) 03:53
******************************
Total playing time: 52:34

[more=Extended info]Location: Hidalgo, Mexico / Extremadura, Spain.[/more]

[more=Technical info]
Input File: 01. Intro (Parasite World).mp3
Channels : 2
Sample Rate : 44100
Precision : 16-bit
Duration : 00:01:53.57 = 5008525 samples = 8517.9 CDDA sectors
File Size : 1.92M
Bit Rate : 135k
Sample Encoding: MPEG audio (layer I, II or III)
Comments :
Title=Intro (Parasite World)
Artist=Necrological
Album=Identity
Tracknumber=1/12

[/more]

Register
(5) GorAtheist, infiltrator, metala, Olethros, vov7609,
Jul 10 2021, 12:22:47 Catalepsia - Hipotermia [ep] (2019)


*Artist: Catalepsia
*Album: Hipotermia [ep]
*Year: 2019
*Genre: Depressive Black Metal
*Country: Mexico
*Format: mp3@CBR320kbps
*Size: 58MB

Tracklist:
01. Intro 4:07
02. Cruda Existencia 3:59
03. D.I.A.N.A. 4:33
04. Revolver 4:54
05. Mi Final (Devastación Mental) 4:01
06. Min Skrøbelige Eksistens (Bonus Track) 3:12
******************************
Total playing time: 24:46

[more=Extended info]


www.facebook.com/CatalepsiaDSBM/
[youtube]HII4H9F6meQ[/youtube][/more]

[more=Technical info]
Input File: 01. Intro.mp3
Channels : 2
Sample Rate : 44100
Precision : 16-bit
Duration : 00:04:07.79 = 10927319 samples = 18583.9 CDDA sectors
File Size : 9.98M
Bit Rate : 322k
Sample Encoding: MPEG audio (layer I, II or III)
Comments :
Title=Intro
Artist=Catalepsia
Album=Hipotermia
Tracknumber=1
Year=2019

[/more]

Register
(8) aleon, caro, kim666, Lukittaz, Olethros, SilentNidhogg, VALERY, wreak,
Jul 10 2021, 11:27:52 Naturaleza Muerta & Indirect Euthanasia & Without Sadness & Catalepsia - Naturaleza Muerta/Indirect Euthanasia/Without Sadness/Catalepsia [split] (2019)


*Artist: Naturaleza Muerta & Indirect Euthanasia & Without Sadness & Catalepsia
*Album: Naturaleza Muerta/Indirect Euthanasia/Without Sadness/Catalepsia [split]
*Year: 2019
*Genre: Depressive Black Metal | Depressive Black Metal | Depressive Black Metal | Depressive Black Metal
*Country: Mexico | Mexico | Mexico | Mexico
*Format: mp3@CBR320kbps
*Size: 71MB

Tracklist:
Naturaleza Muerta:
01. NM (Intro) 03:17
02. Todo Al Rededor 05:59
Indirect Euthanasia:
03. Blanco Y Negro (Remastered) 03:14
Without Sadness:
04. Cold Inside 05:26
05. A Great Silence 04:34
Catalepsia:
06. Agonía 03:51
07. Blood And Concrete 05:00
******************************
Total playing time: 31:21

[more=Extended info]





[youtube]Vc0p6taoJ8o[/youtube]
[youtube]-346nRZVwYc[/youtube][/more]

[more=Technical info]
Input File: 01. Naturaleza Muerta - NM (Intro).mp3
Channels : 2
Sample Rate : 44100
Precision : 16-bit
Duration : 00:03:18.05 = 8733785 samples = 14853.4 CDDA sectors
File Size : 8.02M
Bit Rate : 324k
Sample Encoding: MPEG audio (layer I, II or III)
Comments :
Title=Naturaleza Muerta - NM (Intro)
Artist=Indirect Euthanasia
Album=Catalepsia ​/ ​Naturaleza Muerta​ / ​Without Sadness​ / ​Indirect Euthanasia
Tracknumber=1
Year=2019

[/more]

Register
(5) aleon, craP_cillA, Ildjarn, infiltrator, kim666,
Jul 10 2021, 10:18:17 Indirect Euthanasia & Without Sadness & Atrum - Between The Heavens Of Disappointment [split] (2019)


*Artist: Indirect Euthanasia & Without Sadness & Atrum
*Album: Between The Heavens Of Disappointment [split]
*Year: 2019
*Genre: Depressive Black Metal | Depressive Black Metal | Depressive Black Metal
*Country: Mexico | Mexico | Mexico
*Format: mp3@CBR320kbps
*Size: 99MB

Tracklist:
Indirect Euthanasia:
01. How 04:22
02. Serial Killer 06:36
03. So Many Times 06:01
Without Sadness:
04. Drunk And Confused 03:59
05. Injecting Darkness 05:11
Atrum:
06. Cancer 05:54
07. Cutting 04:26
08. White Room 06:45
******************************
Total playing time: 43:14

[more=Extended info]

[youtube]i4hLfKMy0Ac[/youtube][/more]

[more=Technical info]
Input File: 01. Indirect Euthanasia - How.mp3
Channels : 2
Sample Rate : 44100
Precision : 16-bit
Duration : 00:04:22.86 = 11592038 samples = 19714.4 CDDA sectors
File Size : 10.6M
Bit Rate : 323k
Sample Encoding: MPEG audio (layer I, II or III)
Comments :
Title=Indirect Euthanasia - How
Artist=Indirect Euthanasia
Album=Between The Heavens Of Disappointment
Tracknumber=1
Year=2019

[/more]

Register
(6) aleon, caro, kim666, SilentNidhogg, VALERY, wreak,
Jul 10 2021, 09:55:42 Abismika & Indirect Euthanasia - Disgusting Melancholy [split] (2018)


*Artist: Abismika & Indirect Euthanasia
*Album: Disgusting Melancholy [split]
*Year: 2018
*Genre: Raw Black Metal | Depressive Black Metal
*Country: Brazil | Mexico
*Format: mp3@CBR320kbps
*Size: 64MB

Tracklist:
Abismika:
01. Cinza Em Vida 05:04
02. Desolação 03:45
03. Adeus 06:07
Indirect Euthanasia:
04. Cenizas 08:43
05. Pedazos 03:54
******************************
Total playing time: 27:33

[more=Extended info]
[/more]

[more=Technical info]
Input File: 01. Abismika - Cinza Em Vida.mp3
Channels : 2
Sample Rate : 44100
Precision : 16-bit
Duration : 00:05:04.29 = 13419233 samples = 22821.8 CDDA sectors
File Size : 12.4M
Bit Rate : 325k
Sample Encoding: MPEG audio (layer I, II or III)
Comments :
Title=Abismika - Cinza Em Vida
Artist=Abismika
Album=Disgusting Melancholy (Split)
Tracknumber=1
Year=2019

[/more]

Register
(6) aleon, caro, kim666, SilentNidhogg, VALERY, wreak,
Jul 10 2021, 09:36:39 Indirect Euthanasia - In The Name Of The Father [single] (2020)


*Artist: Indirect Euthanasia
*Album: In The Name Of The Father [single]
*Year: 2020
*Genre: Depressive Black Metal
*Country: Mexico
*Format: mp3@CBR320kbps
*Size: 9MB

Tracklist:
01. In The Name Of The Father 03:53
******************************
Total playing time: 3:53

[more=Extended info]

[youtube]0hdp08k8XdU[/youtube][/more]

[more=Technical info]
Input File: 01. In The Name Of The Father.mp3
Channels : 2
Sample Rate : 44100
Precision : 16-bit
Duration : 00:03:53.19 = 10283459 samples = 17488.9 CDDA sectors
File Size : 9.41M
Bit Rate : 323k
Sample Encoding: MPEG audio (layer I, II or III)
Comments :
Title=In The Name Of The Father
Artist=Indirect Euthanasia
Year=2019

[/more]

Register
(4) caro, Olethros, Sanctus, wreak,
Jul 9 2021, 18:00:48 Vindalf - Hill Of Sorcery [EP] (2021)
Групешник (всего один чел) действительно клёвый! Всё по канонам Black Metal'а!!!

На Метал Архивах сказано, что это MCD, а не Demo!
https://www.metal-archives.com/albums/Vinda..._Sorcery/960746

Видео (оф. канал), весь альбом: https://www.youtube.com/watch?v=sULf7JT1JM8
Видео, весь альбом: https://www.youtube.com/watch?v=4Cv7pgf7ep8
metaler.gif
(1) NachtWulf,
Jul 9 2021, 17:49:56 Vindalf - Død [demo] (2021)


*Artist: Vindalf
*Album: Død [demo]
*Year: 2021
*Genre: Black Metal
*Country: Chile
*Format: mp3@CBR320kbps
*Size: 41MB

Tracklist:
01. Dark Winter 03:33
02. Død 04:11
03. Nidhogg 04:23
04. The Dark Castle 03:21
05. Utumno 02:14
******************************
Total playing time: 17:42

[more=Extended info]

[youtube]dfdu0oOtUn8[/youtube][/more]

[more=Technical info]
Input File: 01. Dark Winter.mp3
Channels : 2
Sample Rate : 44100
Precision : 16-bit
Duration : 00:03:33.28 = 9405428 samples = 15995.6 CDDA sectors
File Size : 8.64M
Bit Rate : 324k
Sample Encoding: MPEG audio (layer I, II or III)
Comments :
Title=Dark Winter
Artist=Vindalf
Album=Død Demo
Tracknumber=1
Year=2021

[/more]

Register
(14) aleon, caro, craP_cillA, igore2911, Ildjarn, kim666, Olethros, SilentNidhogg, smysl, Taakeferd, VALERY, vasiljev_sergej, vovenom, wreak,
Jul 8 2021, 17:03:58 KillBeast - The Drowning Current [ep] (2010)
Можно скачать Б/П в 320kbps!!!:
KILLBEAST:


metaler.gif
(1) wreak,
Jul 8 2021, 15:34:43 Grind Of The Dead - Formless Death (2021)


*Artist: Grind Of The Dead
*Album: Formless Death
*Year: 2021
*Genre: Grindcore/Death Metal
*Country: United States
*Format: mp3@CBR320kbps
*Size: 69MB

Tracklist:
01. Formless Death 02:46
02. Sawtooth Smile 01:33
03. Feral Jaws 01:10
04. Bleeding Idea Of Grandiosity 01:18
05. Selfish Wounds 01:47
06. Soulless 00:55
07. Burn In Hell 01:28
08. Acid Tongue 01:01
09. Open Mouths//Endless Teeth 00:10
10. Fountain Of Blood 01:14
11. Like Rats 01:24
12. Bottomless Feeder 02:24
13. 126040 01:35
14. Gnawing Loss 02:18
15. Blessed Be 05:16
******************************
Total playing time: 26:19

[more=Extended info]

[youtube]XM2z1_LKzjs[/youtube]
[youtube]GYMV_jo1jic[/youtube][/more]

[more=Technical info]
Input File: 01. Formless Death.mp3
Channels : 2
Sample Rate : 44100
Precision : 16-bit
Duration : 00:02:46.75 = 7353719 samples = 12506.3 CDDA sectors
File Size : 6.84M
Bit Rate : 328k
Sample Encoding: MPEG audio (layer I, II or III)
Comments :
Title=Formless Death
Artist=Grind of the Dead
Album=Formless Death
Tracknumber=1
Year=2021
Discnumber=1/1

[/more]

Register
(7) caro, deadterror, jollo, Olethros, supremo, vyacheslav, wreak,
Jul 8 2021, 09:07:51 Flak - Tausend Tonnen Panzerstahl (2019)


*Artist: Flak
*Album: Tausend Tonnen Panzerstahl
*Year: 2019
*Genre: Black Metal
*Country: Germany
*Format: mp3@CBR128kbps
*Size: 34MB

Tracklist:
01. Die Schwere Kompanie 3:12
02. PzKpfw V - Panther Panzer Division 3:18
03. PzKpfw IV 4:28
04. Sd.Kfz 234 3:15
05. PzKpfw VI - Tiger 3:13
06. P1000 3:27
07. Sd.Kfz III - Maultier 4:10
08. Tausend Tonnen Panzerstahl 3:42
09. Eiserne Legion (Bonus Track) 3:11
10. Pervitin (Bonus Track) 3:48
******************************
Total playing time: 35:44

[more=Extended info]

[youtube]PEm9ah8tizM[/youtube][/more]

[more=Technical info]
Input File: 01. Die Schwere Kompanie.mp3
Channels : 2
Sample Rate : 44100
Precision : 16-bit
Duration : 00:03:12.52 = 8490220 samples = 14439.1 CDDA sectors
File Size : 3.11M
Bit Rate : 129k
Sample Encoding: MPEG audio (layer I, II or III)
Comments :
Title=Die Schwere Kompanie
Artist=Flak
Album=Tausend Tonnen Panzerstahl
Tracknumber=1
Year=2019
Genre=138

[/more]

Register
(7) Ildjarn, kim666, maringlen, Olethros, smysl, stub888, Vitald,
Jul 8 2021, 08:05:49 Crucifixion Bell - Eclipsed Realm Of The Poisonvoid [single] (2021)


*Artist: Crucifixion Bell
*Album: Eclipsed Realm Of The Poisonvoid [single]
*Year: 2021
*Genre: Black Metal
*Country: United States
*Format: mp3@CBR320kbps
*Size: 16MB

Tracklist:
01. Eclipsed Realm Of The Poisonvoid 06:41
******************************
Total playing time: 6:41

[more=Extended info][/more]

[more=Technical info]
Input File: 01. Eclipsed Realm Of The Poisonvoid.mp3
Channels : 2
Sample Rate : 44100
Precision : 16-bit
Duration : 00:06:41.89 = 17723481 samples = 30142 CDDA sectors
File Size : 16.2M
Bit Rate : 323k
Sample Encoding: MPEG audio (layer I, II or III)
Comments :
Title=Eclipsed Realm of the Poisonvoid
Artist=Crucifixion Bell
Year=2021

[/more]

Register
(10) Alexis The Best, bhellrytu, caro, Olethros, Razorbladeswaltz, smysl, stub888, Taakeferd, vasiljev_sergej, Wail,
Jul 8 2021, 06:47:54 Heavenfield - Se Storm [ep] (2020)


*Artist: Heavenfield
*Album: Se Storm [ep]
*Year: 2020
*Genre: Atmospheric Black Metal
*Country: United States
*Format: mp3@CBR320kbps
*Size: 65MB

Tracklist:
01. Se Storm (The Storm) (Instrumental) 02:37
02. Wælheall, Wigas Healle (Walhall, Warrior's Hall) 04:03
03. þā Beorge (The Mountains) 05:41
04. Tīw, Anhende Ōs (Tiw, One-Handed Os) 08:30
05. Sēo Āc (The Oak) 07:19
******************************
Total playing time: 28:10

[more=Extended info]


[youtube]1U9XUTM1O0U[/youtube][/more]

[more=Technical info]
Input File: 01. Se Storm (The Storm) (Instrumental).mp3
Channels : 2
Sample Rate : 44100
Precision : 16-bit
Duration : 00:02:37.19 = 6931991 samples = 11789.1 CDDA sectors
File Size : 6.29M
Bit Rate : 320k
Sample Encoding: MPEG audio (layer I, II or III)

[/more]

Register
(15) aleon, caro, kim666, Lukittaz, Olethros, Ostinato, sergsazan, Shadechaser, SilentNidhogg, Storky, Taakeferd, VALERY, vovenom, Wail, wreak,
Jul 6 2021, 21:28:04 Heavenfield - Demo I [demo] (2020)
HEAVENFIELD:
(1) stub888,
Jul 5 2021, 08:32:12 Nachtfrost - Misanthrop [ep] (2007)
Видео: https://www.youtube.com/watch?v=LHw4xzHO58U

Залито на Ядиск - 43.5Mb в 320kbps!!!:
Register

metaler.gif
(3) kimkayoung, Vitald, wreak,
Jul 5 2021, 07:19:48 Nachtfrost - Spectral Domains Of Dusk [ep] (2018)
NACHTFROST:
(1) rickzammuto,
Jul 3 2021, 19:22:46 Murrum - In His Tacita Atria [ep] (2013)
MURRUM:



Залито на Ядиск - 47.5MB в 320kbps!!!:
Register

metaler.gif
(1) kim666,
Jul 3 2021, 19:06:35 Somme - Somme [ep] (2020)


*Artist: Somme
*Album: Somme [ep]
*Year: 2020
*Genre: Raw Black Metal
*Country: Finland
*Format: mp3@CBR320kbps
*Size: 47MB

Tracklist:
01. Intro 02:44
02. Bazentin Dawn 03:52
03. Shock Troops 02:40
04. Fatherland 04:25
05. Siegfriedstellung 04:46
06. I Had A Comrade (Instrumental) 02:13
******************************
Total playing time: 20:40

[more=Extended info]

[youtube]3KSWSdK82Gk[/youtube][/more]

[more=Technical info]
Input File: 01. Intro.mp3
Channels : 2
Sample Rate : 44100
Precision : 16-bit
Duration : 00:02:44.09 = 7236237 samples = 12306.5 CDDA sectors
File Size : 6.61M
Bit Rate : 322k
Sample Encoding: MPEG audio (layer I, II or III)
Comments :
Title=Intro
Artist=Somme
Album=Somme
Tracknumber=1
Year=2020

[/more]

Register
(6) Alexis The Best, Ildjarn, infiltrator, kim666, Olethros, Vitald,
Jul 3 2021, 18:46:18 Necrosadistic Goat Torture - The Maniac's Banquet [ep] (2006)
Залито на Ядиск - 37.1MB в 256kbps + Full Covers!!!:
Register

metaler.gif
(2) Pinhead666, wanderer73,
Jul 3 2021, 18:09:35 Sturmtiger - Atomic Hammer [ep] (2012)


*Artist: Sturmtiger
*Album: Atomic Hammer [ep]
*Year: 2012
*Genre: Death/Black Metal
*Country: Denmark
*Format: mp3@CBR320kbps
*Size: 38MB

Tracklist:
01. Invasion 02:55
02. Atomic Hammer 03:32
03. Sacrifice 02:21
04. Trench Warfare 04:34
******************************
Total playing time: 13:22

[more=Extended info]

[youtube]6P6fRkXSMNk[/youtube]
[youtube]PLkIylcpop8[/youtube]

Location: Denmark (early); London, England (later).[/more]

[more=Technical info]
Input File: 01. Invasion.mp3
Channels : 2
Sample Rate : 44100
Precision : 16-bit
Duration : 00:02:55.46 = 7737962 samples = 13159.8 CDDA sectors
File Size : 6.55M
Bit Rate : 299k
Sample Encoding: MPEG audio (layer I, II or III)
Comments :
Title=Invasion
Artist=Sturmtiger
Album=Atomic Hammer
Tracknumber=01
Year=2011
Genre=Black\Death Metal

[/more]

Register
(13) Boozer, caro, Constantinus I, craP_cillA, Marek, Olethros, SilentNidhogg, stumpheavyrock, Taakeferd, VALERY, Vitald, vyacheslav, wreak,
Jul 3 2021, 17:47:15 Nunfuck - Immodest Acts [demo] (2011)
Видео: https://www.youtube.com/watch?v=gDxZBpAHKBU

Залито на Ядиск - 12.9Mb в 192kbps:
Register

metaler.gif
(1) wreak,
Jul 3 2021, 16:57:58 Minenwerfer - Vorleben Erinnerung [compilation] (2020)


*Artist: Minenwerfer
*Album: Vorleben Erinnerung [compilation]
*Year: 2020
*Genre: Black Metal
*Country: United States
*Format: mp3@CBR320kbps
*Size: 184MB

Tracklist:
01. Trauerfeier Für Das Glorreiche Zeitalter Europas 04:20
02. Haubitzen Vor Belgrad 04:14
03. Granatenschock Selbstmord 05:01
04. Dragoner Der Südfront 05:10
05. Wiener Walzer 04:36
06. Ständchen 01:56
07. Spartakusaufstand 04:56
08. Heute Rot, Morgen Tot 05:23
09. Freikorps (Sturmtruppen II) 04:26
10. Blut In Den Straßen Von Berlin 04:24
11. First Battle Of The Masurian Lakes (Zurückdrücken) 04:56
12. Battle Of Bolimów (Weisskreuz) 03:54
13. Iron Cross (Ostfront 1915 Version) 02:46
14. Second Battle Of The Masurian Lakes (Roter Schnee) 08:57
15. When The Enemy Brings The Enlightenment 08:13
16. From Within 05:15
******************************
Total playing time: 1:18:27

[more=Extended info]

[youtube]g5ypNqx9FaA[/youtube]

A compilation of EPs and splits between 2014-2017.
Tracks 1-6: The Kriegserklärung EP was originally released on vinyl in December 2014.
Tracks 7-10: Originally released on the Paukenschlag / Heimkehr split with Kommandant in April 2017.
Tracks 11-14: Originally released as Ich hatt einen Kameraden Split with 1914 in 2016.
Tracks 15-16: Originally released as the 1914 / 1939 split with Flak in April 2017.[/more]

[more=Technical info]
Input File: 01. Trauerfeier Für Das Glorreiche Zeitalter Europas.mp3
Channels : 2
Sample Rate : 44100
Precision : 16-bit
Duration : 00:04:22.59 = 11580219 samples = 19694.2 CDDA sectors
File Size : 10.6M
Bit Rate : 322k
Sample Encoding: MPEG audio (layer I, II or III)
Comments :
Title=Trauerfeier Für Das Glorreiche Zeitalter Europas
Artist=Minenwerfer
Album=Vorleben Erinnerung (Compilation)
Tracknumber=01/16
Year=2020
Genre=Black Metal

[/more]

Register
(18) caro, Constantinus I, craP_cillA, grobator, kim666, kimkayoung, maxxxy, Olethros, Ostinato, SilentNidhogg, smysl, stub888, supremo, Taakeferd, VALERY, Vitald, wreak, yuratroll,
Jul 3 2021, 16:18:49 Minenwerfer - Alle Beruhigen Sich Auf Der West Voderseite [demo] (2009)
MINENWERFER:



Залито на Ядиск - 71.2MB в 320kbps!!!:
Register

metaler.gif
(2) Constantinus I, Vitald,

70 Pages V   1 2 3 > » 
- Lo-Fi Version Support form
Copyrights and abuse reports form
Time is now: 6th August 2021 - 04:53:43