Welcome Guest ( Log In | Register )

Объявления

* gmail.com упорно продолжает считать почту с нас "unsolicited" и отбивает в том числе и письма активации, поэтому просьба использовать альтернативные почтовые ящики.
------------
* gmail.com continues reject all mail from us as "unsolicited" (activation mails too) therefore please use alternate mail servers.
История благодарностей участнику satanist666 ::: Спасибо сказали: 10354 раз(а)
Дата поста: В теме: За сообщение: Спасибо сказали:
May 25 2024, 15:30:38 Abysm - Shadow Of Malevolence (2024)
ABYSM:
(1) lldma,
May 10 2024, 19:07:12 Aborted - Vault Of Horrors (2024)
ABORTED:
(1) kimkayoung,
Mar 25 2024, 19:04:03 In Utero Cannibalism - Dehumanize (2024)
SLEASZY RIDER Records:
(1) Occultas,
Feb 28 2024, 16:08:06 Suicide Circle - Bukkake Of Souls (2023)
OSMOSE Productions:
(1) Occultas,
Dec 6 2023, 18:04:40 Troll - Trolldom (2023)
POLYPUS Records:
(3) dermarsoran, khestanow3001, Occultas,
Nov 24 2023, 02:47:22 One Master - The Names Of Power (2023)
ONE MASTER:
(2) dermarsoran, Occultas,
Sep 19 2023, 15:15:45 Դագաղ (Dagagh) - Dungeon Lust (2023)
Blood Coloured Beast:
(4) dermarsoran, Occultas, rickzammuto, Wail,
Sep 8 2023, 23:04:41 Kryptamok - Verisaarna (2020)
KRYPTAMOK:
(1) kimkayoung,
Sep 8 2023, 23:04:04 Kryptamok - Kataklysmi (2022)
KRYPTAMOK:
(1) kimkayoung,
Sep 8 2023, 17:42:31 Balga - Troops Of Hate [ep] (2023)
BALGA:
(2) Evrom, Occultas,
Sep 8 2023, 16:54:12 Гнёт - Звёзды (2023)
ГНЁТ:
(2) judaz, rominow,
Sep 8 2023, 12:38:17 Hildr Valkyrie - Revealing The Heathen Sun (2017)
HILDR VALKYRIE:
(1) kimkayoung,
Jul 5 2023, 12:40:49 Robes Of Snow - The Frozen Choir (2020)
Все 09 треков можно скачать Б/П в 320kbps!!!:
ROBES OF SNOW:

metaler.gif metaler.gif metaler.gif
(1) varlam4,
Jul 5 2023, 11:44:33 Uzlaga & Robes Of Snow - The Frozen Hull [split] (2023)
UZLAGA:


ROBES OF SNOW:
(1) Dante_D,
Jul 5 2023, 10:45:29 Harrow - Fallow Fields (2015)
Можно скачать Б/П в 320kbps!!!:
OLD MILL Productions:

metaler.gif metaler.gif metaler.gif
(2) Angeldemon617, kim666,
Jul 3 2023, 06:41:43 Gottesmorder - Gottesmorder [ep] (2011)
Можно скачать Б/П в 320kbps!!!:
GOTTESMORDER:


LE CRÉPUSCULE DU SOIR:

metaler.gif
(2) kim666, kimkayoung,
Jul 3 2023, 06:29:16 Indesiderium - Wanderer Of The Abyssal Plains [ep] (2015)
INDESIDERIUM:
(1) Occultas,
Jul 3 2023, 06:20:07 Winterblood - Herbstsehnsucht (2013)
Можно скачать Б/П в 320kbps!!!:
LE CRÉPUSCULE DU SOIR:

metaler.gif
(2) Angeldemon617, kimkayoung,
Jun 28 2023, 09:45:42 Fifth Angel - When Angels Kill (2023)
FIFTH ANGEL:
(2) bajoangel, rominow,
Jun 21 2023, 11:42:02 Deathbefore & (I)dentify - Heartbreaking [split] (2023)
(I)DENTIFY:


DEATHBEFORE:
(1) dermarsoran,
Jun 21 2023, 11:04:06 Мор - 1993 [ep] (2023)
МОР:


ASSAVLT:
(1) kimkayoung,
Jun 20 2023, 19:33:17 Ghostslug - Eternal Inanition [ep] (2021)


*Artist: Ghostslug
*Album: Eternal Inanition [ep]
*Year: 2021
*Genre: Death Metal/Grindcore
*Country: United States
*Format: mp3@CBR320kbps
*Size: 28MB

Tracklist:
01. Consumed 01:40
02. Scent Of Pleasure 01:30
03. Fecal Serum 02:08
04. Cumkill 01:21
05. Flesh Queen 02:05
06. Sick 01:51
07. Viscous Dredge 00:57
08. XXX 00:37
******************************
Total playing time: 12:09

[more=Extended info]



[youtube]2WnBXMR0cTE[/youtube][/more]

[more=Technical info]
Input File: 01. Consumed.mp3
Channels : 2
Sample Rate : 44100
Precision : 16-bit
Duration : 00:01:40.47 = 4430815 samples = 7535.4 CDDA sectors
File Size : 4.20M
Bit Rate : 334k
Sample Encoding: MPEG audio (layer I, II or III)
Comments :
Title=Consumed
Artist=Ghostslug
Album=Eternal Inanition
Tracknumber=01
Year=2021
Discnumber=1

[/more]

Register
(2) artscald, wreak,
Jun 20 2023, 18:36:35 Gokkun & Ghostslug - Hentai Overdose [split] (2022)


*Artist: Gokkun & Ghostslug
*Album: Hentai Overdose [split]
*Year: 2022
*Genre: Goregrind/Death Metal | Death Metal/Grindcore
*Country: United States | United States
*Format: mp3@CBR320kbps
*Size: 60MB

Tracklist:
Gokkun:
01. Guro N' Roll 03:39
02. Hyperinflation Neptunia 03:38
03. Sagiri 01:56
04. The AN@LMASTER 03:50
05. Slaughterhouse 02:03
Ghostslug:
06. Sweet Nectar 01:59
07. Pelvic Obliteration 01:53
08. Compulsory Insemination 02:45
09. Menstrual Chunks 01:44
10. Transanal Minimally Invasive Surgical Technique 01:28
******************************
Total playing time: 24:55

[more=Extended info]


[youtube]p5UEK5gx-Oo[/youtube][/more]

[more=Technical info]
Input File: 01. Gokkun - Guro N\' Roll.mp3
Channels : 2
Sample Rate : 44100
Precision : 16-bit
Duration : 00:03:39.86 = 9695738 samples = 16489.4 CDDA sectors
File Size : 9.02M
Bit Rate : 328k
Sample Encoding: MPEG audio (layer I, II or III)
Comments :
Title=GOKKUN - GURO N' ROLL
Artist=Gokkun x Ghostslug
Album=Hentai Overdose
Tracknumber=1
Year=2022

[/more]

Register
(4) artscald, Lanceatum, supremo, wreak,
Jun 20 2023, 18:24:04 Gokkun & Kudo Haruka 工藤晴香 - Ero Guro Practices Manual Volume 2 [split] (2020)


*Artist: Gokkun & Kudo Haruka 工藤晴香
*Album: Ero Guro Practices Manual Volume 2 [split]
*Year: 2020
*Genre: Goregrind/Death Metal | Goregrind
*Country: United States | Chile
*Format: mp3@CBR320kbps
*Size: 68MB

Tracklist:
Gokkun:
01. High Speed Machete Cuntfuck 04:40
02. Acid Attack Bride 05:45
03. Debreasted Prior To Sodomy 05:13
Kudo Haruka 工藤晴香:
04. クズ 02:19
05. くどはるは誰 01:42
06. Crushed To Death By A Stone Ceiling 03:02
07. グロ祭 02:24
08. Hentai Flashing Images 02:04
09. Ugly Bastard Massacre 01:45
******************************
Total playing time: 28:54

[more=Extended info]

[/more]

[more=Technical info]
Input File: 01. Gokkun - High Speed Machete Cuntfuck (Ft. Captain Bastard of KudoHaruka 工藤晴香).mp3
Channels : 2
Sample Rate : 44100
Precision : 16-bit
Duration : 00:04:40.20 = 12356996 samples = 21015.3 CDDA sectors
File Size : 11.3M
Bit Rate : 323k
Sample Encoding: MPEG audio (layer I, II or III)
Comments :
Title=High Speed Machete Cuntfuck (Feat. Captain Bastard of KudoHaruka 工藤晴香)
Artist=Gokkun
Album=Ero Guro Practices Manual Vol. 2
Tracknumber=1
Year=2020

[/more]

Register
(4) artscald, Lanceatum, supremo, wreak,
Jun 20 2023, 18:00:16 Gokkun - Genocide Harem Overkill (2022)


*Artist: Gokkun
*Album: Genocide Harem Overkill
*Year: 2022
*Genre: Goregrind/Death Metal
*Country: United States
*Format: mp3@CBR320kbps
*Size: 73MB

Tracklist:
01. As The Tentacles Deflower 03:09
02. Disemboweled Through Her Cunt 02:11
03. Cerveza De La Cerebro 04:02
04. Drillbore Bomb Womb Explosion 00:43
05. Chainsawed Monogatari Cadavers 02:22
06. Erotic Tsundere Cunt Cutting 03:11
07. Tearing Yoshiko's Chuuni Asshole 02:02
08. Scatological Loli Princess Cumvomit 00:40
09. Kodomo Body Parts Barbecue 02:05
10. On Her Rotten Guts I Cum 03:07
11. Joshikousei Uterine Disgorgement 01:38
12. Castigo Del brujo (Brujeria Cover) 01:39
13. Dead Body Love (Pungent Stench Cover) 04:14
******************************
Total playing time: 31:03

[more=Extended info]
[/more]

[more=Technical info]
Input File: 01. As The Tentacles Deflower.mp3
Channels : 2
Sample Rate : 44100
Precision : 16-bit
Duration : 00:03:09.74 = 8367402 samples = 14230.3 CDDA sectors
File Size : 7.74M
Bit Rate : 326k
Sample Encoding: MPEG audio (layer I, II or III)
Comments :
Title=AS THE TENTACLES DEFLOWER
Artist=Gokkun
Album=Genocide Harem Overkill
Tracknumber=1
Year=2022

[/more]

Register
(7) A.L.Rapsod, artscald, jollo, metala, supremo, vyacheslav, wreak,

91 Pages V   1 2 3 > » 
- Lo-Fi Version Support form
Copyrights and abuse reports form
Time is now: 13th July 2024 - 04:28:25