Welcome Guest ( Log In | Register )

Объявления

* gmail.com упорно продолжает считать почту с нас "unsolicited" и отбивает в том числе и письма активации, поэтому просьба использовать альтернативные почтовые ящики.
------------
* gmail.com continues reject all mail from us as "unsolicited" (activation mails too) therefore please use alternate mail servers.
История благодарностей участнику Elfrey ::: Спасибо сказали: 2780 раз(а)
Дата поста: В теме: За сообщение: Спасибо сказали:
Aug 23 2021, 07:29:35 Lifeleft - A Life Left Behind (2021)


*Artist: Lifeleft
*Album: A Life Left Behind
*Year: 2021
*Genre: Eclectic Metal
*Country: Russian Federation
*Format: mp3@CBR320kbps
*Size: 89MB

Tracklist:
1. Intro
2. Улыбайся
3. Место для нас
4. На дне
5. Жажда
6. Лабиринт
7. Быть собой
8. Минута
9. Прах героев
10. Петля
11. Ракета
12. Outro
******************************
Total playing time: 37:01

Preview 1

[more=Extended info]Black/Groove/Melodic Death Metal/Metalcore

Ex-Indeterminable[/more]

[more=Technical info]
Input File: 09.Прах героев.mp3
Channels : 2
Sample Rate : 44100
Precision : 16-bit
Duration : 00:03:31.94 = 9346686 samples = 15895.7 CDDA sectors
File Size : 8.48M
Bit Rate : 320k
Sample Encoding: MPEG audio (layer I, II or III)
Comments :
Title=Прах героев
Artist=Lifeleft
Album=A Life Left Behind
Tracknumber=9
Year=2021
Genre=9

[/more]

Register
(12) after21allD, caro, chipsgott, gwar, HMHamster, kimkayoung, metala, Metalass, Olethros, Orgasmik, supremo, wreak,
Sep 26 2016, 16:07:28 Deathfall - Reborn (2007)
Просьба перезалить
(1) Evgundel,
May 28 2016, 20:02:00 Katalepsy - Gravenous Hour (2016)
Не понравился. Autopsychosis был в разы лучше, здесь практически нет ни одного трека, который бы хотелось включить заново, альбом не запоминается совсем, ничего бы не потерял, если бы не слушал. Похожие ощущения были после прослушивания последнего альбома Aborted
(2) infiltrator, Paatddal,
Jan 31 2016, 21:36:06 Violet Cold - Magic Night (2016)
Register
(21) 1968_janeart, artscald, Bathory88, ddarkthrone, Doooomed, JuicyMaraca, kimkayoung, kolar666, Korpse, Moonshtook, morbidangelo, nsmetalhead, Old Vyaine, QuadenThyrane, rammmirez, snorr, Spunkynut, Trelledorn, varg-38ru, vasiljev_sergej, wreak,
Jan 31 2016, 19:41:54 Bury Tomorrow - Earthbound (2016)
Register

Bury Tomorrow держут марку. Пока еще ни разу не подвели с новым альбом. Все тот же качественный мелодикдэтметалкор
(4) boby9052, nikfo, todeskampf, varlam4,
Nov 22 2014, 13:50:12 Indeterminable - Nameless And Dead (2014)
[youtube]?v=MW-ayktFMkk[/youtube]
(1) Rosen,
Mar 23 2014, 07:24:11 Insain - Enlightening The Unknown [ep] (2014)
Решил полноформат переслушать, звучит намного лучше чем данная работа
(1) andreikun,
Mar 22 2014, 18:10:30 You Can’t Keep Me Down - Cold Dark Mind (2014)


*Artist: You Can’t Keep Me Down
*Album: Cold Dark Mind
*Year: 2014
*Genre: Hardcore/Metalcore
*Country: Finland
*Format: mp3@CBR320kbps
*Size: 52MB

Tracklist:
01. Doing Just Fine
02. Blame Yourself
03. Party Over
04. Four Seasons Of Loneliness
05. Outro
06. Abandon All Hope
07. It’s So Hard To Say Goodbye To Yesterday
08. End Of The Road
09. Outro 2
******************************
Total playing time: 21:50




[more=Technical info]
Input File: 02 Blame Yourself.mp3
Channels : 2
Sample Rate : 44100
Precision : 16-bit
Duration : 00:02:13.97 = 5907989 samples = 10047.6 CDDA sectors
File Size : 5.63M
Bit Rate : 336k
Sample Encoding: MPEG audio (layer I, II or III)
Comments :
Title=Blame Yourself
Artist=You Can’t Keep Me Down
Album=Cold Dark Mind
Tracknumber=2
Year=2014

[/more]

Register
(5) caro, Rosen, scrollbar, stone88, wreak,
Mar 18 2014, 10:51:30 Deracination - Times Of Atrocity (1992)
Register
(16) Alfredoelruso, as71, Carcharoth, cist, cuimit1349, djurassic, hell_armageddon, MEmethuselah, muskatnuss, Proteus_666, sperminator, Tino, varlam4, WARHEAD, wgs73, WX419,
Mar 14 2014, 15:40:47 Новости Brutal Death Metal и Grind(core) направлений
Новый трэк от Aborted!
[youtube]pFIDFsfa3F4[/youtube]
(2) Emm Human, InFestus,
Feb 23 2014, 17:41:20 Frequency - The Flow (2014)
Но теперь шифт+дел? 1488.gif
(3) avather, defamer666, Mplast,
Feb 11 2014, 17:01:28 Alizbar - Harp's Fairytales (2012)


*Artist: Alizbar
*Album: Harp's Fairytales
*Year: 2012
*Genre: Celtic Harp/Instrumental
*Country: Russian Federation
*Format: mp3@CBR320kbps
*Size: 137MB

Tracklist:
01. Ballad That Wind Whispered 09:35
02. Whispering of Stars 04:27
03. Dance of Fairies 04:58
04. Estuary 04:15
05. Strawberry Glade 03:48
06. Dreams of Salamander 04:02
07. Fairy-tale about Love 04:12
08. Melting Snowflakes in Her Hands 04:01
09. Rebecca's Dreams 03:59
10. Flight of Elves 04:03
11. Dance of Unicorns 02:45
12. Charmed Forest 02:14
13. Emperor and Dragons 04:37
14. Gothic of Hoarfrost 02:51
******************************
Total playing time: 59:47

Preview 1

[more=Extended info][/more]

[more=Technical info]
Input File: 05. Strawberry Glade.mp3
Channels : 2
Sample Rate : 44100
Precision : 16-bit
Duration : 00:03:47.63 = 10038439 samples = 17072.2 CDDA sectors
File Size : 9.20M
Bit Rate : 324k
Sample Encoding: MPEG audio (layer I, II or III)
Comments :
Title=Strawberry Glade
Artist=Alizbar
Album=Harp's Fairytales
Tracknumber=05
Year=2012
Genre=Celtic harp, Instrumental, Folk

[/more]

Register
(7) gmadjara, milosdjor, Orgasmik, Sephiroth 666, spiritualdecay666, xska, yuratroll,
Feb 4 2014, 07:07:51 Artema - Stargazer (2014)


*Artist: Artema
*Album: Stargazer
*Year: 2014
*Genre: Modern Melodic Death Metal
*Country: Japan
*Format: mp3@CBR320kbps
*Size: 101MB

Tracklist:
01. Operation Revival
02. REALIVE
03. BRAVE STORY
04. Atomic Blaster
05. Night Strikers
06. WALK
07. GALAXY DRIVE
08. Liberation
09. World End Anthem
10. Letters
11. COLORS OF LOVE
12. D.N.P -STARGAZER Ver.-
******************************
Total playing time: 43:34



[more=Technical info]
Input File: 04. Atomic Blaster.mp3
Channels : 2
Sample Rate : 44100
Precision : 16-bit
Duration : 00:02:54.20 = 7682352 samples = 13065.2 CDDA sectors
File Size : 7.06M
Bit Rate : 324k
Sample Encoding: MPEG audio (layer I, II or III)
Comments :
Title=Atomic Blaster
Artist=Artema
Album=Stargazer
Tracknumber=4/12
Year=2014
Genre=Rock
Discnumber=1/1

[/more]

Register
(9) Analien, caro, DenisKov, Fetus_In_Fetu, gwynnbleid, Mogozoz, respect, Rosen, VALERY,
Jan 26 2014, 19:00:10 Therapsida - The Demons Reign (2014)
Неожиданно отличный альбом! Особенно на фоне однострунного уныния, которое сейчас процветает. Звук конечно не совсем по моему вкусу, но это не так важно
(1) metadeat,
Jan 26 2014, 18:42:29 Fisthammer - Infallible (2014)
ЦИТАТА
коровые вокалы

такое существует? fear.gif

По релизу: добротный технодэт на стыке с мдм`ом
(1) neoatheist,
Jan 23 2014, 19:44:03 Indeterminable - Symbols That Disappeared [single] (2014)


*Artist: Indeterminable
*Album: Symbols That Disappeared [single]
*Year: 2014
*Genre: Death Metal/Hardcore
*Country: Russian Federation
*Format: mp3@CBR320kbps
*Size: 9MB

Tracklist:
01. Symbols That Disappeared
******************************
Total playing time: 4:09

Preview 1


[more=Technical info]
Input File: Indeterminable - Symbols That Disappeared (2014).mp3
Channels : 2
Sample Rate : 44100
Precision : 16-bit
Duration : 00:04:09.84 = 11017724 samples = 18737.6 CDDA sectors
File Size : 9.99M
Bit Rate : 320k
Sample Encoding: MPEG audio (layer I, II or III)
Comments :
Title=Symbols That Disappeared
Artist=Indeterminable
Year=2014
Genre=22

[/more]

Register
(11) AndreFrancis, caro, Evgundel, Foneg, neoatheist, Phlebotomized, respect, Rosen, satanist666, stone88, wreak,
Dec 15 2013, 07:11:24 Winterfrost - Похоронная Зима [demo] (2013)
"Упокоенные в снегах" очень сильно!
(1) добрыйКот,
Dec 11 2013, 12:33:59 Perception Veil - No Future [ep] (2011)


*Artist: Perception Veil
*Album: No Future [ep]
*Year: 2011
*Genre: Technical Brutal Death Metal
*Country: Russian Federation
*Format: mp3@CBR320kbps
*Size: 49MB

Tracklist:
01. Insanity Addiction
02. No Future
03. Shining Black
04. Experiment Process
05. Obsidian Prism
06. Hold The Path
07. Endless Thoughts
******************************
Total playing time: 20:35



[more=Extended info]Одна из интереснейших российских TBDM групп. Диск имеется в коллекции
[/more]

[more=Technical info]
Input File: 02 - No Future.mp3
Channels : 2
Sample Rate : 44100
Precision : 16-bit
Duration : 00:03:18.22 = 8741370 samples = 14866.3 CDDA sectors
File Size : 7.93M
Bit Rate : 320k
Sample Encoding: MPEG audio (layer I, II or III)
Comments :
Title=No Future
Artist=PERCEPTION VEIL
Album=No Future
Tracknumber=2
Year=2011
Genre=Death Metal

[/more]

Register
(11) caro, garretje, Hell_Is_Here, logunarm, metala, MMMMM, neoatheist, samokot, Shuranator, sperminator, Язва,
Sep 5 2013, 08:46:16 World Lethality - Slaves Of The Emptiness [single] (2013)


*Artist: World Lethality
*Album: Slaves Of The Emptiness [single]
*Year: 2013
*Genre: Technical Death Metal/Deathcore
*Country: Russian Federation
*Format: mp3@CBR277kbps
*Size: 10MB

Tracklist:
01. Slaves Of The Emptiness 04:57
******************************
Total playing time: 4:57

Preview 1

Register
(8) caro, Evgundel, Fetus_In_Fetu, Flenger, Hell_Is_Here, Phlebotomized, supremo, ГРОТ,
Sep 3 2013, 18:41:52 Whorecore - Headless (2013)

Еще Black Metal можно в тегах указать. Очень добротно нарезают
(1) BioMax,
Aug 15 2013, 05:48:14 Mechanical God Creation - Artifact Of Annihilation (2013)
Пока еще послушал только один трэк на бэндкампе, но уже напрашивается тег Melodic
(1) neoatheist,
Jul 22 2013, 15:16:17 Lack Of Truth - Under The Torn Flesh (2013)
Мне вот любопытно, вокалисту то самому интересно подобное записывать?
(1) Deze,
Jul 6 2013, 10:06:51 Grimus - Omnicide (2013)
Отличный дэт митол! gop_spb.gif Брутально, атмосферно, напористо. Брэйки на своих местах.
(1) aesteticvice,
Jun 26 2013, 05:48:21 Out Of Yesteryear - Mass (2013)
Больше похоже дэт метал в духе Behemoth и Hate.
(1) DenisKov,
May 30 2013, 08:43:40 Will To Live - Old Habits Die Hard (2013)

Ну я бы прописал теги Thrash Metal/Hardcore
(2) BioMax, Genuine Thrashiac,

20 Pages V   1 2 3 > » 
- Lo-Fi Version Support form
Copyrights and abuse reports form
Time is now: 25th April 2024 - 16:35:19