Welcome Guest ( Log In | Register )

История благодарностей участнику General ::: Спасибо сказали: 840 раз(а)
Дата поста: В теме: За сообщение: Спасибо сказали:
Jul 30 2022, 01:52:08 Thyrane - Travesty Of Heavenly Essence (2005)
с нета
Register
(3) kimkayoung, nsk2008, wreak,
Jul 30 2022, 01:45:26 Thyrane - Hypnotic (2003)
с нета
Register
(2) nsk2008, wreak,
Jul 30 2022, 01:38:08 Thyrane - Black Harmony [demo] (1997)
в нете нарыл
Register
(3) AlexSmith, vasiljev_sergej, wreak,
Jun 22 2022, 22:17:25 White Ward - Love Exchange Failure (2019)
Register
(4) goat_horns, Kwaad, Purestenchkvlt, troll_swamp,
Jan 12 2022, 11:08:33 Infornal FuckЪ - Край родной (2017)
Register


2018 - Уже не то
Register


2021 - Чем Дальше В Лес
Register
(2) kluval, wreak,
Jan 5 2018, 13:35:33 Old Scythia - Срывая Оковы (2017)
Register
(5) artscald, fabriziomagno, Femto, pahanbos, varlam4,
Jan 5 2018, 11:41:48 Svrm - Den Sidste Messias [demo] (2015)
Register
(8) artscald, ent404, kim666, maxxxy, Moonshtook, Nebo, Storky, xarmendarizx,
Jan 5 2018, 11:39:40 Svrm - 7 [demo] (2015)
Register
(6) artscald, dvlz, ent404, grindfucker, Moonshtook, Storky,
Jan 5 2018, 11:28:33 Svrm - При смерти [demo] (2016)
еле нашел
Register
(5) artscald, d0zer, ent404, Moonshtook, ГРОТ,
Nov 18 2017, 22:26:39 Finnentum & Eternum - Oath Of Defiance [split] (2010)
Register
(10) Antichrist, artscald, dermarsoran, igore2911, Ostinato, scorpiothekiller, stub888, Svafrlami, thenecromancer, wendigo,
Nov 18 2017, 22:24:45 Drowning The Light & Eternum - United By Iron Will [split] (2009)
Register
(8) Angeldemon617, Fryz, igore2911, kim666, Ostinato, Timekiller_again, varlam4, wedard,
Nov 18 2017, 22:18:42 Eternum - The Devouring Descent (2014)
Register
(6) Antichrist, artscald, deceased32, kim666, morbidangelo, stub888,
Mar 12 2017, 19:56:22 Hypocrisy - Don't Judge Me [single] (2008)
Register
(2) dulak, Zenial,
Mar 12 2017, 19:51:10 Immortal & Hypocrisy - Valley Of The Damned/Hordes Of War [split] (2009)
Register
(1) thenecromancer,
Dec 1 2016, 18:39:22 Die Apokalyptischen Reiter - Dr. Pest [single] (2011)


*Artist: Die Apokalyptischen Reiter
*Album: Dr. Pest [single]
*Year: 2011
*Genre: Folk/Melodic Death Metal
*Country: Germany
*Format: mp3@CBR320kbps
*Size: 20MB

Tracklist:
01 - Dr. Pest (3:27)
02 - Die Boten (3:53)
******************************
Total playing time: 7:20

[more=Technical info]
Input File: 01 - Dr. Pest.mp3
Channels : 2
Sample Rate : 44100
Precision : 16-bit
Duration : 00:03:53.90 = 10314946 samples = 17542.4 CDDA sectors
File Size : 11.0M
Bit Rate : 375k
Sample Encoding: MPEG audio (layer I, II or III)
Comments :
Title=Dr. Pest
Artist=Die Apokalyptischen Reiter
Album=Dr. Pest [EP]
Tracknumber=1
Year=2011
Genre=Melodic Death Metal | Folk Metal |Avant-Garde Metal | Viking Metal

[/more]

Register
(9) Cartman223, GlebKKK, gwar, Hell_Is_Here, Jurmagund, morbidangelo, princeshr, Rosen, SymbyoticEntity,
Nov 27 2016, 10:36:00 Die Apokalyptischen Reiter
Обновил ссылкоту на почти все альбомы/синглы. Все с нета. Может кому пригодиться. 9.gif
(1) DarkHorde,
Nov 27 2016, 10:02:58 Die Apokalyptischen Reiter - Tief.Tiefer (2014)
Register
(5) Alexis The Best, Aresson, Black Arts, fabriziomagno, karpenka,
Nov 27 2016, 09:57:26 Die Apokalyptischen Reiter - Moral & Wahnsinn (2011)
Register
(5) Aresson, Black Arts, BrutalMan, eyes0re, grindfucker,
Nov 27 2016, 09:54:01 Die Apokalyptischen Reiter - Adrenalin [live] (2009)
Register
(3) Aresson, fabriziomagno, varlam4,
Nov 27 2016, 09:47:10 Die Apokalyptischen Reiter - Licht (2008)
Register
(7) Aresson, Black Arts, BrutalMan, eyes0re, fabriziomagno, grindfucker, Mplast,
Nov 27 2016, 09:41:20 Die Apokalyptischen Reiter - Der Weg [ep] (2008)
Register
(2) Aresson, fabriziomagno,
Nov 27 2016, 09:37:49 Die Apokalyptischen Reiter - Riders On The Storm (2006)
Register
(7) Aresson, Black Arts, darkinthedarkness, eyes0re, fabriziomagno, Nattfodd, wn129aa,
Nov 27 2016, 09:36:44 Die Apokalyptischen Reiter - Friede Sei Mit Dir [live] (2006)
Register
(3) Aresson, DonDeuz, fabriziomagno,
Nov 27 2016, 09:35:57 Die Apokalyptischen Reiter - Samurai (2004)
Register
(6) Aresson, Black Arts, fabriziomagno, Fryz, grindfucker, zlvd,
Nov 27 2016, 09:25:02 Die Apokalyptischen Reiter - Have A Nice Trip (2003)
Register
(6) Aresson, Black Arts, fabriziomagno, grindfucker, lucifix, zlvd,

8 Pages V   1 2 3 > » 
- Lo-Fi Version Support form
Copyrights and abuse reports form
Time is now: 21st April 2024 - 07:09:40