Welcome Guest ( Log In | Register )

История благодарностей участнику xAtiLLAx ::: Спасибо сказали: 272 раз(а)
Дата поста: В теме: За сообщение: Спасибо сказали:
Jun 4 2017, 07:06:19 SikTh - The Future In Whose Eyes? (2017)
Играли и играют джент, но это явно их не первостепенная стилистика. Да и никогда они не были скучными - даже на каплю, ибо это, как раз, один из самых интересных примеров среди современных прогрессивных групп. Не смотря на все математические заигрывания, главной их фишкой, как по мне - является альтметальные отзвуки в стиле какого-нибуть Корна.

Ипишка, кстати, предыдущая - была таки лучше, как-то поубойней.
(1) Metalass,
Jul 21 2015, 16:42:43 Lokyata - A Concrete Wasteland (2015)
добротное рубилово. реца: https://vk.com/wall-22415516_16884
(1) Язва,
Mar 26 2015, 15:40:41 Unrest - Grindcore (2015)
defamer666,
на каких?

достоверными сайтfми всегда были фейсбук-страничка группы, которую они ведут и личный их бэндкамп. Philadelphia, USA >>>

>
шапку этого бэндкампа читал? ничего не насторожило? например вот это слово: "-records"
(1) DarkHorde,
Jan 27 2015, 09:17:12 Pink Machines - Silicone Alley (2014)
Experimental / Garage Rock / Punk Rock / Surf Rock / Grindcore / Death Metal
(1) DarkHorde,
Dec 28 2014, 10:48:35 Drunk Diver - C2H5OH (2013)
Sludge / Grindcore / Stoner Doom

2 и 3(стили) не существенны, ибо служат для большей насыщенности тутошнего сладжа, воот. А вообще, аxуенно!1
(1) Genuine Thrashiac,
Dec 7 2014, 17:26:35 Sonance - Blackflower (2014)
атмосферным может быть пост-метал, а не сладж, лол( ну на столько,чтоб к нему можно было подставить значок "атмосферик"), у сладжа структура не та, чтоб быть столь размытым. а вот дрон дун-то бы надо было ещё в стили б добавить, ибо как раз той "сладжемвой атмосферностью" он и является.

а вообще дух Неврозис слышен, да, норм))
(1) Aresson,
Nov 27 2014, 22:31:54 Churchburn - The Awaiting Coffins (2014)
frwd,
https://vk.com/wall-22415516_14060 ревью и превью.
(1) 666BlackDeath,
Nov 27 2014, 21:45:01 Churchburn - The Awaiting Coffins (2014)
дичайший акуенчик, в топ года однозначною. только услышав первый трек - сразу 10 баллов. А уж дальше - и говорить не буду, мняка))
(1) ripper33,
Nov 25 2014, 15:36:36 The Flight Of Sleipnir - V (2014)
как всегда хороши))

review: https://vk.com/wall-22415516_14023
(1) Fess,
Oct 19 2014, 16:22:37 Pyre - Human Hecatomb (2014)
aesteticvice,

меж тем, костёр-то разгорался, хватая пламенем яйцо,
ведь рип сиди не появлялся, хотя просили же его.
(2) hammer, vosmidesijatye,
Oct 19 2014, 13:08:09 Pyre - Human Hecatomb (2014)
а пока могу предложить вот такое качество:
304 kbps
Размер: 88,6 МБ
https://yadi.sk/d/kaBUvLA4c8ffn
(3) Black Cat, Old Vyaine, samokot,
Oct 9 2014, 16:59:17 Melvins - Hold It In (2014)


*Artist: Melvins
*Album: Hold It In
*Year: 2014
*Genre: Experimental/Stoner Rock/Grunge/Noise Rock/Glam Rock/Sludgecore/Drone Ambient/Noise
*Country: United States
*Format: mp3@CBR320kbps
*Size: 137MB

Tracklist:
01. Bride Of Crakenstein 2:49
02. You Can Make Me Wait 2:49
03. Brass Cupcake 3:24
04. Barcelonian Horseshoe Pit 4:22
05. Onions Make The Milk Taste Bad 5:01
06. Eyes On You 3:24
07. Sesame Street Meat 3:28
08. Nine Yards 2:29
09. The Bunk Up 7:35
10. I Get Along (Hollow Moon) 2:35
11. Piss Pisstopherson 2:58
12. House Of Gasoline 12:11
******************************
Total playing time: 53:05

Preview 1

Preview 3

Preview 5

[more=Extended info]при участии Butthole Surfers[/more]

[more=Technical info]
Input File: 01.Bride of Crakenstein.mp3
Channels : 2
Sample Rate : 44100
Precision : 16-bit
Duration : 00:02:49.14 = 7458854 samples = 12685.1 CDDA sectors
File Size : 8.58M
Bit Rate : 406k
Sample Encoding: MPEG audio (layer I, II or III)
Comments :
Title=Bride of Crankenstein
Artist=Melvins
Album=Hold It In
Tracknumber=1/12
Year=2014
Genre=Rock

[/more]

Register
(15) acerbus, Aresson, Ariox, BRUTAL06, current, DragonSlayer, J0k3r, Jurmagund, Moonshtook, Necrokilldozer, princeshr, Red Wizard, sorgnatt, varlam4, Vertigo,
Oct 8 2014, 22:51:58 Baptists - Bloodmines (2014)


*Artist: Baptists
*Album: Bloodmines
*Year: 2014
*Genre: Metalcore/Chaotic Hardcore/Crust Punk/Neocrust
*Country: Canada
*Format: mp3@VBR277kbps
*Size: 49MB

Tracklist:
01. Chamber
02. Wanting
03. String Up
04. Closed Ports
05. Vistas
06. Harm Induction
07. Festered
08. Dissembler
09. Bloodmines
10. Calling
11. For Profit
******************************
Total playing time: 25:31



Preview 3
Preview 4

Register

Register
(10) 666BlackDeath, bloodwind, igorzz, Moonshtook, Necrokilldozer, Ostinato, Rosen, Sepulchreal, spiritualdecay666, wreak,
Oct 5 2014, 17:39:07 Godflesh - A World Lit Only By Fire (2014)
В шапку добавлен линк на 320 kbit/s.
(4) acerbus, Moonshtook, Ostinato, VALERY,
Sep 30 2014, 06:55:12 Godflesh - A World Lit Only By Fire (2014)


*Artist: Godflesh
*Album: A World Lit Only By Fire
*Year: 2014
*Genre: Experimental/Industrial Metal
*Country: United Kingdom
*Format: mp3@CBR256kbps
*Size: 98MB

Tracklist:
01. New Dark Ages
02. Deadend
03. Shut Me Down
04. Life Giver Life Taker
05. Obeyed
06. Curse Us All
07. Carrion
08. Imperator
09. Towers of Emptiness
10. Forgive Our Fathers
******************************
Total playing time: 53:56

Preview 1



Register

Register
(38) acerbus, as71, BATON-duBASSic, Blood13, bm666l, current, d-fedorr, Demonologist, djsema4, ENDSMOUTH, frwd, garml2, Henmik, Infidel, Jurmagund, macumbista, mcrooh, Necrokilldozer, Nothing, okarodb, Pkhenry, princeshr, ripper33, spiritualdecay666, Stutthof, Tino, Urfeuer, User123, VALERY, vov7609, Winter Funeral, Wolfera, Xor, xska, yuratroll, ZarK, Zenial, партизан,
Sep 26 2014, 17:41:58 Torch Runner - Endless Nothing (2014)


*Artist: Torch Runner
*Album: Endless Nothing
*Year: 2014
*Genre: Chaotic Hardcore/Powerviolence/Grindcore/Blackened Crust
*Country: United States
*Format: mp3@CBR320kbps
*Size: 50MB

Tracklist:
01. Riff
02. Drum Intro
03. DDJJ
04. #2
05. Bolt Blast
06. Obituary
07. LOSE
08. COS
09. SPPL
10. Funky Ruth
11. Newest
12. #1
13. SIDL
******************************
Total playing time: 22:02


Preview 2


[more=Technical info]
Input File: 01 Attrition.mp3
Channels : 2
Sample Rate : 44100
Precision : 16-bit
Duration : 00:01:39.50 = 4388082 samples = 7462.72 CDDA sectors
File Size : 4.46M
Bit Rate : 359k
Sample Encoding: MPEG audio (layer I, II or III)
Comments :
Title=Attrition
Artist=Torch Runner
Album=Endless Nothing
Tracknumber=1
Year=2014

[/more]

Register
(4) Rosen, scrollbar, Unkle Jonny, Герб,
Sep 26 2014, 12:42:03 Mørkt Kjøtt - Sinn Ov Lite (2014)
есть мнение, что блэк - не поджанр метала совсем, воот
просто так исторически сложилось, что среди металистов уж слишком популярно стало кидать козу и приносить в жертву сатане свои жизни. т.е. этот стиль развился довольно обширно среди металистов именно поэтому. так, из-за поочерёдных лёгкомысленных упущений стало обыденней называть тип такого метала именно "блек метал", чем блек какого-то там метала( типа блек треш метал, блек дез метал и т.п.)
(1) sacrut,
Sep 26 2014, 11:38:23 Hijo De La Tormenta - Hijo De La Tormenta (2014)
вокал няшный, но мало похож на Оззин, разве что стилистически схожи
Sep 7 2014, 16:20:12 Los - And When You Gaze Long Into An Abyss, The Abyss Also Gazes Into You (2014)
Blackened Death-Doom / Sludge, но тут равноценно, ибо сладжа тут дох..

ЗБС телега
(1) aesteticvice,
Sep 6 2014, 08:12:41 Sangharsha - Bayou (2014)


*Artist: Sangharsha
*Album: Bayou
*Year: 2014
*Genre: Metalcore/Chaotic Hardcore/Neocrust/Sludgecore
*Country: United States
*Format: mp3@CBR260kbps
*Size: 52MB

Tracklist:
1. Dharaap 02:55
2. Muslo 02:05
3. Chattyang 02:05
4. Bayou 03:42
5. Aseena 06:32
6. Kachuli 08:02
******************************
Total playing time: 25:21


Preview 2

Register
(8) Emhyr var Emreis, Hell_Is_Here, Lionheart-P, Ostinato, randumbum, Rosen, sarcophagus, wreak,
Aug 23 2014, 09:16:44 Arctic Sleep - Passage Of Gaia (2014)
какой хоть дум(

Post-Metal / Progressive Metal / Alternative Rock / Progressive Rock / Stoner Rock / Shoegaze
(1) qpMM,
Aug 17 2014, 07:26:25 PowerTakeOff - This Is Late (2014)
Experimental / Noise Rock / Noisecore / Free Jazz / Drone Doom / Sludge сладжа тут такая крупа и на столько посредственно, шо он тут в самой жoпe тегов.
(1) qpMM,
Aug 16 2014, 18:50:00 Tape Eater - Bleeders [ep] (2014)
хотел услышать маткор, хотел, очень хотел, но не услышал. воот.
но вдруг, заиграл какой-то синтипоп, я аж аxyел, подумал, вот же он, йопте, но нет, оказалось, что проигрыватель переключил уже на следующий альбом в списке, короче, надежды не оправдались.
пока пытался найти маткор, не заметил нойз. вообще, даже пытаться не стал нарыть мерзбоу.

диагноз такой: Noise Rock / Chaotic Hardcore / Post-Hardcore / Math Rock
(1) MetalGavno,
Aug 12 2014, 20:49:48 Odraza - Esperalem Tkane (2014)
mp3 320kbps
Register
(4) artscald, satanist666, Tino, varlam4,
Aug 11 2014, 13:54:14 Sonic Booze Machine - Doomed To Fail (2014)
ой, ну стили как всегда. сами не знают, что выкладывают. особенно пост-метал, ну вот каким боком-то, ужс

Southern Metal / Hardcore / Stoner Rock / Progressive Rock
(3) 666BlackDeath, Black Cat, paganheart,

3 Pages V   1 2 3 >
- Lo-Fi Version Support form
Copyrights and abuse reports form
Time is now: 27th January 2021 - 13:36:04