Welcome Guest ( Log In | Register )

История благодарностей участнику Immolator ::: Спасибо сказали: 969 раз(а)
Дата поста: В теме: За сообщение: Спасибо сказали:
Aug 26 2020, 18:30:40 Metallica - S&m 2 [live] (2020)
Треклист S&M1 найди 10 отличий.
Disc 1
1 The Ecstasy Of Gold (Ennio Morricone cover) 02:30
2 The Call Of Ktulu 09:34
3 Master Of Puppets 08:55
4 Of Wolf And Man 04:19
5 The Thing That Should Not Be 07:27
6 Fuel 04:36
7 The Memory Remains 04:42
8 No Leaf Clover 05:43
9 Hero Of The Day 04:45
10 Devil's Dance 05:26
11 Bleeding Me 09:01
Disc 2
1 Nothing Else Matters 06:47
2 Until It Sleeps 04:30
3 For Whom The Bell Tolls 04:52
4 Minus Human 04:20
5 Wherever I May Roam 07:02
6 The Outlaw Torn 09:59
7 Sad But True 05:46
8 One 07:53
9 Enter Sandman 07:39
10 Battery 07:25
S&M2 песни которые не делались с оркестром это я понимаю, а так мы это уже все слышали.
(1) Emm Human,
Aug 9 2020, 08:18:56 Flavio Brandao Stratosphere Project - Stratosphere (2020)


*Artist: Flavio Brandao Stratosphere Project
*Album: Stratosphere
*Year: 2020
*Genre: Progressive Metal
*Country: United States
*Format: mp3@CBR320kbps
*Size: 85MB

Tracklist:
01. Stratosphere (feat. Ivar Bergelin) (04:52)
02. Dark Rift (feat. Michael Hos) (03:48)
03. State of Euphoria (feat. "Ludvik" Michael Rainer Ludwig) (04:58)
04. Into the Storm (feat. Scott Hines) (06:12)
05. Self Aware (feat. Michael Hos) (04:20)
06. This World's on Fire (feat. "Ludvik" Michael Rainer Ludwig) (04:34)
07. Fury (feat. Ivar Bergelin) (04:20)
08. These Days (Bonus Track) (feat. Ivar Bergelin) (03:20)
******************************
Total playing time: 36:24

[more=Extended info][youtube]IFzQaNTkn8Y[/youtube][/more]

[more=Technical info]
Input File: 01 - Stratosphere.mp3
Channels : 2
Sample Rate : 44100
Precision : 16-bit
Duration : 00:04:52.59 = 12903219 samples = 21944.2 CDDA sectors
File Size : 11.7M
Bit Rate : 321k
Sample Encoding: MPEG audio (layer I, II or III)
Comments :
Title=Stratosphere
Artist=Flavio Brandão Stratosphere Project; Ivar Bergelin
Album=Stratosphere
Tracknumber=01
Year=2020
Genre=Metal
Discnumber=1

[/more]

Register
(12) ace73pq, after21allD, boby9052, csgmnk, infiltrator, Lukittaz, Mogozoz, multizwilling, Olethros, Rosen, Rover, wreak,
Aug 9 2020, 08:03:41 Steelswarm - Aspect Of Dissonance (2020)


*Artist: Steelswarm
*Album: Aspect Of Dissonance
*Year: 2020
*Genre: Progressive Metal/Post Rock
*Country: Australia
*Format: mp3@CBR320kbps
*Size: 89MB

Tracklist:
01. Begin Simulation
02. River of Sky
03. Future Gods
04. Everything Lasts Forever
05. Life Obsolete
06. Phthalo
07. Wasted Signals
08. Twilight Harbour
******************************
Total playing time: 36:55

[more=Extended info][youtube]cKLTymoaeac[/youtube][/more]

[more=Technical info]
Input File: 01 - Begin Simulation.mp3
Channels : 2
Sample Rate : 44100
Precision : 16-bit
Duration : 00:03:54.10 = 10323766 samples = 17557.4 CDDA sectors
File Size : 9.40M
Bit Rate : 321k
Sample Encoding: MPEG audio (layer I, II or III)
Comments :
Title=Begin Simulation
Artist=SteelSwarm
Album=Aspects of Dissonance
Tracknumber=01
Year=2020
Genre=Metal
Discnumber=1

[/more]

Register
(8) Dark Sage, dimitriusk, infiltrator, Lukittaz, Mogozoz, Olethros, Rosen, wreak,
Jul 25 2020, 07:36:30 Ketoret - Ketoret (2020)


*Artist: Ketoret
*Album: Ketoret
*Year: 2020
*Genre: Post Metal
*Country: Israel
*Format: mp3@CBR320kbps
*Size: 126MB

Tracklist:
1. Ivy 07:15
2. Comet O 07:27
3. Hydra 09:04
4. Water Omen 11:40
5. Departure I (In A Heartbeat) 10:41
6. Departure II (Ascension) 07:40
******************************
Total playing time: 53:47

[more=Extended info][youtube]qzh3Om7IeHE[/youtube][/more]

[more=Technical info]
Input File: 01. Ivy.mp3
Channels : 2
Sample Rate : 44100
Precision : 16-bit
Duration : 00:07:15.49 = 19205021 samples = 32661.6 CDDA sectors
File Size : 17.5M
Bit Rate : 321k
Sample Encoding: MPEG audio (layer I, II or III)
Comments :
Title=Ivy
Artist=Ketoret
Album=Ketoret
Tracknumber=01
Year=2020
Genre=Post-Black Metal

[/more]

Register
(8) aleon, Buregon, infiltrator, Lukittaz, Olethros, Rosen, VALERY, zbysio,
Nov 20 2019, 16:32:51 Kashchey - Intacta [ep] (2019)


*Artist: Kashchey
*Album: Intacta [ep]
*Year: 2019
*Genre: Psychedelic Sludge/Doom Metal
*Country: Russian Federation
*Format: mp3@CBR320kbps
*Size: 61MB

Tracklist:
1 Keyhall 7:56
2 Spb 7:59
3 Afterglow 5:36
4 Amort 6:34
******************************
Total playing time: 28:05

[more=Extended info][youtube]bpn0vZzYcgA[/youtube][/more]

[more=Technical info]
Input File: 01 - Keyhall.mp3
Channels : 2
Sample Rate : 44100
Precision : 16-bit
Duration : 00:07:56.07 = 20994511 samples = 35705 CDDA sectors
File Size : 19.0M
Bit Rate : 320k
Sample Encoding: MPEG audio (layer I, II or III)
Comments :
Title=Keyhall
Artist=Kashchey
Album=Intacta
Year=2019
Genre=Post Metal

[/more]

Register
(5) infiltrator, Olethros, Rosen, stumpheavyrock, VALERY,
Oct 11 2019, 14:25:17 Gideon - Out Of Control (2019)


*Artist: Gideon
*Album: Out Of Control
*Year: 2019
*Genre: Metalcore/Hardcore
*Country: United States
*Format: mp3@CBR320kbps
*Size: 89MB

Tracklist:
01. Welcome To S town
02. Sleep
03. Take Me
04. 2 Close (feat. Drew York from Stray From The Path)
05. Low Life
06. Southwind
07. Style
08. Outlaw
09. Life Without
10. Denial
11. Out Of Control
12. Bite Down
******************************
Total playing time: 36:53

[more=Extended info][youtube]bV2vCKaZmtg[/youtube][/more]

[more=Technical info]
Input File: 02 SLEEP.mp3
Channels : 2
Sample Rate : 44100
Precision : 16-bit
Duration : 00:03:23.72 = 8983920 samples = 15278.8 CDDA sectors
File Size : 8.15M
Bit Rate : 320k
Sample Encoding: MPEG audio (layer I, II or III)
Comments :
Title=SLEEP
Artist=Gideon
Album=Out of Control
Tracknumber=02/12
Year=2019-19-20
Genre=Metalcore
Discnumber=1/1

[/more]

Register
(5) artscald, infiltrator, metala, Olethros, Rosen,
Oct 7 2019, 17:25:43 Mayfair - … Frevel … (2019)


*Artist: Mayfair
*Album: … Frevel …
*Year: 2019
*Genre: Progressive Rock/Psychedelic
*Country: Austria
*Format: mp3@CBR320kbps
*Size: 105MB

Tracklist:
1.Evil Christine 03:25
2.Hinter dem Leben 03:50
3.Ungetaktet 03:28
4.Himmel in Gefahr 03:38
5.Gestern und nicht heut' 03:12
6.Hitze 04:50
7.Der Teufel 03:14
8.Atme (Frevel) 06:20
9.Annelies 03:14
10.Phosphor 03:29
11.Das Ufer hat Zeit 04:57
******************************
Total playing time: 43:37

[more=Extended info][youtube]LdQccFHfQpI[/youtube][/more]

[more=Technical info]
Input File: 01. Evil Christine.mp3
Channels : 2
Sample Rate : 44100
Precision : 16-bit
Duration : 00:03:25.57 = 9065725 samples = 15417.9 CDDA sectors
File Size : 8.26M
Bit Rate : 321k
Sample Encoding: MPEG audio (layer I, II or III)
Comments :
Title=Evil Christine
Artist=Mayfair
Album=Frevel
Tracknumber=1
Year=2019
Genre=Progressive Metal

[/more]

Register
(5) after21allD, gena, infiltrator, leks, Olethros,
Apr 28 2019, 08:11:54 Ploho - Пыль (2019)


*Artist: Ploho
*Album: Пыль
*Year: 2019
*Genre: Post-Punk
*Country: Russian Federation
*Format: mp3@CBR320kbps
*Size: 78MB

Tracklist:
01. Закладка
02. Строительный кран
03. Горький опыт
04. Власть
05. Москва
06. Пыль
07. Моя память
08. Вера в прекрасное
09. Пустота
******************************
Total playing time: 30:10

[more=Extended info][youtube]lD_CBTasSJ8[/youtube][/more]

[more=Technical info]
Input File: 1. Закладка.mp3
Channels : 2
Sample Rate : 44100
Precision : 16-bit
Duration : 00:03:32.38 = 9365958 samples = 15928.5 CDDA sectors
File Size : 8.59M
Bit Rate : 324k
Sample Encoding: MPEG audio (layer I, II or III)
Comments :
Title=Закладка
Artist=Ploho
Album=Пыль
Tracknumber=1/9
Year=2019
Genre=Post-Punk
Discnumber=1/1

[/more]

Register
(7) Aresson, DMIYUR, Filya, infiltrator, judaz, Krosis, Woosad,
Jan 3 2019, 19:15:23 Kublai Khan - Annihilation (1987)
Register
(1) Mplast,
Dec 27 2018, 18:44:49 DIIV - Is The Is Are (2012)


*Artist: DIIV
*Album: Is The Is Are
*Year: 2012
*Genre: Indie Rock/Shoegaze
*Country: United States
*Format: mp3@CBR320kbps
*Size: 139MB

Tracklist:
01. Out of Mind 03:08
02. Under the Sun 03:47
03. Bent (Roi's Song) 05:40
04. Dopamine 03:56
05. Blue Boredom (Sky's Song) 02:33
06. Valentine 03:18
07. Yr Not Far 03:19
08. Take Your Time 04:58
09. Is the Is Are 03:09
10. Mire (Grant's Song) 05:35
11. Incarnate Devil 04:43
12. (Fuck) 00:17
13. Healthy Moon 04:12
14. Loose Ends 03:13
15. (Napa) 01:44
16. Dust 04:34
17. Waste of Breath 05:23
******************************
Total playing time: 1:03:29

[more=Extended info][youtube]zKbqyuaXolg[/youtube][/more]

[more=Technical info]
Input File: 02 Under the Sun.mp3
Channels : 2
Sample Rate : 44100
Precision : 16-bit
Duration : 00:03:47.05 = 10013081 samples = 17029 CDDA sectors
File Size : 9.08M
Bit Rate : 320k
Sample Encoding: MPEG audio (layer I, II or III)
Comments :
Title=Under the Sun
Artist=DIIV
Album=Is the Is Are
Tracknumber=2/17
Year=2016

[/more]

Register
(1) A.L.Rapsod,
Dec 27 2018, 18:36:52 DIIV - Oshin (2012)


*Artist: DIIV
*Album: Oshin
*Year: 2012
*Genre: Indie Rock/Shoegaze
*Country: United States
*Format: mp3@CBR320kbps
*Size: 113MB

Tracklist:
01. (Druun) 02:08
02. Past Lives 02:22
03. Human 02:58
04. Air Conditioning 04:31
05. How Long Have You Known 03:34
06. Wait 03:17
07. Earthboy 03:15
08. (Druun Pt. II) 02:47
09. Follow 02:46
10. Sometime 03:06
11. Oshin (Subsume) 03:33
12. Doused 03:44
13. Home 02:30
14. Geist (Bonus Track) 04:46
15. Bambi Slaughter (Bonus Track) 02:51
******************************
Total playing time: 48:08

[more=Extended info][youtube]KI79GPXAICM[/youtube][/more]

[more=Technical info]
Input File: 12 - Doused.mp3
Channels : 2
Sample Rate : 44100
Precision : 16-bit
Duration : 00:03:43.57 = 9859481 samples = 16767.8 CDDA sectors
File Size : 8.95M
Bit Rate : 320k
Sample Encoding: MPEG audio (layer I, II or III)
Comments :
Title=Doused
Artist=DIIV
Album=Oshin (Deluxe Edition)
Tracknumber=12
Year=2012

[/more]

Register
(1) A.L.Rapsod,
Dec 6 2018, 17:01:03 Dream Theater - Untethered Angel [single] (2018)
Мне не нравится альтернатива и ню-метал в основном из-за отсутствия гитарных соло, плюс все эти ню металлисты часто с рэпом заигрывают, а это две не совместимые культуры. Для театралов это неудачный эксперимент. Может быть я приверженец классических канонов, но это так.
(1) vosmidesijatye,
Nov 7 2018, 16:17:01 Metallica - …and Justice For All (Deluxe Box Set) [boxed set] (2018)
Не представляющая ценности хрень. А вот это еще куда не шло
[youtube]https://www.youtube.com/watch?v=6kqTcLwUYj8[/youtube]
бас выведен как положено. Вот собственно сабж.

Чет видос не вставляется
https://www.youtube.com/watch?v=6kqTcLwUYj8
(3) death77, Ghostb, infiltrator,
Oct 24 2018, 18:19:57 Cerber - Клату Верату [ep] (2018)


*Artist: Cerber
*Album: Клату Верату [ep]
*Year: 2018
*Genre: Thrash Metal
*Country: Russian Federation
*Format: mp3@CBR320kbps
*Size: 41MB

Tracklist:
01- Гниение 3:55
02 - Это моё 3:27
03 - Жатва 3:59
04 - Клату Верату 3:43
05 - Ваня (The Exploited cover) 2:20
******************************
Total playing time: 17:24

Preview 1

[more=Technical info]
Input File: 01 - Гниение.mp3
Channels : 2
Sample Rate : 48000
Precision : 16-bit
Duration : 00:03:55.25 = 11291904 samples ~ 17643.6 CDDA sectors
File Size : 9.41M
Bit Rate : 320k
Sample Encoding: MPEG audio (layer I, II or III)

[/more]

Register
(7) apostol_13, Aresson, artscald, boby9052, METALHUNTER, postal67, Rosen,
Apr 15 2018, 17:58:41 Scarlet Host - Black Days (2018)
Все бы ничего, но рэп с**а убивает напрочь.
(1) Foneg,
Apr 1 2018, 05:10:10 PHI - Cycles (2018)


*Artist: PHI
*Album: Cycles
*Year: 2018
*Genre: Progressive Metal/Rock
*Country: Austria
*Format: mp3@CBR320kbps
*Size: 113MB

Tracklist:
01. Children of the Rain 08:55
02. Dystopia 08:50
03. In the Name of Freedom 07:25
04. Amber 07:41
05. Existence 06:50
06. Blackened Rivers 07:45
******************************
Total playing time: 47:26

[more=Extended info][youtube]8zVeRW4DpAA[/youtube][/more]

[more=Technical info]
Input File: 01 - Children of the Rain.mp3
Channels : 2
Sample Rate : 44100
Precision : 16-bit
Duration : 00:08:55.43 = 23612551 samples = 40157.4 CDDA sectors
File Size : 21.6M
Bit Rate : 323k
Sample Encoding: MPEG audio (layer I, II or III)
Comments :
Title=Children of the Rain
Artist=PHI
Album=Cycles
Tracknumber=01/06
Year=2018
Genre=Progressive Rock
Discnumber=1/1

[/more]

Register
(8) csgmnk, dimitriusk, marilin, Mogozoz, Rosen, varlam4, wreak, Yarri,
Mar 20 2018, 16:41:33 The Aurora Project - World Of Grey (2016)


*Artist: The Aurora Project
*Album: World Of Grey
*Year: 2016
*Genre: Progressive Metal
*Country: Netherlands
*Format: mp3@CBR320kbps
*Size: 123MB

Tracklist:
01. Expect Us 05:37
02. Warmongers 08:18
03. Stone Eagle 07:02
04. Deadly Embrace 06:26
05. Media Puppets 04:47
06. World Of Grey 06:33
07. Circles In The Water 09:03
08. Dronewars 07:51
******************************
Total playing time: 55:37

[more=Extended info][youtube]ev9raPjezYs[/youtube][/more]

[more=Technical info]
Input File: 02. Warmongers.mp3
Channels : 2
Sample Rate : 44100
Precision : 16-bit
Duration : 00:08:18.65 = 21990421 samples = 37398.7 CDDA sectors
File Size : 20.0M
Bit Rate : 321k
Sample Encoding: MPEG audio (layer I, II or III)
Comments :
Title=Warmongers
Artist=The Aurora Project
Album=World Of Grey
Tracknumber=2
Year=2016
Genre=Progressive Metal

[/more]

Register
(11) AHBAnep, csgmnk, ctulhudagon, Foneg, infiltrator, metala, Mogozoz, postal67, Rover, varlam4, wreak,
Mar 9 2018, 07:31:08 Dirty Deville - Come All Lunatics (2018)


*Artist: Dirty Deville
*Album: Come All Lunatics
*Year: 2018
*Genre: Psychedelic/Stoner Rock
*Country: United States
*Format: mp3@CBR320kbps
*Size: 117MB

Tracklist:
01. Such A Fool 06:29
02. Come All Lunatics 04:05
03. Through The Walls 04:39
04. Anything 05:06
05. Familiar 04:33
06. I'm Done 03:39
07. Compression Waves 05:02
08. Death Dream 04:33
09. Outliers 05:09
10. Odyssey 07:22
******************************
Total playing time: 50:37

[more=Extended info][youtube]u58jn8uwfMc[/youtube][/more]

[more=Technical info]
Input File: 02. Come All Lunatics.mp3
Channels : 2
Sample Rate : 44100
Precision : 16-bit
Duration : 00:04:05.60 = 10831092 samples = 18420.2 CDDA sectors
File Size : 9.92M
Bit Rate : 323k
Sample Encoding: MPEG audio (layer I, II or III)
Comments :
Title=Come All Lunatics
Artist=Dirty Deville
Album=Come All Lunatics
Tracknumber=2
Year=2018
Genre=Psychedelic Rock

[/more]

Register
(5) infiltrator, Jurmagund, marilin, qpMM, VALERY,
Mar 9 2018, 07:29:40 The Samurai Of Prog - Archiviarum (2018)


*Artist: The Samurai Of Prog
*Album: Archiviarum
*Year: 2018
*Genre: Progressive Rock
*Country: United Nations
*Format: mp3@CBR320kbps
*Size: 164MB

Tracklist:
1. Keep the Ball Rolling (6:07)
2. Ahead of Fortune (5:16)
3. La Oscuridad (9:50)
4. Cristalli (5:24)
5. Elitropia (4:56)
6. The Sleeping Lover (8:32)
7. From This Window (10:37)
8. Ice (9:41)
9. Predawn (4:06)
10. Heroes (5:36)
******************************
Total playing time: 1:10:05

[more=Extended info][youtube]0Ss3R6q0AiE[/youtube][/more]

[more=Technical info]
Input File: 01. Keep The Ball Rolling.mp3
Channels : 2
Sample Rate : 44100
Precision : 16-bit
Duration : 00:06:07.42 = 16203354 samples = 27556.7 CDDA sectors
File Size : 14.9M
Bit Rate : 325k
Sample Encoding: MPEG audio (layer I, II or III)
Comments :
Title=Keep The Ball Rolling
Artist=The Samurai Of Prog
Album=Archiviarum
Tracknumber=1/10
Year=2018
Genre=92

[/more]

Register
(1) infiltrator,
Feb 19 2018, 17:22:44 Xanadu - The Last Sunrise (2011)


*Artist: Xanadu
*Album: The Last Sunrise
*Year: 2011
*Genre: Progressive Metal/Rock
*Country: Poland
*Format: mp3@CBR320kbps
*Size: 110MB

Tracklist:
01 Piece of Mind 3:57
02 Dark Shadows 5:27
03 Miles Away 5:01
04 Violent Dream (Part. I) 10:07
05 One Moment 6:54
06 Vicious Circle 3:52
07 The Last Sunrise 10:14
******************************
Total playing time: 45:32

[more=Extended info][youtube]A9vOj5OnI9s[/youtube][/more]

[more=Technical info]
Input File: 02. Dark Shadows.mp3
Channels : 2
Sample Rate : 44100
Precision : 16-bit
Duration : 00:05:28.52 = 14487864 samples = 24639.2 CDDA sectors
File Size : 13.2M
Bit Rate : 321k
Sample Encoding: MPEG audio (layer I, II or III)
Comments :
Title=Dark Shadows
Artist=Xanadu
Album=The Last Sunrise
Tracknumber=2/7
Year=2011
Genre=Progressive Rock

[/more]

Register
(10) csgmnk, dimitriusk, Foneg, jelly_kt, metala, Mogozoz, Rosen, varlam4, wreak, Yarri,
Feb 17 2018, 10:07:13 Critical Mass - Wasted Sentence [ep] (2009)


*Artist: Critical Mass
*Album: Wasted Sentence [ep]
*Year: 2009
*Genre: Progressive Metal
*Country: Denmark
*Format: mp3@CBR320kbps
*Size: 55MB

Tracklist:
1. Perfect Murder 06:50
2. Dark Deception 04:53
3. State of Neglect 07:25
4. Stars 05:59
******************************
Total playing time: 25:07

Preview 1

[more=Technical info]
Input File: 01 - Perfect Murder.mp3
Channels : 2
Sample Rate : 44100
Precision : 16-bit
Duration : 00:06:50.93 = 18122189 samples = 30820 CDDA sectors
File Size : 16.4M
Bit Rate : 320k
Sample Encoding: MPEG audio (layer I, II or III)
Comments :
Title=Perfect Murder
Artist=Critical Mass
Album=Wasted Sentence
Tracknumber=01
Year=2009
Genre=Progressive Metal

[/more]

Register
(7) csgmnk, metala, Mogozoz, Rosen, spiritualdecay666, varlam4, wreak,
Feb 17 2018, 09:31:30 Advocacy - Geophobia [ep] (2017)


*Artist: Advocacy
*Album: Geophobia [ep]
*Year: 2017
*Genre: Progressive Metal
*Country: Denmark
*Format: mp3@CBR320kbps
*Size: 57MB

Tracklist:
01. Geophobia (2:46)
02. The Believer (6:31)
03. Shattered Skies (6:28)
04. When Hate Subsides (5:25)
05. Never Ensured (4:31)
******************************
Total playing time: 25:39



[more=Technical info]
Input File: 01 - Geophobia.mp3
Channels : 2
Sample Rate : 44100
Precision : 16-bit
Duration : 00:02:46.29 = 7333301 samples = 12471.6 CDDA sectors
File Size : 6.68M
Bit Rate : 322k
Sample Encoding: MPEG audio (layer I, II or III)
Comments :
Title=Geophobia
Artist=Advocacy
Album=Geophobia
Tracknumber=1/5
Year=2017
Genre=9

[/more]

Register
(8) aviacademy, csgmnk, metala, Mogozoz, Rosen, spiritualdecay666, varlam4, wreak,
Nov 20 2017, 17:32:56 Sole Remedy - The Wounded Ones (2008)


*Artist: Sole Remedy
*Album: The Wounded Ones
*Year: 2008
*Genre: Progressive/Gothic Metal
*Country: Finland
*Format: mp3@VBR246kbps
*Size: 101MB

Tracklist:
1. Human Weakness 08:52
2. Deep End 06:18
3. Bitter Promise 06:04
4. Home ? 06:57
5. (W)hole 05:15
6. ...Broken... 02:05
7. The Wounded Ones 04:37
8. A Dosage of Emptiness 06:46
9. Disappeared 08:23
******************************
Total playing time: 55:17

[more=Extended info][youtube]oyrdWcG8MT4[/youtube][/more]

Register
(13) Buregon, Cartman223, csgmnk, metala, Mogozoz, Old Vyaine, Rosen, RotAnus, Rover, satanist666, sayfut, varlam4, скептик,
May 21 2017, 17:29:24 Lonely Robot - The Big Dream (2017)


*Artist: Lonely Robot
*Album: The Big Dream
*Year: 2017
*Genre: Progressive Rock
*Country: United Kingdom
*Format: mp3@CBR320kbps
*Size: 169MB

Tracklist:
01. Prologue (Deep Sleep) 02:18
02. Awakenings 05:18
03. Sigma 05:08
04. In Floral Green 05:18
05. Everglow 05:04
06. False Lights 05:36
07. Symbolic 05:09
08. The Divine Art Of Being 05:40
09. The Big Dream 08:01
10. Hello World Goodbye 03:57
11. Epilogue (Sea Beams) 02:54
Bonus Tracks:
12. In Floral Green (Acoustic Version) 05:18
13. The Divine Art Of Being (Acoustic Version) 05:40
14. Why Do We Stay? 05:15
******************************
Total playing time: 1:10:41



[more=Technical info]
Input File: 03. Sigma.mp3
Channels : 2
Sample Rate : 44100
Precision : 16-bit
Duration : 00:05:08.26 = 13594090 samples = 23119.2 CDDA sectors
File Size : 12.4M
Bit Rate : 321k
Sample Encoding: MPEG audio (layer I, II or III)
Comments :
Title=Sigma
Artist=Lonely Robot
Album=The Big Dream
Tracknumber=3
Year=2017
Genre=Progressive Rock

[/more]

Register
(3) Death84, MetalW, veselchak_u,
Apr 9 2017, 07:34:08 Royal Thunder - Wick (2017)
Послушал этот альбом и скачал всю дискографию группы, решил ознакомиться.
(1) avkruchinin,

5 Pages V   1 2 3 > » 
- Lo-Fi Version Support form
Copyrights and abuse reports form
Time is now: 20th September 2020 - 15:58:18