Welcome Guest ( Log In | Register )

История благодарностей участнику Bathory88 ::: Спасибо сказали: 409 раз(а)
Дата поста: В теме: За сообщение: Спасибо сказали:
Aug 5 2019, 22:51:55 The Blue Letter - Prima Facie [ep] (2007)


*Artist: The Blue Letter
*Album: Prima Facie [ep]
*Year: 2007
*Genre: Post-Metal/Screamo
*Country: United States
*Format: mp3@VBR207kbps
*Size: 59MB

Tracklist:
1. Your Love in the Morning 5:13
2. This Window Is Made of One-Way Glass 5:04
3. We'll Cut Down the Trees and Name Our Streets After Them 7:51
4. Moved In 98 14:09
5. Without a Warning We Disappeared 4:57
6. Your Faithfulness At Night 1:54
******************************
Total playing time: 39:08

[more=Technical info]
Input File: 06-the_blue_letter-your_faithfulness_at_night.mp3
Channels : 2
Sample Rate : 44100
Precision : 16-bit
Duration : 00:01:54.78 = 5061886 samples = 8608.65 CDDA sectors
File Size : 2.57M
Bit Rate : 179k
Sample Encoding: MPEG audio (layer I, II or III)
Comments :
Title=Your Faithfulness At Night
Artist=The Blue Letter
Album=Prima Facie
Tracknumber=6/6
Year=2007-07-24
Genre=Post-Metal/Screamo

[/more]

Register
(3) Angry_Chair, artscald, Olethros,
Sep 18 2018, 03:54:28 Rope Sect - Personae Ingratae (2017)
QUOTE(Borderline1991 @ Sep 17 2018, 14:48:44) *
Would I be wrong if I'd classify this as "Darkwave"? Or "Gothic Rock/Darkwave"?

I've heard some deathrock bands and they were different from this.
It reminds me of Bauhaus and Joy Division more than it reminds me of Ved Buens Ende or any Avant-garde Black Metal. hmm.gif

Well yes they are primarily a post punk band but you cant deny they dont have a black metal/doom metal/psychedelic rock influence in them. and no i would not call them darkwave
(1) Borderline1991,
Sep 17 2018, 11:40:18 Rope Sect - Personae Ingratae (2017)
QUOTE(Borderline1991 @ Sep 17 2018, 13:03:32) *
I'm listening to it now and it reminds me a lot on Lifelover's Erotik album. And maybe little bit of HIM. It's not bad.

It's actually much more similar to avant garde black metal like ved buens ende
[youtube]tMPfYr7JiZM[/youtube]

QUOTE(aesteticvice @ Sep 17 2018, 13:09:33) *
да как-то совсем не похоже, типичный представитель современного gothic post-punk (deathrock)

This is not purely "gothic or deathrock" it sounds nothing like christian death or rudimentary peni
(1) Borderline1991,
Sep 17 2018, 03:21:47 Rope Sect - Personae Ingratae (2017)


*Artist: Rope Sect
*Album: Personae Ingratae
*Year: 2017
*Genre: Deathrock
*Country: Germany
*Format: mp3@CBR320kbps
*Size: 68MB

Tracklist:
1. Fallen Nation 3:00
2. Tarantist 3:04
3. Pretty Life 3:56
4. King Of The Night 4:36
5. Recess 2:12
6. Ochlesis 5:07
7. Death is Your Lover 3:12
8. Rattenkönig 4:21
******************************
Total playing time: 29:28



[more=Technical info]
Input File: Rope Sect - Personae Ingratae - 01 Fallen Nation.mp3
Channels : 2
Sample Rate : 44100
Precision : 16-bit
Duration : 00:03:00.91 = 7977999 samples = 13568 CDDA sectors
File Size : 7.33M
Bit Rate : 324k
Sample Encoding: MPEG audio (layer I, II or III)
Comments :
Title=Fallen Nation
Artist=Rope Sect
Album=Personae Ingratae
Tracknumber=1
Year=2017

[/more]

Register
(12) BandR75, Borderline1991, Buregon, Jurmagund, marilin, Olethros, Raw1488, romanmetalloman, sarcophagus, xska, yuratroll, zuiozuio,
Jul 11 2018, 14:12:38 Deafheaven - Ordinary Corrupt Human Love (2018)
QUOTE(Daale @ Jul 11 2018, 15:46:31) *
Bathory88, It's still black metal. I've listened to him five times already, because I need to write a review on Friday. Yes, with each release they move more and more to the post-metal. But now it's still black-related stuff.

Well the beginning track sounds like something elton john would write. and the rest of the album has a dinosaur jr/appleseed cast vibe. i dont hear much black metal (or even metal) other than in the vocals
(2) Ghostb, Swastika,
Jul 11 2018, 13:13:32 Deafheaven - Ordinary Corrupt Human Love (2018)
QUOTE(Daale @ Jul 11 2018, 10:40:13) *
babanguida, Here we go again. Yes it's Post bm. Yes, it's not Ved Buens Ende and others related project from this wing of Post bm acts. This kind of genre is peculiar to change and acquire characteristics that were not previously used.

Black Metal tag here in principle, it is fair. For here the form is fully embodied. The content is ideological, etc. - these are completely different things.


While their previous albums "were" post-black this release is not black metal (besides the vocals). This is more in line with post-metal/hardcore & shoegaze bands like hopesfall or suis la lune

[youtube]T171umBFcPQ[/youtube]
[youtube]lEzcHv7nsww[/youtube]
(3) artscald, babanguida, biroutios,
Jul 5 2018, 23:54:56 Deafheaven - Ordinary Corrupt Human Love (2018)


*Artist: Deafheaven
*Album: Ordinary Corrupt Human Love
*Year: 2018
*Genre: Post-Metal/Alternative Rock
*Country: United States
*Format: mp3@CBR128kbps
*Size: 55MB

Tracklist:
1. You Without End 07:36
2. Honeycomb 11:04
3. Canary Yellow 12:17
4. Near 05:28
5. Glint 10:57
6. Night People 04:07
7. Worthless Animal 10:07
******************************
Total playing time: 1:01:36



[more=Technical info]
Input File: Near.MP3
Channels : 2
Sample Rate : 44100
Precision : 16-bit
Duration : 00:05:29.20 = 14517500 samples = 24689.6 CDDA sectors
File Size : 5.26M
Bit Rate : 128k
Sample Encoding: MPEG audio (layer I, II or III)
Comments :
Artist=Deafheaven
Album=Ordinary Corrupt Human Love
Tracknumber=4
Year=2018
Genre=Post-Black Metal

[/more]

Register
(8) 666BlackDeath, doom, Groundzerocorpse1990, infiltrator, marilin, Ostinato, Rosen, sksxxx,
Mar 31 2018, 09:13:19 Infest - Mankind [ep] (1991)


*Artist: Infest
*Album: Mankind [ep]
*Year: 1991
*Genre: Powerviolence/Grindcore
*Country: United States
*Format: mp3@CBR320kbps
*Size: 24MB

Tracklist:
1. Mankind
2. Judge Me
3. Speak Easy
4. Once Lost
5. Excess Pig
6. Them
7. Nothing's Changed
8. Shackled Down
9. Just Act Blind
10. Kill The Peace
11. Three Or Nothing
12. This World Is Dead
13. Nothing Left Inside
14. Big Mouth
******************************
Total playing time: 11:13

[more=Technical info]
Input File: 01-Mankind.mp3
Channels : 2
Sample Rate : 44100
Precision : 16-bit
Duration : 00:00:37.36 = 1647488 samples = 2801.85 CDDA sectors
File Size : 1.51M
Bit Rate : 323k
Sample Encoding: MPEG audio (layer I, II or III)
Comments :
Title=Mankind
Artist=INFEST
Album=Mankind EP
Tracknumber=1
Year=1991
Genre=Grindcore

[/more]

Register
(1) Zhelezjaka,
Nov 24 2017, 09:02:06 Infernal War - Promo 2000 [demo] (2000)
QUOTE(cancer1974 @ Apr 8 2017, 22:47:46) *
Please re-up!

Register
(9) artscald, cancer1974, kim666, marilin, Pinhead666, satanist666, Stutthof, Svafrlami, thenecromancer,
Nov 8 2017, 07:47:20 Weekend Nachos - Still (2013)


*Artist: Weekend Nachos
*Album: Still
*Year: 2013
*Genre: Grindcore/Powerviolence/Sludge/Crust
*Country: United States
*Format: mp3@CBR320kbps
*Size: 48MB

Tracklist:
1. Sickened No More 00:44
2. No Idols and No Heroes 01:41
3. S.C.A.B. 01:35
4. Satan Sucker 01:32
5. Late Night Walks 01:00
6. Watch You Suffer 03:25
7. Wolves 01:42
8. You're Not Punk 00:57
9. Ignore 01:35
10. Yes Way 01:47
11. Broken Mirror 01:41
12. Still 03:51
******************************
Total playing time: 21:30



[more=Technical info]
Input File: 01 Sickened No More.mp3
Channels : 2
Sample Rate : 44100
Precision : 16-bit
Duration : 00:00:43.52 = 1919188 samples = 3263.93 CDDA sectors
File Size : 2.00M
Bit Rate : 368k
Sample Encoding: MPEG audio (layer I, II or III)
Comments :
Title=Sickened No More
Artist=Weekend Nachos
Album=Still
Tracknumber=1/12
Year=2013
Genre=Hardcore
Discnumber=1/1

[/more]

Register
(5) Buregon, DMIYUR, marilin, Rosen, varlam4,
Oct 9 2017, 10:26:13 Advent Sorrow - Pestilence Shall Come [single] (2017)


*Artist: Advent Sorrow
*Album: Pestilence Shall Come [single]
*Year: 2017
*Genre: Black Metal/Post-Metal/Hardcore
*Country: Australia
*Format: mp3@CBR320kbps
*Size: 13MB

Tracklist:
1. Pestilence Shall Come 05:53
******************************
Total playing time: 5:53

[more=Technical info]
Input File: Advent Sorrow - Pestilence Shall Come.mp3
Channels : 2
Sample Rate : 44100
Precision : 16-bit
Duration : 00:05:53.31 = 15581103 samples = 26498.5 CDDA sectors
File Size : 14.2M
Bit Rate : 321k
Sample Encoding: MPEG audio (layer I, II or III)
Comments :
Title=Pestilence Shall Come
Artist=Advent Sorrow
Album=Pestilence Shall Come
Year=2017
Genre=Post-Black Metal

[/more]

Register
(8) 1968_janeart, Demonologist, Femto, General, Reverend, Rosen, satanist666, varlam4,
Aug 28 2017, 08:38:44 We Came Out Like Tigers - Agelessness And Lack (2012)


*Artist: We Came Out Like Tigers
*Album: Agelessness And Lack
*Year: 2012
*Genre: Black Metal/Screamo
*Country: United Kingdom
*Format: mp3@CBR320kbps
*Size: 91MB

Tracklist:
1. An Introduction 01:02
2. Sous les pavés la plage 04:12
3. Remember Why You Are 05:18
4. These Terrors Are Dismantled by Friendship's Light 05:25
5. Inimical 05:51
6. Endure 03:02
7. Immutable 01:54
8. Take Pleasure in the Processes 01:53
9. If You Were Frightened, It's Because It Was Frightening 06:27
10. I Sing of Sorrow & Joy 05:05
******************************
Total playing time: 40:09

[more=Technical info]
Input File: 01 - An Introduction.mp3
Channels : 2
Sample Rate : 44100
Precision : 16-bit
Duration : 00:01:03.04 = 2780020 samples = 4727.93 CDDA sectors
File Size : 2.53M
Bit Rate : 321k
Sample Encoding: MPEG audio (layer I, II or III)
Comments :
Title=An Introduction
Artist=We Came Out Like Tigers
Album=Agelessness And Lack
Tracknumber=1/10
Year=2012
Genre=Post-Black Metal

[/more]

Register
(6) Buregon, krotovich, RENыч, Rosen, satanist666, stub888,
Aug 28 2017, 08:33:46 Coral Cross - 001 [ep] (2017)


*Artist: Coral Cross
*Album: 001 [ep]
*Year: 2017
*Genre: Psychedelic Black Metal
*Country: United States
*Format: mp3@CBR320kbps
*Size: 19MB

Tracklist:
1. The Coldest Steel Across Your Face Slides 04:59
2. With A Lancet 04:05
******************************
Total playing time: 9:04

[more=Technical info]
Input File: 02 With A Lancet.mp3
Channels : 2
Sample Rate : 48000
Precision : 16-bit
Duration : 00:04:05.23 = 11771136 samples ~ 18392.4 CDDA sectors
File Size : 9.86M
Bit Rate : 322k
Sample Encoding: MPEG audio (layer I, II or III)
Comments :
Title=With A Lancet
Artist=Coral Cross
Album=001
Tracknumber=2
Year=2017
Genre=Post-Black Metal

[/more]

Register
(2) satanist666, stub888,
Sep 4 2016, 05:38:37 Woolworm - Vampirism [ep] (2016)


*Artist: Woolworm
*Album: Vampirism [ep]
*Year: 2016
*Genre: Post-Black Metal
*Country: Canada
*Format: mp3@CBR128kbps
*Size: 9MB

Tracklist:
1. World is Too White 04:25
2. Anguish 05:28
******************************
Total playing time: 9:53

Register
(9) 0x13, 1968_janeart, maringlen, Razorbladeswaltz, Rosen, satanist666, tont, varg-38ru, vasiljev_sergej,
May 11 2016, 10:42:04 Baalberith - At The Gates Of Hell [demo] (2000)
Register
(4) artscald, Borderline1991, ddarkthrone, Satanon666,
Jun 2 2014, 04:02:34 Burzum - The Ways Of Yore (2014)
This is huh... wow
(7) Borderline1991, foma, GAS, infiltrator, Leolomb, Rotten Goat, vosmidesijatye,
May 12 2014, 00:35:58 Ives & Amort - Ives/Amort [split] (2011)


*Artist: Ives & Amort
*Album: Ives/Amort [split]
*Year: 2011
*Genre: Black Metal/Crust/Sludge | Funeral Doom Metal
*Country: United States | United States
*Format: mp3@CBR128kbps
*Size: 24MB

Tracklist:
Ives:
1. Intro (Consume) 1:35
2. A Tangue of Hair And Bone 1:33
3. Feral 1:33
4. Sweet Fields Of Ecstacy 2:22
5. Regression 2:04
6. Outro (Death Within Primal Grain) 4:39
Amort:
7. In Bed With Decay 14:01
******************************
Total playing time: 27:47

Register
(9) LordHaart, marilin, maringlen, Necroalex, Rosen, VALERY, vasiljev_sergej, wreak, Герб,
May 11 2014, 23:43:03 Grand Belial's Key - Live Manassas, Virginia, USA 01-11-94 [bootleg] (1994)
01 In Rapture by the Fenrir Moon
02 Shemhamforash
03 When Darkness Rears Itself a Throne
04 Goat Of A Thousand Young
(1) NachtWulf,
Jan 15 2014, 02:20:38 Cortege Funebre & Into Dagorlad - Split [split] (2006)
Register

Register
(3) ddarkthrone, rom666, RUSP73,
Nov 20 2013, 00:02:01 Cryptorsatan - Mortuus Nebula Submersus [demo] (2013)
True Norwegian Black Metal From Albania metaler.gif
(1) maringlen,
Jul 31 2013, 08:14:02 The Beast - Power Metal [ep] (1983)


*Artist: The Beast
*Album: Power Metal [ep]
*Year: 1983
*Genre: Heavy Metal/Punk Rock
*Country: United States
*Format: mp3@CBR160kbps
*Size: 14MB

Tracklist:
1. The Beast 03:15
2. Radical Man 02:05
3. Enemy Ace 03:28
4. The Shape 03:02
******************************
Total playing time: 11:50

Register
(7) marilin, MEmethuselah, rockwell666, varlam4, WARHEAD, wreak, Xutun,
May 8 2013, 00:27:53 Cryptorsatan - Casthelnormandia Djallezoor [demo] (2013)
Sorry, anything higher than 64kbps is too digital for me fear.gif
(1) Госпромнадзор,
Dec 7 2012, 05:54:45 Willow Wisp - The Building Up And Breaking Down Of Matter (1997)
Register
(1) dermarsoran,
Sep 26 2012, 23:34:19 Bullet For My Valentine - Cover & Acoustic [bootleg] (2012)
I thought this site was call METALarea smile2.gif
(1) kurtol,
Jul 15 2012, 05:59:35 Catherine La Voisin - Of Monstrosity [demo] (2002)
Register
(9) addadd, kim666, lawronchik, lestllk, Oath19, obituarydark, rom666, thenecromancer, varlam4,

4 Pages V   1 2 3 > » 
- Lo-Fi Version Support form
Copyrights and abuse reports form
Time is now: 19th September 2020 - 01:20:48