Welcome Guest ( Log In | Register )

История благодарностей участнику matteo ::: Спасибо сказали: 57 раз(а)
Дата поста: В теме: За сообщение: Спасибо сказали:
Jul 18 2014, 11:10:48 Primitive Man & Hexis - Primitive Man/Hexis [split] (2014)


*Artist: Primitive Man & Hexis
*Album: Primitive Man/Hexis [split]
*Year: 2014
*Genre: Sludge/Doom Metal | Black Metal/Hardcore
*Country: United States | Denmark
*Format: mp3@CBR320kbps
*Size: 39MB

Tracklist:
Primitive Man:
1. When Getting High Is Not Enough 07:51
Hexis:
2. Excrucio 08:20
******************************
Total playing time: 16:11



[more=Extended info]HALO72[/more]

[more=Technical info]
Input File: Primitive Man - Hexis - Split 10- - 01 Primitive Man - When Getting High Is Not Enough.mp3.png

[/more]

Register
(18) 666BlackDeath, artscald, Boozer, denver, dermarsoran, Hell_Is_Here, Koscheyushka, marilin, qpMM, randumbum, Rosen, shitsic, sorgnatt, svartrest, varlam4, vasiljev_sergej, Velmi, wreak,
Jul 13 2014, 13:16:37 Gonguri - 2014 EP [ep] (2014)


*Artist: Gonguri
*Album: 2014 EP [ep]
*Year: 2014
*Genre: Sludge/Death Metal
*Country: South Korea
*Format: mp3@CBR320kbps
*Size: 53MB

Tracklist:
1. Dead Gook Storage 03:53
2. Yeonbyeon Kangpae 03:48
3. Unwanted Man 05:41
4. World of Shit 09:22
******************************
Total playing time: 22:44




[more=Technical info]
Input File: spectrum.png
Channels : 2
Sample Rate : 8000
Precision : 16-bit
Duration : 00:00:01.23 = 9848 samples ~ 92.325 CDDA sectors
File Size : 720k
Bit Rate : 4.68M
Sample Encoding: MPEG audio (layer I, II or III)

[/more]

Register
(7) denver, morbidangelo, randumbum, Rosen, VALERY, vov7609, wreak,
Jul 9 2014, 14:17:45 Absintdebellum - Demo MMXIII [demo] (2013)


*Artist: Absintdebellum
*Album: Demo MMXIII [demo]
*Year: 2013
*Genre: Raw Black Metal
*Country: United States
*Format: mp3@CBR128kbps
*Size: 9MB

Tracklist:
1. Exterminati Obliteratio Omnium 02:47
2. PzKpfw VI Ausf. E 02:53
3. LXXXVIII MM Contra Mundus 03:08
4. Orbis Terrae Dimissionem 00:42
******************************
Total playing time: 9:30



[more=Extended info]Bandcamp Rip[/more]

Register
(10) Carcharoth, goregrindexx, marilin, neoatheist, rom666, Rosen, SIAVASH, spiritualdecay666, tont, vasiljev_sergej,
Jun 20 2014, 18:01:04 Molehill - Untitled [ep] (2003)


*Artist: Molehill
*Album: Untitled [ep]
*Year: 2003
*Genre: Sludge
*Country: United States
*Format: mp3@CBR320kbps
*Size: 58MB

Tracklist:
1. The Guilt Narcotic
2. Tenth
3. Broken Down In The Year Of The Dog
4. My Black Jesus
5. A Somewhat Considerable Burden
******************************
Total playing time: 25:36



[more=Extended info]Eyehategod-style Sludge, nothing original but nice.
also, my first release. :D[/more]

[more=Technical info]
Input File: fullwindow000.jpg

[/more]

Register
(7) maochen, marilin, nitzebb, Rosen, spiritualdecay666, VALERY, wreak,
Jun 20 2014, 17:22:17 Molehill - Comfort Measured In Razor Lines (2000)
QUOTE(abob @ Jan 11 2014, 13:33:10) *
У кого-нибудь есть другие релизы этой группы?


alkash.gif
(1) abob,
Sep 17 2013, 19:54:53 Umbra Noctis - Gort
i'm searching for this rare split, but nothing.
someone could upload? true_black.gif
http://www.metal-archives.com/albums/Umbra...s_-_Gort/265175

thanks.
(1) morbidangelo,
Sep 4 2013, 16:37:18 Various Artists - Fuck Money, Fuck Life (2006)
good stuff. final track is the best, but i don't know how to get information about "Unknown Artist", cause his name. someone can help me? thanks.

кто-то может помогите мне знать информация o "Unknow Artist" и о других его работ?
Спасибо!
(1) Tha,
Aug 14 2013, 15:21:04 The Horn - Volume Twelve [ep] (2013)
Pure cult pray.gif
(1) добрыйКот,
Jun 2 2013, 08:58:36 O - Il Vuoto Perfetto (2012)
headcrab.png
(2) BioMax, maringlen,
Jan 6 2013, 13:36:55 O - Il Vuoto Perfetto (2012)


*Artist: O
*Album: Il Vuoto Perfetto
*Year: 2012
*Genre: Black Metal/Post-Hardcore
*Country: Italy
*Format: mp3@CBR128kbps
*Size: 28MB

Tracklist:
1. Apnea
2. .
3. Addio Alla Luce
4. Non È Vivo
5. Di Vita E Altri Veleni
6. Contemplando
7. Creatori Nascosti
8. Il Grande Freddo
9. L'Inizio
******************************
Total playing time: 30:27



[more=Extended info]Bandcamp rip[/more]

Register
(6) 0x13, Indamage, marilin, respect, tont, varlam4,
Feb 26 2011, 15:17:27 VARG WOLFZKULT
the i post it here (i can?) good listening smile3.gif http://www.mediafire.com/?xa7itsv43sjbkmm
(1) MetalAlex,

- Lo-Fi Version Support form
Copyrights and abuse reports form
Time is now: 5th July 2022 - 07:16:37