Welcome Guest ( Log In | Register )

История благодарностей участнику curwen ::: Спасибо сказали: 68 раз(а)
Дата поста: В теме: За сообщение: Спасибо сказали:
Oct 11 2021, 08:42:41 Hellige - Camino De Agua (2021)
QUOTE(cryptal @ Oct 11 2021, 05:33:09) *
Почему этот альбом не в лоу с его 128 kbps, непонятно

Dunno what went wrong when exporting it. Here's a 320kbps link, converted from lossless with xrecode4:

https://www.mediafire.com/file/2n06o0prhgs4...Camino+de+agua_[metalarea.org]_by_curwen.zip/file
(4) doomTemplar, johnchi666, metaljosue, sergsazan,
Oct 10 2021, 08:34:21 Hellige - Camino De Agua (2021)


*Artist: Hellige
*Album: Camino De Agua
*Year: 2021
*Genre: Black/Doom Metal
*Country: Argentina
*Format: mp3@CBR320kbps
*Size: 37MB

Tracklist:
1. Las urnas basálticas
2. Interludio
3. Plata
4. Hueste
5. Vestigio
******************************
Total playing time: 30:50



[more=Extended info]In appreciation for the support metalarea gave us with our early demos, here's our very first LP in mp3 format.

If you'd like to continue supporting us, please consider getting it on our bandcamp, where along the high-quality audio files, you'll receive the full booklet in PDF format. <br /[/more]

[more=Technical info]
Input File: 02 Interludio.mp3
Channels : 2
Sample Rate : 44100
Precision : 16-bit
Duration : 00:01:38.04 = 4323432 samples = 7352.78 CDDA sectors
File Size : 2.47M
Bit Rate : 202k
Sample Encoding: MPEG audio (layer I, II or III)
Comments :
Title=Interludio
Artist=Hellige
Album=Camino de agua
Tracknumber=2/5
Year=2021
Genre=Black/Doom Metal

[/more]

Register
(10) artscald, caro, doomTemplar, julianotidre, lordsloth, metala, Olethros, Sabbathian, sergsazan, Taakeferd,
Jun 28 2017, 15:50:37 Dispatched - Rarities (2000 - 2002) [bootleg] (2002)


*Artist: Dispatched
*Album: Rarities (2000 - 2002) [bootleg]
*Year: 2002
*Genre: Black/Death Metal
*Country: Sweden
*Format: mp3@CBR128kbps
*Size: 39MB

Tracklist:
01 Motherwar (Techno Remix) 3:29
02 Cyber (Techno Remix) 6:30
03 Under The Ice (Home Demo) 12:08
04 Cyber Overture 3:21
05 Cyber (Home Demo) 3:44
06 Flicka Med Guld (Thåström Cover) 5:44
07 Tarzan 4:46
08 The Last Song 3:36
******************************
Total playing time: 43:18

[more=Extended info]Compilation of unreleased songs from the later era of Dispatched[/more]

Register
(4) ivreactor, rom666, varlam4, Xaradonth,
Jun 28 2017, 05:20:57 Dispatched - Promo 2 [demo] (1993)


*Artist: Dispatched
*Album: Promo 2 [demo]
*Year: 1993
*Genre: Black/Death Metal
*Country: Sweden
*Format: mp3@CBR128kbps
*Size: 19MB

Tracklist:
01. Blackshadows 7:28
02. Darkness 7:11
03. Act of Resurrection 4:48
04. The End 1:18
******************************
Total playing time: 20:45

[more=Extended info]These are all earlier –and different– versions of the songs found on the later full-length of the same name.[/more]

Register
(8) dermarsoran, enslaver, Evilded, infiltrator, rom666, Rosen, varlam4, Xaradonth,
Jun 28 2017, 03:20:24 Dispatched - Terrorizer [demo] (2001)


*Artist: Dispatched
*Album: Terrorizer [demo]
*Year: 2001
*Genre: Black/Death Metal
*Country: Sweden
*Format: mp3@CBR128kbps
*Size: 38MB

Tracklist:
1. Waste Some Steel 03:38
2. Beneath the World of Chaos 05:04
3. Override 01:58
4. Terrorizer Overture 01:07
5. Terrorizer (Alien 1) 05:42
6. Rebellion (Alien 2) 05:18
7. Wicked Dreams (Alien 3) 04:35
8. Cyber 05:52
9. Under the Ice 08:50
******************************
Total playing time: 42:04

[more=Extended info]These are all earlier –and different– versions of the songs found on the later full-lenght of the same name.[/more]

Register
(9) dermarsoran, Evilded, infiltrator, ivreactor, marilin, rom666, Rosen, varlam4, Xaradonth,
Jun 28 2017, 02:40:16 Wolfdusk - Doom Eternal [ep] (2008)


*Artist: Wolfdusk
*Album: Doom Eternal [ep]
*Year: 2008
*Genre: Black Metal
*Country: Argentina
*Format: wma@229kbps
*Size: 25MB

Tracklist:
1.The Throne of the Ancient Ones 02:52
2.Yog Sothoth 02:45
3.Lugnasadh 03:11
4.Beyond the Southern Forest 03:20
5.Baptized My Apocalypse 02:48
******************************
Total playing time: 14:56

Register
(5) infiltrator, kim666, Raw1488, varlam4, vasiljev_sergej,
Jun 28 2017, 02:37:57 Pale Existence - Demo [demo] (1994)


*Artist: Pale Existence
*Album: Demo [demo]
*Year: 1994
*Genre: Death/Doom Metal
*Country: United States
*Format: mp3@CBR320kbps
*Size: 48MB

Tracklist:
1.Dismal Paths 05:08
2.Dark Tranquility 05:43
3.Sickness 00:49
4.Impure 03:13
5.Subconscious Weeping 04:26
6.Visions of the Disconsolate 00:58
******************************
Total playing time: 20:17

[more=Extended info]FLAC can be bought straight from the band's bassist bandcamp for 1USD here:
[/more]

[more=Technical info]
Input File: 03 Sickness.mp3
Channels : 2
Sample Rate : 44100
Precision : 16-bit
Duration : 00:00:49.59 = 2186831 samples = 3719.1 CDDA sectors
File Size : 2.08M
Bit Rate : 336k
Sample Encoding: MPEG audio (layer I, II or III)
Comments :
Title=Sickness
Artist=Pale Existence
Album=1st Demo (1994 cassette)
Tracknumber=3
Year=2017
Genre=Death/Doom Metal

[/more]

Register
(10) Doooomed, enslaver, Evilded, idrisnewacc, infiltrator, Proteus_666, quarantine, Rosen, Sphinx7, vyacheslav,
Jun 28 2017, 02:35:24 Pale Existence - Hymns Of Grief [demo] (1995)


*Artist: Pale Existence
*Album: Hymns Of Grief [demo]
*Year: 1995
*Genre: Death/Doom Metal
*Country: United States
*Format: mp3@CBR320kbps
*Size: 58MB

Tracklist:
1.A Distant Forest 03:25
2.Lost Title 05:00
3.Shadows of Obscurity 05:18
4.Hyms of Grief 03:40
5.Black Metal Song 01:50
6.Eviscerated 06:26
******************************
Total playing time: 25:39

[more=Extended info]FLAC can be bought straight from the band's bassist bandcamp for 1USD here:
[/more]

[more=Technical info]
Input File: 05 Black Metal Song.mp3
Channels : 2
Sample Rate : 48000
Precision : 16-bit
Duration : 00:01:50.11 = 5285520 samples ~ 8258.62 CDDA sectors
File Size : 4.45M
Bit Rate : 323k
Sample Encoding: MPEG audio (layer I, II or III)
Comments :
Title=Black Metal Song
Artist=Pale Existence
Album=Hyms of Grief (1995)
Tracknumber=5
Year=2016
Genre=Death/Doom Metal

[/more]

Register
(11) AndreFrancis, enslaver, Evilded, idrisnewacc, infiltrator, Proteus_666, quarantine, Rosen, RunningWild_AT, VALERY, vyacheslav,
Feb 10 2012, 22:55:46 Hellige - Demo (2012)
Hi there, sorry for not answering in Russian, I understand enough to barely read it, but I'll look like a caveman if I try to write in it, so better stick to a language I know.
I'm Hellige's singer, just wanted to thank you guys for the support and the mini-review, also wanted to point out that the actual cover of the demo is another one, the one you have there is from an older upload of a raw mix to The Rotten Waste.
You can download the demo on pretty much every audio quality (for free of course) with the new cover and now added lyrics in our bandcamp if you want.
The link is
And again, thanks for your support people, glad to read some of you liked our demo!
(7) aesteticvice, Fenrirsson, iriktaru, Konst, p42es, Shamin, некрософ,

- Lo-Fi Version Support form
Copyrights and abuse reports form
Time is now: 4th February 2023 - 16:42:36