Welcome Guest ( Log In | Register )

Объявления

* gmail.com упорно продолжает считать почту с нас "unsolicited" и отбивает в том числе и письма активации, поэтому просьба использовать альтернативные почтовые ящики.
------------
* gmail.com continues reject all mail from us as "unsolicited" (activation mails too) therefore please use alternate mail servers.
История благодарностей участнику AjiDahak ::: Спасибо сказали: 388 раз(а)
Дата поста: В теме: За сообщение: Спасибо сказали:
Sep 3 2013, 17:57:40 Satyricon - Satyricon (2013)
до конца не осилил. не понимаю когда гребут в одну кучу Rebel Extravaganza и крайние альбомы. RE и Volcano по сравнению с этим альбомом - просто торнадо, сносящее все на своем пути
(1) ripper33,
Aug 11 2013, 11:36:43 Mayhem - De Mysteriis Dom Sathanas (1994)
блин, какие квадраты и примитив? послушайте одну только From the Dark Past
(1) vosmidesijatye,
Aug 11 2013, 11:35:22 Mayhem - De Mysteriis Dom Sathanas (1994)
этот альбом довольно навороченный с кучей "модных" фишек, видимо Снорре Рух руку приложил.
учитывая семимильные шаги в прогрессе от альбома к альбому (сравните Deathcrush и DMDS) думаю и при Евронимусе группа бы пришла к Grand Declaration Of War
(1) vosmidesijatye,
Mar 28 2013, 23:18:35 Black Funeral - Moon Of Characith (1998)
да, альбом всецело пропитан вампиризмом и кровью, полностью соответствует своему названию "Луна Харасита". Харасит - страж 18-го пути на древе клипот, здесь обитают вампирские сущности и кормятся колдуны и ведьмы элексиром вечной вампирской жизни, который подает им Лилит прямо из своего влагалища
(2) Goatrex, vosmidesijatye,
Mar 1 2013, 14:16:44 Zero Kama - Live In Arnhem & The Goatherd And The Beast [compilation] (2008)
отличное переиздание! живая часть вычищена от лишней грязи и теперь воспринимается мною не как бутлег (коим он был), а как полноценный живой альбом. атмосфера жизни из смерти, культ Зос Киа!
(1) 34front,
Dec 22 2012, 12:23:18 Virus - Oblivion Clock [best of/compilation] (2012)


*Artist: Virus
*Album: Oblivion Clock [best of/compilation]
*Year: 2012
*Genre: Avant-garde Rock/Metal
*Country: Norway
*Format: mp3@CBR320kbps
*Size: 74MB

Tracklist:
01. Oblivion Clock 05:47
02. The Pull of the Crater 05:16
03. Inverted Escape 04:04
04. Saturday Night Virus 04:17
05. Seen in the Sediments 05:42
06. Shutout 03:11
07. Gaslight Exit 03:13
******************************
Total playing time: 31:30



[more=Extended info]Label blurb: "EP comprising four exclusive tracks that were recorded at various locations and times and were completed just recently. The CD also includes the much sought after "die hard" 7" tracks that came with only 250 copies of the Agent...LP + an obscure track from the Carheart sessions in a hitherto unreleased version. Playing time apx. 32 minutes. Packaged in a lavish, 6-panel digifile designed by Einz."

The working title of 'Oblivion Clock' was 'Flux the Fluent'. Partially recorded during the VBE 2006 sessions.

Other tracks recorded, but not released on this or other Virus releases:
- 'Saturday Night Virus' (one version with Czral on vocals, the other featuring Garm - one of these included on Oblivion Clock)
- 'As Virulent As You' with a different opening
- 'Strange Calm' with a different first riff (also recorded by Calle alone in a different version in 2005)
- 'Lost Peacocks' (recorded late 2006 for a 7" that was scrapped)
- 'Liquid Silence' (new version of 'Sex and Violence', for the same scrapped 7"; parts were later incorporated into the track 'The Agent That Shapes the Desert')


Input File: 01. Oblivion Clock - Virus.mp3
Channels : 2
Sample Rate : 44100
Precision : 16-bit
Duration : 00:05:47.78 = 15336966 samples = 26083.3 CDDA sectors
File Size : 14.3M
Bit Rate : 328k
Sample Encoding: MPEG audio (layer I, II or III)
Comments :
Title=Oblivion Clock
Artist=Virus
Album=Oblivion Clock [EP]
Tracknumber=1
Year=2012
Genre=Avantgarde Metal

[/more]

Register
(41) 34front, aesteticvice, alzus, Aresson, as71, avantgardx, Baudolino, cancer1974, CryptOn, Dianus, DOKTORBLACK88, doomTemplar, Emhyr var Emreis, ENDSMOUTH, Frust, garml2, garretje, hammer, Hell_Is_Here, kefka, Koscheyushka, marilin, MeatKnife, Metalass, Mplast, nitzebb, paganheart, princeshr, rammmirez, spiritualdecay666, StoneTemple, svndvst, SyncestrA, Tino, Torlof, Typhon88, VALERY, varlam4, VerminGhost, xska, zerger,
Oct 16 2012, 19:10:39 Новости Black-направления
ЦИТАТА

Dark Adversary Productions

10/10/12 - Both Circle of Ouroborus and Black Funeral CDs are available now for pre-order and the release section of the site has been updated!!


Black Funeral "Choronzon Blood Rite"
MCD limited to 500 copies

01. Choronzon Blood Rite
02. The Stooping Dragon of Chaos
03. Moongarm, Thirsting for Lifeblood
04. Winds of Zarnesti
05. Ripping through the Aura

[youtube]3J-FIkCPnP4&feature=relmfu[/youtube]
(6) 34front, abomination2, acerbus, Eichmann, luxxul, sethurius,
Oct 10 2012, 21:44:50 Black Funeral - Waters Of Weeping (2007)
ЦИТАТА(Kazoth @ Oct 9 2012, 21:02:30) *
Waters Of Weeping, как сдесь уже сказали, это не совсем Black Funeral...


забыл добавить, я с этим не соглашусь smile1.gif
несмотря на то что музыку написал чувак из Vrolok, она насквозь пропитана темной атмосферой Black Funeral. думаю что за общей идеей и концепцией все таки стоял Майкл Форд и он здесь "делал погоду"
(1) Eichmann,
Oct 9 2012, 18:19:44 Black Funeral - Waters Of Weeping (2007)
ЦИТАТА(Kazoth @ Oct 8 2012, 22:53:23) *
от Барона Абадона кроме синтезаторных гитарок, больше ожидать нечего...))


зато атмосфера на этих "фрутилупсовых" альбомах такая, что далеко не каждая "живая" группа способна сотворить нечто подобное

(3) 34front, Kazoth, vosmidesijatye,
Sep 22 2012, 19:18:03 Aeshma - Zend-I Ahriman Yasht (2012)
ЦИТАТА(Mnbvcz @ Sep 22 2012, 19:26:30) *
Можно продублировать на народ?


narod
(1) Hell_Is_Here,
Sep 17 2012, 20:00:19 Aeshma - Zend-I Ahriman Yasht (2012)


*Artist: Aeshma
*Album: Zend-I Ahriman Yasht
*Year: 2012
*Genre: Industrial/Experimental
*Country: Ukraine
*Format: mp3@CBR320kbps
*Size: 66MB

Tracklist:
01. Religion Of Lies 03:42
02. Yatukih Ecstasy 04:03
03. Atavistic Call 03:07
04. Do-Mar & Deh-Ak 03:27
05. Spirit Eats Spirit 04:16
06. AZ-Energy 02:27
07. Bone Divider 03:53
08. Urdung 05:30
******************************
Total playing time: 30:25

[more=Extended info]


Input File: 06-AZ-Energy.mp3
Channels : 2
Sample Rate : 44100
Precision : 16-bit
Duration : 00:02:27.23 = 6492799 samples = 11042.2 CDDA sectors
File Size : 5.89M
Bit Rate : 320k
Sample Encoding: MPEG audio (layer I, II or III)
Comments :
Title=AZ-Energy
Artist=Aeshma
Album=Zend-I Ahriman Yasht
Tracknumber=6
Year=2012
Genre=Industrial/Experimental

[/more]

Register
(3) 34front, luxxul, Velkaarn,
Aug 29 2012, 22:02:41 Forsth - Helvetic War (1997)
тоже вокал сразу зацепил, ну и оргАн.
(1) Kazoth,
Jun 26 2012, 06:48:33 Deathspell Omega - Drought [ep] (2012)
не нравится, совсем ничего не остается в памяти, скучная каша.
хочется возвращения к Si Monumentum.
Apr 30 2012, 13:22:51 Arashk - Yell (2008)
Arashk - это персидский демон злого глаза (сглаза).
(1) Persian Gorgrinder,
Apr 21 2012, 17:48:02 Mayhem - Chimera (2004)
ЦИТАТА(DarkHorde @ Apr 21 2012, 14:18:34) *
Значит у всех Black, а у тебя Death?! 1488.gif


у него и аранжировку можно изменить с помощью эквалайзера 1488.gif
(2) DarkHorde, Dr.Grind Oim,
Apr 19 2012, 06:48:10 Xasthur - A Gate Through Bloodstained Mirrors [demo] (2001)
ЦИТАТА(VVurd @ Sep 12 2011, 22:37:07) *
"Moon Shrouded In Misery (Part I)" мне сегодня капитально захавала мозг. Не могу перестать её слушать crazy.gif


перебор этот вообще выносит мозг headcrab.png
(1) vosmidesijatye,
Mar 7 2012, 10:30:21 Aura Noir - Out To Die (2012)
альбом отличный, поинтересней чем предидущий, возвращение Бласфимера явно пошло на пользу. metaler.gif
(4) infiltrator, Metalass, Shamin, vosmidesijatye,
Mar 4 2012, 16:33:01 Demoncy - Enthroned Is The Night (2012)
ЦИТАТА(toly1917 @ Mar 4 2012, 16:13:57) *
такое лет 10 назад делали


в том и суть, что сейчас такое не делают, кроме редких исключений вроде сабжа 23.gif
(3) Chasm, deadland, uroboros,
Mar 3 2012, 15:57:39 Demoncy - Enthroned Is The Night (2012)
ЦИТАТА(rimfrost @ Mar 3 2012, 18:29:41) *
Бомба релиз !! Один из лучших которые послушал в этом году ! true_black.gif


для меня пока самый лучший. осталось дождатся Мистикум.
(2) deadland, RADeus,
Mar 2 2012, 17:41:10 Demoncy - Enthroned Is The Night (2012)
с первых секунд становится понятно - это Demoncy! эта музыка по прежнему несет безбожие и мрак вне зависимости от времени. вокал, как когда-то кто-то заметил на МА как у одержимой девочки из "Изгоняющего Дьявола". Музыка поистине зловещая. 25.gif

(7) 1984, Chasm, Eichmann, Evilded, infiltrator, sacrut, waldemardr,
Feb 23 2012, 07:17:41 Sektemtum - Aut Caesar, Aut Nihil (2012)
ЦИТАТА(vosmidesijatye @ Feb 23 2012, 08:39:05) *
Вилька возродил проект и в 2000-х вышли гримли, раттенкёнтинг и галактики, последяя 5 лет назад всего. look.gif и особых отличий кроме замедлений и чуть большей эпичности местами не подмечено. Особого какого-то развития или интересности со времен 90-х не замечено. все то же о том же.


теже Rattenkonig и Vampires... совершенно разные, даже вокал совсем другой как и манера вокалирования. Rattenkonig вообще мой любимый альбом М. болезненная утопическо-наркоманская фантасмагория.
Feb 22 2012, 11:37:31 The Cosmic Dead - Psychonaut (2011)


*Artist: The Cosmic Dead
*Album: Psychonaut
*Year: 2011
*Genre: Psychedelic Stoner/Space/Krautrock
*Country: United Kingdom
*Format: mp3@CBR320kbps
*Size: 199MB

Tracklist:
1. Lavinia (Mother ov Mystery) 10:12
2. The Spaceman 08:38
3. Eyes in The Mountains 06:19
4. Inner Circle 05:13
5. Adimite Obscuritatem 03:07
6. Serpent Coils The Earth 09:36
7. Astral Curvature 07:02
8. Psych Ashtray Aktion Mother 17:56
9. Fool & The Five of Swords 08:01
10. Psych Ashtray Aktion Mother II 11:25
******************************
Total playing time: 1:27:29



Register
(10) BATON-duBASSic, Cruor, Emhyr var Emreis, Eug En, qpMM, svndvst, Sylvi, Vertigo, xska, Игнат,
Feb 17 2012, 20:34:24 Black Depths Grey Waves - Nightmare Of The Blackened Heart (2011)
вокал у Saint Ov Gravediggers вообще отличный, ни с кем не спутаешь.
(1) 34front,
Feb 17 2012, 20:08:46 Psychonaut 75 & Aesthetic Meat Front - Demonium Of The Earth/Bird Of Oblivion, An Incantation Of Fire [split] (2003)


*Artist: Psychonaut 75 & Aesthetic Meat Front
*Album: Demonium Of The Earth/Bird Of Oblivion, An Incantation Of Fire [split]
*Year: 2003
*Genre: Ritual Industrial | Death Industrial
*Country: United States | United States
*Format: mp3@CBR192kbps
*Size: 93MB

Tracklist:
Psychonaut 75
01. Ahriman Ibn AZ 05:10
02. Babalon Vel Thanatos 06:23
03. The Bornless One (Congressus Cum Daemone) 06:50
04. Demonium Of The Earth 05:49
05. Scarlet Woman (The Crimson Whore) 04:17
06. Lilitu - Dominance And Pain 05:09
Aesthetic Meat Front
07. Intro 02:30
08. Vortex Of Blood (Life) 14:39
09. Conflagration Of Pain - Flames Of Evolution (Death) 07:48
10. Perfect Organism (Re-Birth) 10:49
******************************
Total playing time: 1:09:24



Register
(7) 34front, Eichmann, Hell_Is_Here, kefka, Lanceatum, satanath, spiritualdecay666,
Feb 10 2012, 20:16:44 Лучшие риффы треш-метала
без фанатизма, на мой взгляд каждый риф в этом альбоме - шедевр.

[youtube]TAFfocO25tY[/youtube]
(2) istukan, random,

5 Pages V   1 2 3 > » 
- Lo-Fi Version Support form
Copyrights and abuse reports form
Time is now: 26th May 2024 - 18:47:57