Welcome Guest ( Log In | Register )

История благодарностей участнику judaz ::: Спасибо сказали: 4394 раз(а)
Дата поста: В теме: За сообщение: Спасибо сказали:
May 26 2022, 18:07:00 Fátima - Fossil (2022)
Как всегда отлично.
Стронг рекоммендейшенз!
(1) vosmidesijatye,
May 26 2022, 07:27:59 Fátima - Fossil (2022)


*Artist: Fátima
*Album: Fossil
*Year: 2022
*Genre: Stoner/Doom Metal
*Country: France
*Format: mp3@CBR320kbps
*Size: 99MB

Tracklist:
1. Mongolo Bill 03:59
2. Arch-Vile 04:25
3. Turks Fruit 06:09
4. King of the Rats 05:43
5. Feathered Fossils 02:52
6. Sacred Chickens 04:22
7. Anasazis 02:56
8. Strawberry Brain Shake 03:40
9. We, the Wizards 04:40
10. Sokurah the Magician (Bonus Track) 02:48
******************************
Total playing time: 41:34



[more=Technical info]
Input File: 01 Mongolo Bill.mp3
Channels : 2
Sample Rate : 44100
Precision : 16-bit
Duration : 00:03:59.45 = 10559921 samples = 17959 CDDA sectors
File Size : 9.58M
Bit Rate : 320k
Sample Encoding: MPEG audio (layer I, II or III)
Comments :
Title=Mongolo Bill
Artist=FATIMA
Album=Fossil
Tracknumber=1
Year=2022

[/more]

Register
(9) aleon, artscald, Dante_D, metaljosue, Ostinato, SaintVitus, sludge666, VALERY, vosmidesijatye,
May 26 2022, 06:23:19 Убий - Убий [ep] (2022)


*Artist: Убий
*Album: Убий [ep]
*Year: 2022
*Genre: Black Metal
*Country: Russian Federation
*Format: mp3@CBR320kbps
*Size: 51MB

Tracklist:
01. Убий 02:43
02. Дотла 03:42
03. Приди, Последняя Ночь 04:48
04. Убить Человека (Я Просто Хочу) 04:37
05. Дьявол Здесь 06:41
******************************
Total playing time: 22:31



[more=Technical info]
Input File: 01. Убий.mp3
Channels : 2
Sample Rate : 44100
Precision : 16-bit
Duration : 00:02:42.49 = 7165941 samples = 12187 CDDA sectors
File Size : 6.50M
Bit Rate : 320k
Sample Encoding: MPEG audio (layer I, II or III)
Comments :
Title=Убий
Artist=Убий
Album=Убий (EP)
Tracknumber=01
Year=2022
Genre=Black Metal

[/more]

Register
(14) AlexSmith, Aresson, artscald, cesar, Daale, dermarsoran, GorAtheist, kim666, milosdjor, murian, SadistikSlayer, stormhatt, VALERY, varlam4,
May 26 2022, 06:11:08 Коса - Плодуродие (2022)


*Artist: Коса
*Album: Плодуродие
*Year: 2022
*Genre: Black Metal/Blackened Punk
*Country: Russian Federation
*Format: mp3@CBR320kbps
*Size: 86MB

Tracklist:
01. Лихие Дни 03:54
02. Стонут 03:48
03. Весна Неизбежна 03:04
04. В Братских Могилах 04:10
05. Мироотравление 03:13
06. Коса 04:10
07. В Подземных Церквях 03:50
08. Чёрный Козёл 04:31
09. Безобразные 03:01
10. Свет Не Вечен 05:18
******************************
Total playing time: 38:59



[more=Technical info]
Input File: 01. Лихие Дни.mp3
Channels : 2
Sample Rate : 44100
Precision : 16-bit
Duration : 00:03:53.39 = 10292455 samples = 17504.2 CDDA sectors
File Size : 9.34M
Bit Rate : 320k
Sample Encoding: MPEG audio (layer I, II or III)
Comments :
Title=Ëèõèå Äíè
Artist=Êîñà
Album=Ïëîäóðîäèå
Tracknumber=1
Year=2022
Genre=Black Metal / Blackened Punk

[/more]

Register
(7) aleon, AlexSmith, DarkHorde, Moonshtook, sabr, stormhatt, VALERY,
May 26 2022, 04:34:08 Vronski - Ephemeral (2022)
Лучше "Анну Каренину" перечитать, чем слушать эту хрень.
(1) ent404,
May 21 2022, 04:25:30 Golgothan Remains - Adorned In Ruin (2022)
Очень хорошо.
(2) Occultas, WOLAND,
May 20 2022, 10:51:40 Bog Body - Cryonic Crevasse Cult (2022)
ЦИТАТА(Chasm @ May 20 2022, 10:38:10) *
стиль привлекателен. какие мнения у прослушавших?

По двум доступным трекам с бандкампа - грязно, мутно, глухо, подвально. Интереса не вызвало.
(1) Chasm,
May 19 2022, 19:15:35 Blut Aus Nord - Disharmonium - Undreamable Abysses (2022)
Ух, круть какая. Нарулить такую жырнющую атмосферу потустороннего мрака и ужаса, это на грани гениальности. Прошлый альбом совсем слабеньким кажется рядом с этой глыбой.
(1) Occultas,
May 18 2022, 11:27:22 Bog Body - Cryonic Crevasse Cult (2022)
Новый жанр? Надо заценить.
(1) kefka,
May 17 2022, 04:57:51 Jungle Rot - A Call To Arms (2022)
Всегда были безликим вторым эшелоном с редкими проблесками, которые закономерно оказались погребенными под тоннами посредственных альбомов типа сабжа.
Послушать для галочки (можно даже не целиком, чтоб не терять драгоценное время) и забыть навсегда.
(1) BleedingSun,
May 17 2022, 04:23:09 Serpentfyre - Baptism Of Shadows (2022)
Мелодик блек здорового человека.
(2) Occultas, rimfrost,
May 16 2022, 09:29:01 Kilta - Karhun Synty (2022)
Одноразово. Переслушивать 50 минут минимализма, граничащего с примитивизмом, ну такое себе удовольствие.
Единственное, за что можно похвалить, это вокал - выразительный и ядовитый скрим.
(1) WOLAND,
May 11 2022, 13:56:01 Усгвёлчны - Усгвёлчны II (2022)
(3) Ash_1980, nsk2008, RUSP73,
May 10 2022, 13:37:34 Iku-Turso - Into Dawnless Realms (2022)
Безликая тарахтелка. Прошлый, хоть и ненамного, но все же был лучше.
(1) Mencae77,
May 9 2022, 14:18:38 Malthusian & Suffering Hour - Time's Withering Shadow [split] (2022)
Malthusian ранее не слышал. Понравилась первая песня - такой замороченный нездоровый блекодет с нотками морбид энджел.

Suffering Hour ожидаемо порадовал.
(2) Occultas, WOLAND,
May 6 2022, 05:07:23 Jani Liimatainen - My Father's Son (2022)
Сослепу померещилось "Яри Литманен".
(3) Dreamtale, Reverend, SaintVitus,
May 2 2022, 05:18:30 The Gathering - Beautiful Distortion (2022)
Чиллаут с женским вокалом.
В памяти не откладывается, как и любая фоновая музыка.
(1) ent404,
Apr 30 2022, 04:10:31 Mondocane - Gloria (2022)
Классно. Группа-открытие 2021 года, не снижая темпа, выдаёт второй подряд топовый альбом. На этот раз материал максимально разнообразен, до такой степени, что в 3-й песне явно слышна демешмодовская "Персонал Джизус". Но лучше всего у них по-прежнему получается играть классический блэк, хоть его тут и не так много, как хотелось бы.
(1) Andrew,
Apr 26 2022, 16:02:12 Analepsy - Quiescence (2022)
Несколько песен прям на ура зашли.
(2) andris, Foneg,
Apr 21 2022, 06:08:36 Incandescence - Le Coeur De L'homme (2022)
Сонграйтинг, хренайтинг, а слушать неинтересно.
(1) Ildjarn,
Apr 17 2022, 07:38:41 Baalzagoth - Morbid Persecutions (2022)
Средне.
(1) tril0byte,
Apr 16 2022, 11:40:22 Faceless Entity - The Great Anguish Of Rapture (2022)
Не уверен насчёт "raw", но вот тег Doom или хотя бы doomed я бы добавил.
(1) Storky,
Apr 14 2022, 19:31:31 Vultyrium - Vultyrium (2022)
Послушал. Кайфанул. Все строго по канонам 90-х.
(2) smes, vosmidesijatye,
Apr 3 2022, 06:43:50 Celebratum - Kollektiv Sinnssykdom (2022)
Блэк с "космической" атмосферой, но не такой яросто-беспощадной как у Darkspace, а скорее ближе к техногенному как у The Kovenant, романтичному как у Arcturus, и даже таинственно-меланхоличному как у Angst Skvadron. Этакий тройной воршип культовым норвежским бандам, вдохновенный настолько, что за 45 минут не встречается практически ни одного избитого блэкового клише.
Крутой альбом.
(1) Hexer,
Mar 25 2022, 07:26:29 Hell Militia - Hollow Void (2022)
Без лишнего шума и пыли, чисто на классе, выдали отличный блэковый альбом в современном звуке без всяких заигрываний с темой роу, ритуальщины или ещё каких актуальных примочек. Достойный результат и прекрасный образец профессионализма.
(4) Alexis The Best, Evilded, Hexer, Qliphoth,

62 Pages V   1 2 3 > » 
- Lo-Fi Version Support form
Copyrights and abuse reports form
Time is now: 28th May 2022 - 08:15:55