Welcome Guest ( Log In | Register )

История благодарностей участнику judaz ::: Спасибо сказали: 3143 раз(а)
Дата поста: В теме: За сообщение: Спасибо сказали:
Yesterday, 14:03:52 Логос - Что Наша Жизнь? (2019)
ЦИТАТА(Фо @ Oct 22 2019, 13:32:17) *
А раз проект напомнил мне сразу о двух хороших вещах, то, прок от него, какой то, безусловно, есть.

О трех! Обложка напоминает скриншот из Age of Empires.
(5) Deze, Ghostb, infiltrator, plfan93, Фо,
Yesterday, 10:21:09 [Amatory] - Doom (2019)
Сабж не слушал и не собираюсь, а по поводу Ленинграда скажу, что очень рад, что Шнур наконец-то распустил свою шарагу.
(1) plfan93,
Oct 21 2019, 18:00:19 Unaussprechlichen Kulten - Teufelsbücher (2019)
Атмосферно, качественно, но не мое.
(1) FlammenTod666,
Oct 18 2019, 21:27:29 Djevel - Ormer Til Armer, Maane Til Hode (2019)
Графоманы от блэк метала.
(2) garmonbozia, infiltrator,
Oct 18 2019, 13:18:26 1349 - The Infernal Pathway (2019)
ЦИТАТА(verner @ Oct 18 2019, 12:52:21) *
Пришла в голову мысль, что было бы здорово, если бы юзерЪ писал пост/отзыв в двух частях.
1. Что ждет (причем, в идеале, до прослушки);
2. Что услышал.
А то все эти претензии: "исписались, опопсели, звук- гавно, самоповторы", либо эта любимая бусинка- "ждал чего-то другого, а тут..." звучат как-то ниочем, как гугл- координаты тридевятого царства. 1488.gif

1. Ждал чего-то в духе альбома 2014 год.
2. Услышал что-то не в духе альбома 2014 года.
1488.gif
(2) infiltrator, plfan93,
Oct 18 2019, 10:12:53 1349 - The Infernal Pathway (2019)
Что-то вообще никак.
(1) Brann,
Oct 13 2019, 12:18:14 Profanatica - Rotting Incarnation Of God (2019)
ЦИТАТА(asog @ Oct 10 2019, 21:38:26) *
А не знай, никогда не нравилось их творчество. Это творение не исключение - примитивно, топорно. Соляков нет. Не моё.

Но при этом дико и убойно. Отличный альбом.
(2) infiltrator, sethurius,
Oct 11 2019, 10:34:42 Лучший советчик МА - Часть 1 (Дэт) - Итоги
Почему Пюре? ПЫРЕ же. От слова "пырить".
(1) vosmidesijatye,
Oct 10 2019, 14:07:15 Entrails - Rise Of The Reaper (2019)
Облога кошмар и ужас, детский сад "Ромашка".
(4) Brann, Deze, infiltrator, vosmidesijatye,
Oct 10 2019, 07:31:36 Aegrus - In Manus Satanas (2019)


*Artist: Aegrus
*Album: In Manus Satanas
*Year: 2019
*Genre: Black Metal
*Country: Finland
*Format: mp3@CBR320kbps
*Size: 99MB

Tracklist:
01. Hymn To The Firewinged One 05:46
02. Nightspirit Theosis 03:40
03. Gestalt Of Perdition 05:49
04. At The Altar Of Twilight 00:52
05. Ascending Shadows 07:04
06. Nemesis 07:09
07. The Black Wings Upon Me 05:30
08. In Manus Satanas 08:38
******************************
Total playing time: 44:28



[more=Technical info]
Input File: 04. At The Altar Of Twilight.mp3
Channels : 2
Sample Rate : 44100
Precision : 16-bit
Duration : 00:00:51.99 = 2292803 samples = 3899.32 CDDA sectors
File Size : 2.24M
Bit Rate : 344k
Sample Encoding: MPEG audio (layer I, II or III)
Comments :
Title=At The Altar Of Twilight
Artist=Aegrus
Album=In Manus Satanas
Tracknumber=4
Year=2019
Genre=Black Metal

[/more]

Register

Register
(23) 1968_janeart, alikkon, andivi, cist, dermarsoran, FlammenTod666, infernallord, kim666, Lamby90, LEGION69, Morgoth, rimfrost, robertho777, Rosen, Rover, RUDACHUR, sabr, stub888, thenecromancer, vasiljev_sergej, Vidder242, vov7609, vovenom,
Oct 7 2019, 19:17:09 Exulansis - Sequestered Sympathy (2019)
Отличный альбом, в чем на 75 процентов заслуга скрипки. Без нее был бы симпатичный, но совершенно безликий атмоблэк.
(1) Baarin,
Oct 7 2019, 08:45:26 Kull - Exile (2019)
ЦИТАТА(Kazoth @ Oct 6 2019, 11:44:29) *
Ну по музыке то один к одному.

ЦИТАТА
Нет, это как раз 100 процентов Бал-Сагота. Потому что братья Модлинги, создавшие сабж, и были сонграйтерами БС. Байрон только за тексты и "общую концепцию" отвечал.

Где вы тут "один к одному" и "100 процентов" углядели? Абсолютно беспомощная поделка.
(1) raattent,
Sep 26 2019, 19:01:09 Azels Mountain - Wieczny Sen (2019)
Проходняк.
(1) Krosis,
Sep 26 2019, 06:26:31 Batyushka - Апостол (2019)
[youtube]IMXtgTa-F20[/youtube]
(10) Deze, Ghostb, infiltrator, ironman2002, NecroButcher, plfan93, recber, RUSP73, russ777, TDM,
Sep 18 2019, 21:54:14 Asagraum - Dawn Of Infinite Fire (2019)
Альбом из числа тех, к которым и придраться не к чему, и переслушивать не тянет.
(1) Kazoth,
Sep 11 2019, 06:45:50 Новости Black-направления (4) DarkHorde, infiltrator, RUDACHUR, technoboy69,
Sep 8 2019, 14:55:13 Alcoholocaust - Necro Apocalipse Bestial (2019)
Ну на концерте под такое можно поколбаситься. А так... Всегда считал спид/треш одним из скучнейших направлений в музыке. Сабжевый альбом только укрепил меня в своем мнении, даже не смотря на наличие блэковых элементов.
(2) BERZERK, FlammenTod666,
Sep 5 2019, 07:13:11 Кто какие альбомы ждёт? Albums you are waiting for
25.10 Karyn Crisis' Gospel of the Witches - Covenant
(2) Deze, infiltrator,
Sep 3 2019, 19:16:52 Mgła - Age Of Excuse (2019)
Искренне не понимаю, почему прошлый альбом мглы облизывали, пуская розовые сопли с сахаром, а на этот катят бочку. По сути они похожи как однояйцевые близнецы - все тот же слащавый, прилизанный мелодик блек, от которого ближе к середине начинает подташнивать.
(3) infiltrator, oLdBoy, vosmidesijatye,
Sep 3 2019, 07:40:43 Лучший советчик МА - Часть 1 (Дэт) - Тур 1
ЦИТАТА(Deze @ Sep 3 2019, 07:22:37) *
Вот я тоже думаю - а не переборщил ли я с цензом (10 000). т.е. есть ли у вас проблемы с поисками групп <10 000 с крутыми альбомами? Не вернуться ли к более щадящим 40 000? Вопрос вынесен на обсуждение

Не переборщил.
(1) Deze,
Sep 3 2019, 06:54:10 Godagainst - Summoning Chaotic Annihilation (2019)
ЦИТАТА(defamer666 @ Aug 31 2019, 21:48:58) *
Ветераны чилийской SATANIC DEATH сцены,как всегда,на высоте - ураганная мощь,скоростные запилы,инфернальный гроул взывает к ПОВЕЛИТЕЛЮ повергнуть человечество в апокалипсис! metaler.gif metaler.gif metaler.gif

P.S Прошлый полноформатник 2011 года был хорош - этот не уступает! 9.gif

Все по делу.
(1) defamer666,
Sep 3 2019, 06:30:12 Лучший советчик МА - Часть 1 (Дэт) - Тур 1
Сходу вспомнил про Domains - Sinister Ceremonies (2014)
Ноунеймы (1113 слушателей на ласте) из солнечной Испании выдали один из мощнейших дэтовых альбомов десятилетия.
(1) quicksand,
Aug 23 2019, 11:39:25 Merlin - The Mortal (2019)
Эх, лучше б наших брутальщиков подвезли. На которых кстати и по ссылке выкидывает.
(1) Metalass,
Aug 22 2019, 19:07:38 Vordr - Vordr (2019)
Разнузданный блэкопанк, на уровне прошлых работ.
Для меня безусловный топ года.
(2) HviteGuden, infiltrator,
Aug 22 2019, 10:29:18 Vordr - Vordr (2019)


*Artist: Vordr
*Album: Vordr
*Year: 2019
*Genre: Black Metal
*Country: Finland
*Format: mp3@CBR320kbps
*Size: 87MB

Tracklist:
1. Erianoisiv 02:23
2. Beast of the Woods 01:27
3. Forever Bound 02:25
4. Blissfully Possessed 02:27
5. Goretusk 02:21
6. Candle in the Astral Wind 03:08
7. Rebirth 02:05
8. Chained in Recollections of a Life That Once Was 02:07
9. Shaman 02:43
10. Dreamer's Loot 02:55
11. Soulbirds 02:39
12. Driftwood 01:38
13. The Forest King 02:56
14. Enchanting Fires of Pain 03:05
15. Visionaire 02:35
******************************
Total playing time: 36:54



[more=Technical info]
Input File: 01 - Erianoisiv.mp3
Channels : 2
Sample Rate : 44100
Precision : 16-bit
Duration : 00:02:23.55 = 6330687 samples = 10766.5 CDDA sectors
File Size : 5.75M
Bit Rate : 320k
Sample Encoding: MPEG audio (layer I, II or III)
Comments :
Title=Erianoisiv
Artist=VORDR
Album=Vordr
Tracknumber=1
Year=2019
Genre=138

[/more]

Register
(68) 0x13, 1968_janeart, acerbus, Ainar, alex-82, Ambercandle, ambre, andeimon, Antizeoi, artscald, atavist, Bekkerev, Boozer, Borderline1991, Brann, cesar, Daale, egortitov, fffrost, Forest Silence, FUDEDOR, garmonbozia, heinz88, Hell_Is_Here, HviteGuden, Ildjarn, infiltrator, kim666, kryptor, LEGION69, lestllk, Lord Noctua, lucifix, mondblut, Moonshtook, nadin85, Necrophil, nikolay81, nsk2008, Oath19, obituarydark, older68, Olethros, Orkkh, Ostinato, Phlebotomized, randumbum, Razorbladeswaltz, Reverend, ripper33, robertho777, Rosen, sandr666, sethurius, SilentNidhogg, soulskinner681, SSWolf88, Strygaldwir, stub888, Surt, the_cleanser, The_Kold, Tino, vasiljev_sergej, wolverine, wreak, xska, Абигор,

43 Pages V   1 2 3 > » 
- Lo-Fi Version Support form
Copyrights and abuse reports form
Time is now: 23rd October 2019 - 00:48:13