Welcome Guest ( Log In | Register )

История благодарностей участнику judaz ::: Спасибо сказали: 3997 раз(а)
Дата поста: В теме: За сообщение: Спасибо сказали:
Yesterday, 15:52:10 Ulo - Three Two (2021)
Интернациональный ван-мен-бенд. Теперь я видел все.
(3) Danila, Occultas, Tular,
May 16 2021, 22:52:38 Oldskull - Nether Hollow Of No Return (2021)
В основном соглашусь с Воландом. Кроме глупого названия все остальное прекрасно.
Топ года? Не знаю. Разве что в дэтовой двадцатке. Слишком уж кондово-сермяжный материал, ни шага влево-вправо от канона.
(1) WOLAND,
May 16 2021, 19:43:28 Lugubrum - Bruyne Kroon (2021)
ЦИТАТА(HviteGuden @ May 16 2021, 18:29:21) *
Ну, так надо выбирать выражения. В культурном же обществе живём.

А как надо? Альтернативный меломан?
(2) ent404, infiltrator,
May 16 2021, 08:56:03 Clandestine Blaze - Secrets Of Laceration (2021)
А то, что выкладывали пару недель назад, разве в лоу-битрейте было? Впрочем неважно. Альбом не понравился, как и все позднее творчество сабжа.
(1) Occultas,
May 14 2021, 20:54:43 Grave Miasma - Abyss Of Wrathful Deities (2021)
ЦИТАТА(WOLAND @ May 14 2021, 20:50:47) *
Если бы я не похвалил ,все бы говноварили про вторичность,затянутость,плохого ударника и похожесть всех песен.И разочарование ...А вот на дебютнике..Да.. Кость грызть это вам не шарики мыльные пучкать очком.

Мда... Самое печальное, что ты это несешь, подозреваю, на полном серьезе.
(3) 6666666, ent404, Варяг,
May 13 2021, 18:55:17 Grave Miasma - Abyss Of Wrathful Deities (2021)
Воланд, свою косноязычную херню надо прятать под тегом [more], а не [hide].
(4) 6666666, ent404, infiltrator, Lux,
May 13 2021, 11:47:22 Grave Miasma - Abyss Of Wrathful Deities (2021)
ЦИТАТА(asog @ May 13 2021, 11:28:28) *
Ну не знай, мне вот почти всё нравится, звук хотелось бы почётче, не такой размытый. А в общемицелом годная мрачнуха. Под халяльный мескаль и кошерную свининку в честь Уразы очень даже заходит

Халяльный мескаль - это без гусеницы чтоли?
(2) ent404, infiltrator,
May 11 2021, 18:36:12 __________, или Голосовалка за лучший альбом 2020 года, ИТОГИ
ЦИТАТА(Deze @ May 11 2021, 17:04:52) *
Да как-то слабо она их нагрела. Вот ум Джудаса нагрелся в противоположную сторону. 1488.gif

Это называется победой по дополнительным показателям. Типа разницы забитых и пропущенных мячей. Ну ты понел.
(2) Deze, infiltrator,
May 10 2021, 09:42:45 __________, или Голосовалка за лучший альбом 2020 года, ИТОГИ
Так вот кто виноват в победе Бени! Фирма "Мелодия"!
Вам самим-то не смешно?
(1) Alexis The Best,
May 7 2021, 10:38:59 __________, или Голосовалка за лучший альбом 2020 года, ФИНАЛ
ЦИТАТА(as71 @ May 7 2021, 10:36:16) *
У меня с каждым годом из 90-х будет именно такая ситуация, когда я реально не смогу назвать один лучший альбом за год. Буду ставить +3 одному из 5-7-10 альбомов практически рандомным образом, выделить какой-то один из них не представляется возможным.

Не можешь выделить кого-то одного - не выделяй никого. Ставь своим фаворитам по +2, а остальным на 2 балла ниже.
(3) as71, Deze, infiltrator,
May 7 2021, 10:33:37 __________, или Голосовалка за лучший альбом 2020 года, ФИНАЛ
ЦИТАТА(Old Vyaine @ May 7 2021, 10:29:01) *
Да ещё как пыхтели.

Пыхтели, но делали. Не вижу принципиальных отличий от "+3".
(2) Deze, infiltrator,
May 7 2021, 10:24:39 __________, или Голосовалка за лучший альбом 2020 года, ФИНАЛ
Кого в прежние времена в первом туре выделяли жирным шрифтом, тот и фаворит, ну. Причем все как-то умудрялись выделять только одного кандидата и не пыхтеть по этому поводу.
(2) Deze, infiltrator,
May 7 2021, 07:50:14 __________, или Голосовалка за лучший альбом 2020 года, ФИНАЛ
ЦИТАТА(maxmagmas @ May 7 2021, 07:43:10) *
Предлагаю добрую традицию: делать переголосовалки каждые 5 лет.

Нет, не так. Делать переголосовалки до тех пор, пока альбомами года не станут фавориты каждого участника. Шоб никто не ушел обиженным!
(2) Alexis The Best, infiltrator,
May 6 2021, 04:41:07 Trest - Ordalium (2019)
Интересная концепция - записать обычные и raw версии песен. И нашим, и вашим, тыкскыть.
По мне, чистые версии поинтересней звучат.
(1) Occultas,
May 5 2021, 05:58:08 Universally Estranged - Reared Up In Spectral Predation (2021)
Тот редкий случай, когда обложка полностью соответствует содержимому. Нечто обскурно-диссонантное, и вместе с тем ламповое, как зелено-розовая графика на древних CGA-шных мониторах. Не совсем моя тема, но слушается приятно.
(3) mirotvorets, Occultas, samokot,
May 4 2021, 16:15:09 __________, или Голосовалка за лучший альбом 2020 года, ФИНАЛ
ЦИТАТА(Old Vyaine @ May 4 2021, 15:28:02) *
Сентенсед хороший альбом с таким названием записали.

Прекрасно, только он сюда вообще никаким боком.
(2) BleedingSun, infiltrator,
May 4 2021, 14:42:16 __________, или Голосовалка за лучший альбом 2020 года, ФИНАЛ
ЦИТАТА(Deze @ May 4 2021, 13:11:34) *
Альбомов со всем треками на максимум не бывает в природе. Мне кажется, такое в принципе невозможно))

А как жи Crimson?
(6) Alexis The Best, BleedingSun, Exorcist, Golodomor, Lux, Un4given,
May 3 2021, 12:31:14 __________, или Голосовалка за лучший альбом 2020 года, ФИНАЛ
Ни Бенедикшн, ни Инквизишн не тянут на альбом года, но очень уж смешно от Бени бомбило у прогшмогеров.
Посему - Benediction.
(2) Alexis The Best, infiltrator,
May 1 2021, 03:50:03 Uratsakidogi - Black Hop. Epos (2021)
Дважды войти в одну реку, да еще с одинаковым успехом, сложновато даже таким талантищам, как отморозки из Uratsakidogi. Альбом хоть и крут, и определенно будет в моем годовом топе, но того бомбового эффекта как от прошлого уже нет.
(3) infiltrator, Kwaad, spazm,
Apr 30 2021, 11:25:02 Uratsakidogi - Black Hop. Epos (2021)


*Artist: Uratsakidogi
*Album: Black Hop. Epos
*Year: 2021
*Genre: Blackened Hip-Hop
*Country: Russian Federation
*Format: mp3@CBR320kbps
*Size: 97MB

Tracklist:
1. Black Hop XI (Чёрный клан) 4:35
2. Black Hop X (Nordic Flow) 3:45
3. Black Hop XIV (Epos) 8:16
4. Black Hop XII (9 бонгов) 5:15
5. Black Hop XV (Norilsk) 4:47
6. Black Hop XIII (Звери) 8:37
7. Black Hop XVI (Сингулярность) 3:23
8. Black Hop XVII (Quarantine) 3:14
******************************
Total playing time: 41:52




[more=Technical info]
Input File: 01. Black Hop XI (Чёрный клан).mp3
Channels : 2
Sample Rate : 44100
Precision : 16-bit
Duration : 00:04:35.61 = 12154269 samples = 20670.5 CDDA sectors
File Size : 11.0M
Bit Rate : 320k
Sample Encoding: MPEG audio (layer I, II or III)
Comments :
Title=Black Hop XI (Чёрный клан)
Artist=Uratsakidogi
Album=Black Hop. Epos
Tracknumber=01/08
Year=2021-21-20
Discnumber=1/1

[/more]

Register
(25) A.L.Rapsod, Aresson, Black Cat, cancer1974, craP_cillA, DarkHorde, gwar, infiltrator, Kwaad, nadin85, nemx, noel666, Old Vyaine, Olethros, rabindranad, RUSP73, sabr, Shub, spazm, toto, Vitald, vov7609, Xor, zobero, zyklon,
Apr 26 2021, 06:59:10 Endless Voyage X - Terminal Rust (2021)


*Artist: Endless Voyage X
*Album: Terminal Rust
*Year: 2021
*Genre: Atmospheric Black/Doom Metal
*Country: United States
*Format: mp3@CBR320kbps
*Size: 77MB

Tracklist:
1. Corroded 01:36
2. Urban Rot 02:37
3. Gone 03:09
4. Essence Of Black Tar 02:56
5. Rabid Saints 04:12
6. Terminal Rust 03:21
7. Exctincton's Furnace 02:51
8. Corpse Flies 03:22
9. Crescendo Of Razorwire 03:30
10. Mechnical Fractures 03:00
******************************
Total playing time: 30:34



[more=Technical info]
Input File: 01 Corroded.mp3
Channels : 2
Sample Rate : 44100
Precision : 16-bit
Duration : 00:01:36.48 = 4254548 samples = 7235.63 CDDA sectors
File Size : 3.86M
Bit Rate : 320k
Sample Encoding: MPEG audio (layer I, II or III)
Comments :
Title=Corroded
Artist=Endless Voyage X
Album=Terminal Rust
Tracknumber=1
Year=2021

[/more]

Register
(16) 6666666, AlexSmith, HMHamster, infiltrator, kimkayoung, Mogozoz, Olethros, randumbum, robertho777, rominow, Sanctus, satanist666, sergsazan, Shadechaser, VALERY, varlam4,
Apr 24 2021, 03:10:15 Ulvehyrde - Englemakersken (2021)
Давно не слышал из Норвегии чего-то, настолько приятно ложащегося на слух.
(3) infiltrator, Occultas, RUSP73,
Apr 23 2021, 12:51:43 __________, или Голосовалка за лучший альбом 2020 года, Тур 2
ЦИТАТА(ent404 @ Apr 23 2021, 12:45:44) *
если все так несерьезно, сфига ли вы по оценкам убиваетесь?

Вы не понимаете. Это другое.
(2) ent404, infiltrator,
Apr 21 2021, 19:28:17 __________, или Голосовалка за лучший альбом 2020 года, Тур 2
ЦИТАТА
Опять блэкари протащили название, которое я впервые слышу.

Вот с этого перла чота аж бомбануло. Нет, блть, в голосовалках должны быть одни патамушты!
(4) Alexis The Best, infiltrator, Visitor, металлист,
Apr 21 2021, 07:25:32 __________, или Голосовалка за лучший альбом 2020 года, Тур 2
ЦИТАТА(randyhermit @ Apr 21 2021, 07:14:14) *
К голосованию по играм нужно подходить с полной ответственностью: отдельные голосовалки по каждому жанру, отдельные по годам, конкурс советчиков, ну и, судя по всему, по Героям - тоже genius.gif

И обязательно Сатурналии - по инди-играм.
(3) BleedingSun, infiltrator, plfan93,

54 Pages V   1 2 3 > » 
- Lo-Fi Version Support form
Copyrights and abuse reports form
Time is now: 18th May 2021 - 14:44:42