Welcome Guest ( Log In | Register )

История благодарностей участнику Victim of fate ::: Спасибо сказали: 2619 раз(а)
Дата поста: В теме: За сообщение: Спасибо сказали:
Jan 25 2024, 21:41:49 Any Given Day - Limitless (2024)


*Artist: Any Given Day
*Album: Limitless
*Year: 2024
*Genre: Metalcore
*Country: Germany
*Format: mp3@CBR320kbps
*Size: 100MB

Tracklist:
1. Get That Done 4:17
2. Unbreakable 4:27
3. Limitless 3:28
4. Come Whatever May 4:13
5. Apocalypse 4:11
6. Shockwave 3:46
7. Best Time 3:12
8. My Way 2:48
9. H.A.T.E. 4:03
10. Broken Guardian 4:14
11. Shadow Walker 4:20
******************************
Total playing time: 42:59



[more=Technical info]
Input File: 05. Apocalypse.mp3
Channels : 2
Sample Rate : 44100
Precision : 16-bit
Duration : 00:04:11.03 = 11070291 samples = 18827 CDDA sectors
File Size : 10.1M
Bit Rate : 323k
Sample Encoding: MPEG audio (layer I, II or III)
Comments :
Title=Apocalypse
Artist=Any Given Day
Album=Limitless
Tracknumber=05/11
Year=2024
Discnumber=1/1

[/more]

Register
(8) artscald, chipsgott, DenisKov, gwar, Hasten666, tschunioronbeer, wreak, zhol,
Jan 16 2024, 18:57:16 Analepsy - Quiescence: The Instrumentals (2023)
я пропустил их и все молчат,они же разрывают напором!!!!!
(1) Occultas,
Dec 22 2023, 05:43:02 Pure - Prison Of Flesh And Bone (2023)
вернулся к корням Pure - Kingdom Of Wrath - хороший рау

хочу продолжения Art Of Loosing Ones Own Life - вот там был надрыв!!!!!
(1) DarkHorde,
Dec 14 2023, 06:03:03 Plagues - Dystopian Misanthropy Vol. 2 [ep] (2023)
я соединил две части и получился отличный альбом!!!!
(1) vovenom,
Dec 11 2023, 20:13:32 Metallica - Unload [bootleg] (1999)
ЦИТАТА(vosmidesijatye @ Dec 11 2023, 11:54:20) *
Какие именно кассеты? Кинь ссылку.

https://vk.com/id504137462
(1) Xutun,
Dec 11 2023, 05:15:39 Metallica - Unload [bootleg] (1999)
эти кассеты дальше начали печатать - ищите в ВК

а можно в МР3 закачать этот альбом.....пожалуйста!
(1) Occultas,
Dec 9 2023, 21:14:54 Desolate Sphere - Hallucinosis [ep] (2021)


*Artist: Desolate Sphere
*Album: Hallucinosis [ep]
*Year: 2021
*Genre: Melodic Death Metal
*Country: Japan
*Format: mp3@CBR320kbps
*Size: 34MB

Tracklist:
1.The Fallen Father 03:26
2.The Last Hunter 03:36
3.My Bloody Worship 03:54
4.Re-Metamorphosis 03:32
******************************
Total playing time: 14:28




[more=Technical info]
Input File: 01 - The Fallen Father.mp3
Channels : 2
Sample Rate : 44100
Precision : 16-bit
Duration : 00:03:26.00 = 9084600 samples = 15450 CDDA sectors
File Size : 8.40M
Bit Rate : 326k
Sample Encoding: MPEG audio (layer I, II or III)
Comments :
Title=The Fallen Father
Artist=Desolate Sphere
Album=Hallucinosis
Tracknumber=1
Year=2021-12-10
Genre=Melodic Death Metal

[/more]

Register
(13) artscald, BugEyes, chipsgott, Grev, gwar, lldma, Mogozoz, sergsazan, VALERY, Wail, Weikai, wreak, zhol,
Dec 8 2023, 19:16:41 Cryptopsy - Blasphemy Made Flesh/None So Vile [compilation] (2023)
а тэги дядя Вася будет прописывать?
(1) ingram,
Dec 4 2023, 05:50:36 Putrascension - Forever Below (2023)
ЦИТАТА(Razorbladeswaltz @ Dec 1 2023, 21:18:24) *
reup, pls

Register


фоторедактор плохо вписал лого в обложку
(2) Hell_Is_Here, satanist666,
Nov 8 2023, 05:11:01 Tarja - Dark Christmas (2023)
как индастриал металл,металкор,деткор - в неформат засовываете,а тут ...нате?
(1) Ash_1980,
Oct 24 2023, 19:32:42 Θλίψις​ - Dawn Of Defiance (2023)
почему ещё никто не написал?

это полотно стирает с лица земли всё живое ,альбом сразу в ТОП года!!!
Два сильнейших вокалиста- гитариста и 70% финов , норвежцев ,канадцев что выпустили в этом году альбомы идут сразу лесом...
(1) DarkHorde,
Oct 23 2023, 05:29:49 A Dark Reborn - Last Echo (2023)
все релизы Кефки по стилю надо под сомнение сразу брать и Самаритянин начал этим грешить((((((
(1) csgmnk,
Oct 22 2023, 13:48:13 Aneraxt - Operation Utopia CCCXIII (2023)
логотип отличный
(1) ZeroIISum,
Oct 21 2023, 09:56:59 Unbeauty - A Day Of Hope... (2020)


*Artist: Unbeauty
*Album: A Day Of Hope...
*Year: 2020
*Genre: Symphonic Black Metal
*Country: Indonesia
*Format: mp3@VBR128kbps
*Size: 46MB

Tracklist:
1.By Mighty Sins 0:06
2.Hope in December 4:25
3.The Sky 4:52
4.My Dark Neam 5:39
5.Dalam Gelap Aku Bersujud (arsidos cover) 3:00
6.Underneath The Fulmoon 5:58
7.Lentera 5:04
8.The Mansions of The Stars 5:39
9.When The Dusk Call My Name 4:47
10.Seven Heavens 5:30
******************************
Total playing time: 45:00

Preview 1

[more=Technical info]
Input File: Unbeauty - Hope in December.mp3
Channels : 2
Sample Rate : 44100
Precision : 16-bit
Duration : 00:04:25.46 = 11706566 samples = 19909.1 CDDA sectors
File Size : 4.25M
Bit Rate : 128k
Sample Encoding: MPEG audio (layer I, II or III)

[/more]

Register
(2) kim666, thenecromancer,
Oct 17 2023, 20:35:38 Sinheresy - Event Horizon (2023)
приятный альбомчик))))
(1) Phlebotomized,
Oct 8 2023, 10:44:55 Akitsa - Devenir Le Diable (2023)
один хрен с горы сказал- это культ,другой батон с полки крикнул- не верю)))))

каждый огурец с грядки раскидывает своими семенами в голове и не слушает никого)))


пойду Monarque - Ad Nauseam (2009) слушать 20.gif
(1) ZeroIISum,
Oct 5 2023, 21:57:07 Ghörnt - Häxekult (2023)


*Artist: Ghörnt
*Album: Häxekult
*Year: 2023
*Genre: Black Metal
*Country: Switzerland
*Format: mp3@VBR192kbps
*Size: 95MB

Tracklist:
1. Liechterloh 5:38
2. Todgweiht 4:57
3. Folter 5:33
4. Häxekult 4:55
5. Alpdämon 4:35
6. Häxesabbath 4:20
7. Im Senn Sis Tunschi 4:51
8. Gaugewald 5:12
******************************
Total playing time: 40:01



[more=Technical info]
Input File: 04 - H​ä​xekult.mp3
Channels : 2
Sample Rate : 48000
Precision : 16-bit
Duration : 00:04:55.20 = 14169744 samples ~ 22140.2 CDDA sectors
File Size : 12.2M
Bit Rate : 331k
Sample Encoding: MPEG audio (layer I, II or III)
Comments :
Title=H​ä​xekult
Artist=Ghörnt
Album=H​ä​xekult
Tracknumber=4
Year=2023

[/more]

Register
(26) Altkiller, artscald, Ash_1980, Carcharoth, dermarsoran, fuoco, GorAtheist, Grev, Ildjarn, kim666, madera, Marek, MMMMM, murian, nemx, rimfrost, sabr, sacrut, SadistikSlayer, SilentNidhogg, supremo, VALERY, vasiljev_sergej, vovenom, wreak, yuratroll,
Oct 5 2023, 20:53:52 Notturno - Inside (2023)
Obsessions - шедевр на все времена. Я его фанат ,но жаба задушила за большие деньги покупать диск...

завтра забьюсь в уголок и буду слушать!!!!

и это меланхолик/дсбм
(1) Kitalter,
Sep 15 2023, 20:36:41 Wintaar & Dodmorke & Rooforest & Wampyric Bloodlust & Gravefrost & Волк & Vralgaldr - 15 Years Of Self​-​Destruction Full Of Hate [compilation] (2023)
Здоровья музыканту,но это слушать невозможно
(1) Occultas,
Sep 1 2023, 18:37:10 Melanthropy - Happiness Remains Shattered (2023)
атмо/депра отличная
(1) kimkayoung,
Aug 31 2023, 05:03:51 Taake - Et Hav Av Avstand (2023)


вчера Аркона с длинными песнями( на два секса) надоела и тут ребята балалайку включили, Иммотртал и то на фоне лучше выглядит
(1) Mihalik,
Aug 29 2023, 05:52:48 Der Tod Und Die Landsknechte - Wir Fürchten Weder Tod Noch Teufel (2023)
https://www.youtube.com/watch?v=ZGBXWHVhIk8

вставить превью не судьба ?
(1) TodesGott,
Aug 28 2023, 05:20:11 A Tribute To Helloween & Gamma Ray - Helloray [compilation] (2012)


*Artist: A Tribute To Helloween & Gamma Ray
*Album: Helloray [compilation]
*Year: 2012
*Genre: Power Metal
*Country: International
*Format: mp3@CBR320kbps
*Size: 152MB

Tracklist:
1.Guardians Of Mankind - Tribute To The Past 04:50
2.Gaia Epicus - Warrior 03:54
3.Parallax - The Spirit 04:23
4.Aillion - Mr. Torture 03:48
5.Opera Magna - Anywhere In The Galaxy 06:37
6.Kickhunter - Ain't Got Nothin' Better 04:40
7.Sonem - Last Before The Storm 04:52
8.Armory - Where The Rain Grows 04:45
9.Drachen - A Tale That Wasn't Right 05:34
10.Rampart - Just A Little Sign 03:36
11.Rötten - Leaving Hell 04:32
12.5Th Element - Judas 04:11
13.Burn Universe - Heaven Or Hell 04:15
14.Ilungara - Before The War 04:32
15.Deimos [Russia] - Land Of The Free 04:52
******************************
Total playing time: 1:09:21



[more=Technical info]
Input File: 05. Anywhere In The Galaxy .mp3
Channels : 2
Sample Rate : 44100
Precision : 16-bit
Duration : 00:06:36.93 = 17504569 samples = 29769.7 CDDA sectors
File Size : 15.9M
Bit Rate : 320k
Sample Encoding: MPEG audio (layer I, II or III)
Comments :
Title=Anywhere In The Galaxy (GAMMA RAY) - OPERA MAGNA
Artist=HelloRay
Album=tribute to Helloween & Gamma Ray 2012
Tracknumber=5/15
Year=2012
Discnumber=1/1

[/more]

Register
(1) Carcharoth,
Aug 11 2023, 05:08:12 Wormreign - Abyssus (2023)
а ведь отличный полуинструментальный альбом- техника будет получше многих именитых...
(1) Strid,
Jun 22 2023, 05:59:49 Enforced - War Remains (2023) (1) Kowalewski909,

24 Pages V   1 2 3 > » 
- Lo-Fi Version Support form
Copyrights and abuse reports form
Time is now: 24th February 2024 - 10:32:35