Welcome Guest ( Log In | Register )

История благодарностей участнику Victim of fate ::: Спасибо сказали: 2447 раз(а)
Дата поста: В теме: За сообщение: Спасибо сказали:
Jun 30 2022, 06:25:59 Виталий Дубинин - Бал-Маскарад (2022)
отличный альбом- сразу в коллекцию
лучше на порядок всех последних - Кипелова,Гран Куража,Легиона,Мастера ,Эпидемии и т.д.
после 2018 Проклятие морей - это лучше что выходило!!!

Наполеон и Русский сон - почти идеальны.
(1) Bloodn Lord,
May 13 2022, 05:28:00 In Nomine Belialis - Banishment (2021)
вот это красотища!!!!
(1) Occultas,
Apr 30 2022, 11:55:22 Bleed This Earth - The Slow Decline (2022)
ЦИТАТА(Hell_Is_Here @ Apr 14 2022, 16:04:37) *
Ничего он не угадывал. Вся инфа, кто и откуда, представлена в дополнительной информации. 23.gif

согласен)
один идиот не смотрит инфу
другой идиот смотрит инфу и выдаёт всё как своё мнение....
(1) Hell_Is_Here,
Apr 22 2022, 20:20:07 Jord - Måne (2022)
третьесорт
(1) mittal,
Mar 27 2022, 21:02:21 Ebony Pendant & Lamp Of Murmuur - Plenilunar Requiems [split] (2022)
что думать- сразу в коллекцию!!! true_black.gif 20.gif
(1) Hexer,
Mar 5 2022, 23:13:06 Bryan Adams - Pretty Woman The Musical (2022)


*Artist: Bryan Adams
*Album: Pretty Woman The Musical
*Year: 2022
*Genre: Rock
*Country: Canada
*Format: mp3@CBR320kbps
*Size: 121MB

Tracklist:
01. Welcome To Hollywood 3:38
02. Anywhere But Here 2:58
03. Something About Her 2:33
04. Luckiest Girl In The World 2:57
05. Rodeo Drive 3:05)
06. On A Night Like Tonight 3:14
07. Don't Forget To Dance 3:21
08. Freedom 3:20
09. You're Beautiful 3:27
10. This Is Your Life 4:07
11. Never Give Up On A Dream 2:46
12. You And I 4:26
13. I Could Get Used To This 1:58
14. You Can't Go Back 3:21
15. Long Way Home 3:22
16. Together Forever 2:26
******************************
Total playing time: 50:59



[more=Technical info]
Input File: 04. Luckiest Girl In The World.mp3
Channels : 2
Sample Rate : 48000
Precision : 16-bit
Duration : 00:02:56.74 = 8483328 samples ~ 13255.2 CDDA sectors
File Size : 7.58M
Bit Rate : 343k
Sample Encoding: MPEG audio (layer I, II or III)
Comments :
Title=Luckiest Girl In The World
Artist=Bryan Adams
Album=Pretty Woman - The Musical
Tracknumber=04
Year=2022

[/more]

Register
(2) gwar, Olethros,
Feb 26 2022, 04:33:16 Scorpions - Rock Believer (2022)
When You Know - отличная баллада же
поеду бухать и слушать новый альбом!!!!!!
(1) Diflock,
Feb 19 2022, 22:41:52 Cantodea Dianthus - Olhando Para As Estrelas [ep] (2021)


*Artist: Cantodea Dianthus
*Album: Olhando Para As Estrelas [ep]
*Year: 2021
*Genre: Depressive Black Metal
*Country: Mexico
*Format: mp3@VBR128kbps
*Size: 13MB

Tracklist:
1, Consuelo De Desolación 5:50
2, Ecos De Nostalgia 6:16
3, Retorno Del Fin 1:26
******************************
Total playing time: 13:32



[more=Technical info]
Input File: Cantodea Dianthus - Ecos De Nostalgia.mp3
Channels : 2
Sample Rate : 44100
Precision : 16-bit
Duration : 00:06:16.09 = 16585701 samples = 28207 CDDA sectors
File Size : 6.02M
Bit Rate : 128k
Sample Encoding: MPEG audio (layer I, II or III)
Comments :
Artist=Cantodea Dianthus
Tracknumber=2
Year=2021
Genre=Black Metal

[/more]

Register
(7) aleon, artscald, Dante_D, kim666, stormhatt, varlam4, vasiljev_sergej,
Jan 31 2022, 20:44:21 Александр Пушной - Пушной.Ru (2008)


*Artist: Александр Пушной
*Album: Пушной.Ru
*Year: 2008
*Genre: Rock
*Country: Russian Federation
*Format: mp3@CBR320kbps
*Size: 95MB

Tracklist:
1. Черный ВоРАММ 3:15
2. Слава Богу, Ты Пришел! 2:47
3. Надо радоваться! 1:31
4. ЛаЛаЛа 2:11
5. Валенки, Валенки 2:59
6. А Ленин всех послал на Первомай 2:01
7. Песенка одной гЁрлы 2:47
8. Парикмахер 2:33
9. Что стоишь, качаясь… 2:35
10. Одинокая harm-онь (blues version) 4:17
11. Во кузнице (AC/DC version) 2:42
12. Невезуха – нету слуха 2:45
13. СПЛИН-ани это!!! 2:17
14. Что же делать? 1:35
15. Зима 3:41
16. What if I 3:16
******************************
Total playing time: 43:12




[more=Technical info]
Input File: 05. Балалайка (cover version).mp3
Channels : 2
Sample Rate : 44100
Precision : 16-bit
Duration : 00:03:35.79 = 9516339 samples = 16184.2 CDDA sectors
File Size : 8.69M
Bit Rate : 322k
Sample Encoding: MPEG audio (layer I, II or III)
Comments :
Title=Балалайка (cover version)
Artist=Александр Пушной
Album=Каверы Пушного
Tracknumber=5/16
Year=2021
Genre=17
Discnumber=1/1

[/more]

Register
(3) A.L.Rapsod, Olethros, VALERY,
Jan 28 2022, 07:02:00 Блёв - Земля (2020)
ЦИТАТА(Hell_Is_Here @ Jan 13 2022, 20:05:08) *
Ссылка сдохла. 21.gif

Register
(1) Hell_Is_Here,
Jan 28 2022, 05:52:06 Александр Пушной - Каверы Пушного (2021)


*Artist: Александр Пушной
*Album: Каверы Пушного
*Year: 2021
*Genre: Rock
*Country: Russian Federation
*Format: mp3@CBR320kbps
*Size: 118MB

Tracklist:
01. Трава у дома (cover version) 02:52
02. От винта! (cover version) 02:56
03. 6 кадров (cover version) 02:32
04. День рожденья (cover version) 03:09
05. Балалайка (cover version) 03:35
06. Кукушка (cover version) 03:35
07. Всё идёт по плану (cover version) 04:02
08. Я – то, что надо (cover version) 03:24
09. Как на войне (cover version) 03:03
10. 18 мне уже (cover version) 02:58
11. Эй, ухнем (cover version) 04:07
12. Навернопотомучто (cover version) 02:48
13. Улетели листья (cover version) 02:40
14. Галилео рок-титры (cover version) 02:24
15. Переведи меня через майдан (cover version) 03:00
16. Песенка Красной Шапочки (cover version) 03:57
******************************
Total playing time: 51:02



[more=Technical info]
Input File: 06. Кукушка (cover version).mp3
Channels : 2
Sample Rate : 44100
Precision : 16-bit
Duration : 00:03:35.49 = 9503109 samples = 16161.8 CDDA sectors
File Size : 8.67M
Bit Rate : 322k
Sample Encoding: MPEG audio (layer I, II or III)
Comments :
Title=Кукушка (cover version)
Artist=Александр Пушной
Album=Каверы Пушного
Tracknumber=6/16
Year=2021
Genre=17
Discnumber=1/1

[/more]

Register
(12) 6666666, A.L.Rapsod, Emm Human, Ganimed, gwar, judaz, KLOP, Olethros, sabr, VALERY, Xor, Сварог Барг,
Jan 26 2022, 04:47:45 Ectoplasma - Inferna Kabbalah (2022)
Воланд красиво расписал....только вокалист паршивый и музыка не интересная.
(1) Metalass,
Jan 22 2022, 11:22:25 Blue Merrow - Blue Merrow (2022)
завораживает!!!!
(1) vosmidesijatye,
Jan 21 2022, 05:12:14 Nightbringer - Death And The Black Work (2008)
ЦИТАТА(sacramentary @ Jan 21 2022, 03:44:13) *
reupload please

Register
(1) sacramentary,
Jan 13 2022, 05:27:19 Dawn Of A Dark Age - Le Forche Caudine 321 A.C - 2021 D.C. (2021)
охренеть группа
с таким разгоном и музыкой подумал ПАГАН играют

срочно качать другие альбомы!!!!
(1) StabWound,
Jan 11 2022, 05:24:30 Legion Of Doom - Ceremony Of Domination [compilation] (2018)
проще все альбомы переслушать,группа итак хорошая
(1) Mencae77,
Dec 24 2021, 05:33:16 Lacrimosa - Leidenschaft (2021)
батюшки ....а я и 17 года не слышал оказывается
побежал слушать,классику пропускать не простительно!
(1) Bruce,
Dec 9 2021, 05:32:40 Блёв - Земля (2020)


*Artist: Блёв
*Album: Земля
*Year: 2020
*Genre: Black Metal
*Country: Russian Federation
*Format: mp3@CBR320kbps
*Size: 78MB

Tracklist:
01.Не Будет Прощенья 02:56
02.Время Разрушений 03:11
03.Линия Обороны Пробита Врагом 03:32
04.Миллионы Трупов Жаждут Мести 04:55
05.Месть 03:59
06.Всё За Идею 05:08
07.Земля 04:48
08.Новое Солнце 02:32
09.Старое Солнце 03:15
******************************
Total playing time: 34:16




[more=Technical info]
Input File: 03. Линия Обороны Пробита Врагом.mp3
Channels : 2
Sample Rate : 44100
Precision : 16-bit
Duration : 00:03:32.51 = 9371779 samples = 15938.4 CDDA sectors
File Size : 8.61M
Bit Rate : 324k
Sample Encoding: MPEG audio (layer I, II or III)
Comments :
Title=Линия Обороны Пробита Врагом
Artist=Блёв
Album=Земля
Tracknumber=03/09
Year=2020
Genre=Black Metal\Grindcore

[/more]

Register
(19) AlexSmith, Aresson, artscald, caro, Hexer, infiltrator, kim666, Olethros, robertho777, SilentNidhogg, stormhatt, supremo, VALERY, varlam4, vasiljev_sergej, Wail, Wilczygniew Strzygoń, wreak, Сварог Барг,
Nov 22 2021, 18:44:54 Innerdead - Reflections Of Despair (2019)


*Artist: Innerdead
*Album: Reflections Of Despair
*Year: 2019
*Genre: Black Metal
*Country: Russian Federation
*Format: mp3@CBR320kbps
*Size: 101MB

Tracklist:
1.Здорово и вечно (Гражданская оборона cover) 4:54
2.Песнь 2 (Батюшка cover) 7:34
3.Sterile Nails and Thunderbowels (Silencer cover) 6:54
4.Likgiltighetens slutstation (Apati cover) 5:16
5.Brand (Lifelover cover) 3:25
6.Shining Hollow (Advent Sorrow cover) 6:21
7.Same Old Sufferings (Imber Luminis cover) 3:09
******************************
Total playing time: 37:33


Preview 2

[more=Technical info]
Input File: 03. Innerdead - Sterile Nails and Thunderbowels (Silencer cover).mp3
Channels : 2
Sample Rate : 48000
Precision : 16-bit
Duration : 00:06:54.48 = 19895184 samples ~ 31086.2 CDDA sectors
File Size : 17.0M
Bit Rate : 329k
Sample Encoding: MPEG audio (layer I, II or III)
Comments :
Title=Sterile Nails and Thunderbowels (Silencer cover)
Artist=Innerdead
Album=Reflections of Despair
Tracknumber=03
Year=2019

[/more]

Register
(12) artscald, caro, julianotidre, kim666, Olethros, stormhatt, supremo, VALERY, varlam4, vasiljev_sergej, Wail, wreak,
Nov 20 2021, 08:07:33 Heksena - ...Of Cosmic Absence (2016)


*Artist: Heksena
*Album: ...Of Cosmic Absence
*Year: 2016
*Genre: Depressive Black Metal
*Country: Finland
*Format: mp3@CBR320kbps
*Size: 117MB

Tracklist:
1.The Forest of Decaying Land 08:12
2.Echoing Sanctuary 04:18
3....Of Cosmic Absence 07:44
4.Timeless 05:49
******************************
Total playing time: 26:03




[more=Technical info]
Input File: heksena-the-forest-of-decaying-land.mp3
Channels : 2
Sample Rate : 44100
Precision : 16-bit
Duration : 00:08:12.33 = 21711929 samples = 36925 CDDA sectors
File Size : 19.8M
Bit Rate : 322k
Sample Encoding: MPEG audio (layer I, II or III)
Comments :
Title=The Forest of Decaying Land
Artist=Heksena
Album=...Of Cosmic Absence
Tracknumber=1
Year=2016

[/more]

Register
(12) artscald, Carcharoth, caro, julianotidre, kim666, randumbum, SilentNidhogg, stub888, supremo, varlam4, vasiljev_sergej, wreak,
Nov 20 2021, 08:04:03 Heksena - Ethereal (2016)


*Artist: Heksena
*Album: Ethereal
*Year: 2016
*Genre: Depressive Black Metal
*Country: Finland
*Format: mp3@CBR320kbps
*Size: 58MB

Tracklist:
1.Forthcoming Void 04:02
2.Ethereal 09:11
3.Vortex of the Forlorn 02:56
4.Astral Sorrow 08:50
******************************
Total playing time: 24:59




[more=Technical info]
Input File: heksena-ethereal.mp3
Channels : 2
Sample Rate : 44100
Precision : 16-bit
Duration : 00:09:11.27 = 24310963 samples = 41345.2 CDDA sectors
File Size : 22.1M
Bit Rate : 321k
Sample Encoding: MPEG audio (layer I, II or III)
Comments :
Title=Ethereal
Artist=Heksena
Album=Ethereal
Tracknumber=2
Year=2016

[/more]

Register
(13) AlexSmith, artscald, Carcharoth, caro, julianotidre, kim666, Olethros, randumbum, SilentNidhogg, stub888, supremo, varlam4, vasiljev_sergej,
Nov 16 2021, 05:33:02 Θλίψις​ - Θλίψις​ [ep] (2021)
он просто не знает дедушку UNGOD
(1) Occultas,
Nov 1 2021, 05:58:46 Apallic - Somnium [ep] (2015)


*Artist: Apallic
*Album: Somnium [ep]
*Year: 2015
*Genre: Melodic Death Metal
*Country: Germany
*Format: mp3@CBR320kbps
*Size: 35MB

Tracklist:
1. The Awakening 04:09
2. Mental Prison 05:51
3. Deranged 04:10
******************************
Total playing time: 14:10



[more=Technical info]
Input File: 01. The Awakening.mp3
Channels : 2
Sample Rate : 44100
Precision : 16-bit
Duration : 00:04:09.07 = 10983899 samples = 18680.1 CDDA sectors
File Size : 10.1M
Bit Rate : 324k
Sample Encoding: MPEG audio (layer I, II or III)
Comments :
Title=The Awakening
Artist=Apallic
Album=Somnium (EP)
Tracknumber=01/03
Year=2015
Genre=Progressive Melodic Death Metal

[/more]

Register
(12) artscald, BugEyes, caro, julianotidre, Olethros, sergsazan, Svafrlami, Taakeferd, varlam4, wanderer73, wreak, zhol,
Sep 25 2021, 06:07:55 Blacksword - Alive Again (2021)
эта группа намного лучше крутой солянки из Valentin Lezjenda's Speed of Darkness — Альтернативная реальность (2021)
(1) Foneg,
Sep 2 2021, 07:12:31 Mystic Storm - Из Хаоса Древних Времен (2021)
я полностью упоролся этим альбомом!!!!

сразу в топ наших команд!!!! pray.gif 20.gif
(1) Leshiy666,

21 Pages V   1 2 3 > » 
- Lo-Fi Version Support form
Copyrights and abuse reports form
Time is now: 5th July 2022 - 13:56:57