Welcome Guest ( Log In | Register )

История благодарностей участнику Victim of fate ::: Спасибо сказали: 2318 раз(а)
Дата поста: В теме: За сообщение: Спасибо сказали:
May 23 2021, 20:52:31 Gravkväde - Grav|Vind [ep] (2021)
ЦИТАТА(Okultista @ Apr 26 2021, 20:45:29) *
Gravkväde это очень интересное явление в музыкальном андеграунде Швеции. На данном EP был обыгран классический трек от Darkthrone в очень интересном ключе. А свой собственный трек Lidandet представляет из себя тот самый Funeral Doom Metal переплетенный с Блэк Металом настолько тесно, насколько это возможно. Если вам мало наследия от датского Nortt, то Gravkväde это рекомендация к незамедлительному ознакомлению.

1 песня- атмо/депра отличная
2песня -*хрень полная

всё!
(1) Occultas,
May 7 2021, 05:30:55 Ereb Altor - Eldens Boning [ep] (2021)
здесь опять всё слащаво,надо возвращаться к старым работам....
(1) alex-82,
May 5 2021, 04:10:18 Metalblack - Осколки (2020)
очередной альбом в помойку
(2) VerminGhost, yuratroll,
Apr 27 2021, 20:16:32 Terror - Trapped In A World (2021)


*Artist: Terror
*Album: Trapped In A World
*Year: 2021
*Genre: Hardcore
*Country: United States
*Format: mp3@CBR320kbps
*Size: 59MB

Tracklist:
01. Lowest of the Low 1:52
02. Life and Death 1:06
03. Out of My Face 2:20
04. Keep Your Distance 1:27
05. Less Than Zero 1:47
06. Overcome 2:32
07. Better off Without You 2:12
08. Crushed by the Truth 1:04
09. Not This Time 2:57
10. One with the Underdogs 1:28
11. Keep Your Mouth Shut 2:22
12. Push It Away 2:10
******************************
Total playing time: 21:07



[more=Technical info]
Input File: 02 Life and Death.mp3
Channels : 2
Sample Rate : 44100
Precision : 16-bit
Duration : 00:01:07.06 = 2957478 samples = 5029.72 CDDA sectors
File Size : 3.10M
Bit Rate : 369k
Sample Encoding: MPEG audio (layer I, II or III)
Comments :
Title=Life and Death (Trapped In A World Sessions)
Artist=Terror
Album=Trapped In A World
Tracknumber=2/12
Year=2021-21-20
Genre=9
Discnumber=1/1

[/more]

Register
(10) Brann, CRUNCH, DMIYUR, gwar, infiltrator, Konst, mikkah, Olethros, Ostinato, popen13,
Apr 16 2021, 06:23:33 Melkor - Brandmale (2021)
музыка хороша и спокойна,голос не всем подайдёт

я уж подумал Хорваты возрадились....
(1) mondlicht,
Apr 15 2021, 20:34:28 Sinly Dreams - No More Religeon (1995)


*Artist: Sinly Dreams
*Album: No More Religeon
*Year: 1995
*Genre: Avant-Garde Doom Metal
*Country: Russian Federation
*Format: mp3@CBR320kbps
*Size: 74MB

Tracklist:
1. Intro Do You Die For Me 02:11
2. I'm Fire Hell 02:45
3. Satan Of Jesus, Jesus Of Satan 02:55
4. My Necroland 02:17
5. Hey, Jesus! 03:13
6. Epelepsy Inside Madride 01:51
7. Dismember To Abbat 03:20
8. Horror Mistery 02:58
9. Divine Incest 02:26
10. St. Maria In Chains 02:36
11. No More Religeon 03:40
12. Panflute Of Full Moon 01:10
13. Uotro Holy Of Annholy 05:21
******************************
Total playing time: 36:43

Preview 1

[more=Extended info]Side project of members and ex-members of Butterfly Temple[/more]

[more=Technical info]
Input File: 03 Satan of Jesus, Jesus of Satan.mp3
Channels : 2
Sample Rate : 44100
Precision : 16-bit
Duration : 00:02:54.79 = 7708283 samples = 13109.3 CDDA sectors
File Size : 7.00M
Bit Rate : 320k
Sample Encoding: MPEG audio (layer I, II or III)
Comments :
Title=Satan of Jesus, Jesus of Satan
Artist=Sinly Dreams
Album=No more religeon
Tracknumber=3
Year=1995
Genre=12

[/more]

Register
(14) Bregon, caro, chipsgott, infiltrator, kimkayoung, metala, Olethros, randumbum, skidnik, stumpheavyrock, Svafrlami, VALERY, varlam4, wreak,
Apr 7 2021, 21:37:55 Tash - Death (2021)


*Artist: Tash
*Album: Death
*Year: 2021
*Genre: Black/Death Metal
*Country: United States
*Format: mp3@CBR320kbps
*Size: 125MB

Tracklist:
1.Tash - A Good Death 5:38
2.Tash - Descent into Horror 4:53
3.Tash - Tome 6:23
4.Tash - Follower 5:08
5.Tash - Profane Darkness 4:28
6.Tash - To Linger Here 5:12
7.Tash - Wolven 3:40
8.Tash - Children of the Night 3:56
9.Tash - Hollennacht 4:25
10.Tash - Alter of Opinion 5:16
11.Tash - Transcendent Lie 5:37
******************************
Total playing time: 54:36



[more=Technical info]
Input File: 03. Tome.mp3
Channels : 2
Sample Rate : 44100
Precision : 16-bit
Duration : 00:06:23.08 = 16893828 samples = 28731 CDDA sectors
File Size : 15.4M
Bit Rate : 321k
Sample Encoding: MPEG audio (layer I, II or III)
Comments :
Title=Tome
Artist=Tash
Album=Death
Tracknumber=3
Year=2021

[/more]

Register
(1) Shadechaser,
Apr 5 2021, 05:47:06 Ignis Gehenna - Rites Of Transvaluation (2020)
хоть и старичок - а заливать не научился( всё без тэгов)
(1) Occultas,
Mar 14 2021, 14:10:22 Ecpatia - Ecpatia (2020)


*Artist: Ecpatia
*Album: Ecpatia
*Year: 2020
*Genre: Depressive Black Metal
*Country: Costa Rica
*Format: mp3@CBR320kbps
*Size: 121MB

Tracklist:
1.Ecpatía - Home 03:23
2.Ecpatía - Sacrificium 03:34
3.Ecpatía - Aileen 06:03
4.Ecpatía - Alone 04:24
5.Ecpatía - In The Edge 07:25
6.Ecpatía - Ecpati 08:22
7.Ecpatía - In The Mirror 04:28
8.Ecpatía - Gone 06:38
9.Ecpatía - Adios Definitivo 05:08
10.Ecpatía - Another Stone In The River 04:51
******************************
Total playing time: 54:16




[more=Technical info]
Input File: ecpatia-alone.mp3
Channels : 2
Sample Rate : 44100
Precision : 16-bit
Duration : 00:04:24.09 = 11646325 samples = 19806.7 CDDA sectors
File Size : 10.6M
Bit Rate : 322k
Sample Encoding: MPEG audio (layer I, II or III)
Comments :
Title=Alone
Artist=Ecpatía
Album=Ecpatía
Tracknumber=04/10
Year=2020
Genre=Depressive Black Metal

[/more]

Register
(9) infiltrator, kim666, metala, Olethros, SilentNidhogg, stone88, VALERY, varlam4, vasiljev_sergej,
Feb 19 2021, 20:32:50 Lake Of Tears - Ominous (2021)
чего тут писать: Шляпа, она и в африке Шляпа (Боярский)
(3) Andrew, infiltrator, Shadowman,
Feb 7 2021, 17:33:43 Satan's Fall - Seven Nights [demo] (2016)


*Artist: Satan's Fall
*Album: Seven Nights [demo]
*Year: 2016
*Genre: Heavy/Speed Metal
*Country: Finland
*Format: mp3@CBR320kbps
*Size: 24MB

Tracklist:
01. Poisonhead 3:22
02. Steel Highway 3:47
03. Seven Nights 3:19
******************************
Total playing time: 10:28



[more=Technical info]
Input File: 01 - Poisonhead.mp3
Channels : 2
Sample Rate : 44100
Precision : 16-bit
Duration : 00:03:21.95 = 8905863 samples = 15146 CDDA sectors
File Size : 8.20M
Bit Rate : 325k
Sample Encoding: MPEG audio (layer I, II or III)
Comments :
Title=Poisonhead
Artist=Satan's Fall
Album=Seven Nights
Tracknumber=1/3
Year=2016
Genre=Heavy Metal

[/more]

Register
(17) caro, infiltrator, Marek, marilin, Mogozoz, nord6666, Olethros, Rosen, smes, smysl, stumpheavyrock, Taakeferd, varlam4, Wail, wgs73, wreak, Yngwarr,
Feb 7 2021, 17:30:21 Satan's Fall - Metal Of Satan [ep] (2016)


*Artist: Satan's Fall
*Album: Metal Of Satan [ep]
*Year: 2016
*Genre: Heavy/Speed Metal
*Country: Finland
*Format: mp3@CBR320kbps
*Size: 35MB

Tracklist:
01. Metal of Satan 3:57
02. Riders of the Night 3:26
03. The Beast Rises 4:07
04. False Idols 3:11
******************************
Total playing time: 14:41



[more=Technical info]
Input File: 01 - Metal of Satan.mp3
Channels : 2
Sample Rate : 44100
Precision : 16-bit
Duration : 00:03:57.23 = 10461623 samples = 17791.9 CDDA sectors
File Size : 9.73M
Bit Rate : 328k
Sample Encoding: MPEG audio (layer I, II or III)
Comments :
Title=Metal of Satan
Artist=Satan's Fall
Album=Metal of Satan
Tracknumber=1/4
Year=2016
Genre=Heavy Metal

[/more]

Register
(18) caro, chipsgott, EvgeniusLongus, infiltrator, Marek, marilin, Mogozoz, nord6666, Rosen, smes, smysl, stumpheavyrock, Taakeferd, varlam4, Wail, wgs73, wreak, Yngwarr,
Feb 6 2021, 06:53:17 Def Leppard - Electric Warriors (2021)


*Artist: Def Leppard
*Album: Electric Warriors
*Year: 2021
*Genre: Nwobhm
*Country: United Kingdom
*Format: mp3@CBR320kbps
*Size: 59MB

Tracklist:
01. Getcha Rocks Off (Single Version) 3:39
02. Good Morning Freedom 2:59
03. On Through The Night (Remastered 2018) 5:06
04. Desert Song 5:18
05. Paper Sun 5:27
06. Bad Actress 3:03
******************************
Total playing time: 25:32



[more=Extended info]Def Leppard запускает новую серию тематических плейлистов с плейлистом «Electric Warriors». С прошлого года Свифт выпускает то, что она называет «Chapters» - мини-плейлисты песен из своих фольклорных и других альбомов, упорядоченные по тематике или настроению. Теперь Def Leppard делает нечто подобное: они объявили о запуске еженедельной серии «Thematic Artist Compilations»[/more]

[more=Technical info]
Input File: 2. Good Morning Freedom.mp3
Channels : 2
Sample Rate : 44100
Precision : 16-bit
Duration : 00:00:00.18 = 7894 samples = 13.4252 CDDA sectors
File Size : 7.36M
Bit Rate : 329M
Sample Encoding: MPEG audio (layer I, II or III)
Comments :
Title=Good Morning Freedom
Artist=Def Leppard
Album=Electric Warriors
Tracknumber=2
Year=2021
Genre=Rock
Discnumber=1

[/more]

Register
(15) after21allD, Aresson, caro, gwar, infiltrator, Lukittaz, Olethros, Olrak, randumbum, Reverend, Rosen, Rover, SaintVitus, varlam4, wreak,
Feb 3 2021, 05:16:55 Sorg - Kvedur Norna Kalda Raust (2021)
не пробегаем,пролетаем мимо....
(2) AHBAnep, infiltrator,
Jan 28 2021, 19:18:39 Va - Трибьют Сектор Газа [compilation] (2020)
диву даёшься кто здесь пишет)))
либо вам за 47 лет или вам нет 33
наверное тут эстеты с дипломами МГУ и Бауманки которые начали слушать классику с переходами на всемогущий старый американский хэви,блюз,хард и т.д.
а сейчас вы кайфуете от стоунера,психодела,амбиента и заумного прогресива

не лезьте к Сектору (для многих они были центром бунтарства и отдыха от земной суеты).
слушаю и буду пока не сдохну слушать!!!
(2) Proteus_666, металлист,
Jan 25 2021, 05:46:11 Roadwolf - Unchain The Wolf (2020)
вот что лучше слушать ,а не новый АССЕРТ...
(1) Andrew,
Jan 23 2021, 07:07:37 Accept - Too Mean To Die (2021)
не могу я слушать свиноподобный вокал
ещё можно до середины 80-х,а сейчас это ножом по яйцам....
(2) Branis, infiltrator,
Jan 22 2021, 05:08:53 Potemtum Satan - Depressives Possessions [demo] (2012)
почему все кривые?
INDARKNESS - не ту демку скинул
MortSathynr - не демку ,а альбом скинул

хахахахах
(1) Lafii,
Jan 21 2021, 05:22:39 Д.и.в. - Ретроспектива [compilation] (2021)
а где моя любимая Русский мороз?
(2) infiltrator, Occultas,
Jan 16 2021, 07:12:35 Sunyata - The Great Beyond (2020)
под такую музыку пазлы хорошо собирать!!!
(1) Bloodn Lord,
Jan 1 2021, 07:25:58 Existentialist - Prophet Of Ignorance (2020)
для кого написано: blackeneddeathcore ?
или все уже пьяные)))))
(2) AHBAnep, Metalass,
Dec 28 2020, 05:36:09 Postnecrum - De Nocte Vento (2020)
посмотрел превью выступления в холле Газпрома и удалил сразу 5.gif
(1) Metalass,
Dec 26 2020, 19:55:07 Dark Doom - Mourning's End (2020)
ЦИТАТА(Bloodn Lord @ Nov 9 2020, 07:57:02) *
Смотря где слушать, разумеетсяsmile1.gif
На хай энд напольных колонках, согласен, средне.
В хороших наушниках в хорошем плеере - абсолютно нормально.

скажу больше и на компьютерных колонках Creative за 2500 косаря нормально слушать))))
(1) Bloodn Lord,
Dec 25 2020, 05:40:00 Hate Forest - Hour Of The Centaur (2020)
для любителей старой формации -это классика
для новичков- не пойдёт

оставлю как память....
(2) BERZERK, infiltrator,
Dec 24 2020, 17:06:56 Ulvhedner - Legd (2020)
ЦИТАТА(isvili @ Dec 23 2020, 16:40:38) *
По сути это Raw Black Metal

все раушники плачут шишками))))
(1) WOLAND,

20 Pages V   1 2 3 > » 
- Lo-Fi Version Support form
Copyrights and abuse reports form
Time is now: 22nd June 2021 - 02:44:16