Welcome Guest ( Log In | Register )

История благодарностей участнику Victim of fate ::: Спасибо сказали: 2404 раз(а)
Дата поста: В теме: За сообщение: Спасибо сказали:
Jan 13 2022, 05:27:19 Dawn Of A Dark Age - Le Forche Caudine 321 A.C - 2021 D.C. (2021)
охренеть группа
с таким разгоном и музыкой подумал ПАГАН играют

срочно качать другие альбомы!!!!
(1) StabWound,
Jan 11 2022, 05:24:30 Legion Of Doom - Ceremony Of Domination [compilation] (2018)
проще все альбомы переслушать,группа итак хорошая
(1) Mencae77,
Dec 24 2021, 05:33:16 Lacrimosa - Leidenschaft (2021)
батюшки ....а я и 17 года не слышал оказывается
побежал слушать,классику пропускать не простительно!
(1) Bruce,
Dec 9 2021, 05:32:40 Блёв - Земля (2020)


*Artist: Блёв
*Album: Земля
*Year: 2020
*Genre: Black Metal
*Country: Russian Federation
*Format: mp3@CBR320kbps
*Size: 78MB

Tracklist:
01.Не Будет Прощенья 02:56
02.Время Разрушений 03:11
03.Линия Обороны Пробита Врагом 03:32
04.Миллионы Трупов Жаждут Мести 04:55
05.Месть 03:59
06.Всё За Идею 05:08
07.Земля 04:48
08.Новое Солнце 02:32
09.Старое Солнце 03:15
******************************
Total playing time: 34:16




[more=Technical info]
Input File: 03. Линия Обороны Пробита Врагом.mp3
Channels : 2
Sample Rate : 44100
Precision : 16-bit
Duration : 00:03:32.51 = 9371779 samples = 15938.4 CDDA sectors
File Size : 8.61M
Bit Rate : 324k
Sample Encoding: MPEG audio (layer I, II or III)
Comments :
Title=Линия Обороны Пробита Врагом
Artist=Блёв
Album=Земля
Tracknumber=03/09
Year=2020
Genre=Black Metal\Grindcore

[/more]

Register
(19) AlexSmith, Aresson, artscald, caro, Hexer, infiltrator, kim666, Olethros, robertho777, SilentNidhogg, stormhatt, supremo, VALERY, varlam4, vasiljev_sergej, Wail, Wilczygniew Strzygoń, wreak, Сварог Барг,
Nov 22 2021, 18:44:54 Innerdead - Reflections Of Despair (2019)


*Artist: Innerdead
*Album: Reflections Of Despair
*Year: 2019
*Genre: Black Metal
*Country: Russian Federation
*Format: mp3@CBR320kbps
*Size: 101MB

Tracklist:
1.Здорово и вечно (Гражданская оборона cover) 4:54
2.Песнь 2 (Батюшка cover) 7:34
3.Sterile Nails and Thunderbowels (Silencer cover) 6:54
4.Likgiltighetens slutstation (Apati cover) 5:16
5.Brand (Lifelover cover) 3:25
6.Shining Hollow (Advent Sorrow cover) 6:21
7.Same Old Sufferings (Imber Luminis cover) 3:09
******************************
Total playing time: 37:33


Preview 2

[more=Technical info]
Input File: 03. Innerdead - Sterile Nails and Thunderbowels (Silencer cover).mp3
Channels : 2
Sample Rate : 48000
Precision : 16-bit
Duration : 00:06:54.48 = 19895184 samples ~ 31086.2 CDDA sectors
File Size : 17.0M
Bit Rate : 329k
Sample Encoding: MPEG audio (layer I, II or III)
Comments :
Title=Sterile Nails and Thunderbowels (Silencer cover)
Artist=Innerdead
Album=Reflections of Despair
Tracknumber=03
Year=2019

[/more]

Register
(12) artscald, caro, julianotidre, kim666, Olethros, stormhatt, supremo, VALERY, varlam4, vasiljev_sergej, Wail, wreak,
Nov 20 2021, 08:07:33 Heksena - ...Of Cosmic Absence (2016)


*Artist: Heksena
*Album: ...Of Cosmic Absence
*Year: 2016
*Genre: Depressive Black Metal
*Country: Finland
*Format: mp3@CBR320kbps
*Size: 117MB

Tracklist:
1.The Forest of Decaying Land 08:12
2.Echoing Sanctuary 04:18
3....Of Cosmic Absence 07:44
4.Timeless 05:49
******************************
Total playing time: 26:03




[more=Technical info]
Input File: heksena-the-forest-of-decaying-land.mp3
Channels : 2
Sample Rate : 44100
Precision : 16-bit
Duration : 00:08:12.33 = 21711929 samples = 36925 CDDA sectors
File Size : 19.8M
Bit Rate : 322k
Sample Encoding: MPEG audio (layer I, II or III)
Comments :
Title=The Forest of Decaying Land
Artist=Heksena
Album=...Of Cosmic Absence
Tracknumber=1
Year=2016

[/more]

Register
(12) artscald, Carcharoth, caro, julianotidre, kim666, randumbum, SilentNidhogg, stub888, supremo, varlam4, vasiljev_sergej, wreak,
Nov 20 2021, 08:04:03 Heksena - Ethereal (2016)


*Artist: Heksena
*Album: Ethereal
*Year: 2016
*Genre: Depressive Black Metal
*Country: Finland
*Format: mp3@CBR320kbps
*Size: 58MB

Tracklist:
1.Forthcoming Void 04:02
2.Ethereal 09:11
3.Vortex of the Forlorn 02:56
4.Astral Sorrow 08:50
******************************
Total playing time: 24:59




[more=Technical info]
Input File: heksena-ethereal.mp3
Channels : 2
Sample Rate : 44100
Precision : 16-bit
Duration : 00:09:11.27 = 24310963 samples = 41345.2 CDDA sectors
File Size : 22.1M
Bit Rate : 321k
Sample Encoding: MPEG audio (layer I, II or III)
Comments :
Title=Ethereal
Artist=Heksena
Album=Ethereal
Tracknumber=2
Year=2016

[/more]

Register
(13) AlexSmith, artscald, Carcharoth, caro, julianotidre, kim666, Olethros, randumbum, SilentNidhogg, stub888, supremo, varlam4, vasiljev_sergej,
Nov 16 2021, 05:33:02 Θλίψις​ - Θλίψις​ [ep] (2021)
он просто не знает дедушку UNGOD
(1) Occultas,
Nov 1 2021, 05:58:46 Apallic - Somnium [ep] (2015)


*Artist: Apallic
*Album: Somnium [ep]
*Year: 2015
*Genre: Melodic Death Metal
*Country: Germany
*Format: mp3@CBR320kbps
*Size: 35MB

Tracklist:
1. The Awakening 04:09
2. Mental Prison 05:51
3. Deranged 04:10
******************************
Total playing time: 14:10



[more=Technical info]
Input File: 01. The Awakening.mp3
Channels : 2
Sample Rate : 44100
Precision : 16-bit
Duration : 00:04:09.07 = 10983899 samples = 18680.1 CDDA sectors
File Size : 10.1M
Bit Rate : 324k
Sample Encoding: MPEG audio (layer I, II or III)
Comments :
Title=The Awakening
Artist=Apallic
Album=Somnium (EP)
Tracknumber=01/03
Year=2015
Genre=Progressive Melodic Death Metal

[/more]

Register
(12) artscald, BugEyes, caro, julianotidre, Olethros, sergsazan, Svafrlami, Taakeferd, varlam4, wanderer73, wreak, zhol,
Sep 25 2021, 06:07:55 Blacksword - Alive Again (2021)
эта группа намного лучше крутой солянки из Valentin Lezjenda's Speed of Darkness — Альтернативная реальность (2021)
(1) Foneg,
Sep 2 2021, 07:12:31 Mystic Storm - Из Хаоса Древних Времен (2021)
я полностью упоролся этим альбомом!!!!

сразу в топ наших команд!!!! pray.gif 20.gif
(1) Leshiy666,
Aug 27 2021, 05:07:09 Thyrfing - Vanagandr (2021)
а что тут говорить- одна из лучших команд Викинг металла
сразу в коллекцию)))
(1) Hexer,
Jun 29 2021, 20:20:51 Mystic Storm - Из Хаоса Древних Времен (2021)
музыка выше всех похвал,а с голосом надо разобраться
завтра буду слушать)))
(1) Leshiy666,
May 23 2021, 20:52:31 Gravkväde - Grav|Vind [ep] (2021)
ЦИТАТА(Okultista @ Apr 26 2021, 20:45:29) *
Gravkväde это очень интересное явление в музыкальном андеграунде Швеции. На данном EP был обыгран классический трек от Darkthrone в очень интересном ключе. А свой собственный трек Lidandet представляет из себя тот самый Funeral Doom Metal переплетенный с Блэк Металом настолько тесно, насколько это возможно. Если вам мало наследия от датского Nortt, то Gravkväde это рекомендация к незамедлительному ознакомлению.

1 песня- атмо/депра отличная
2песня -*хрень полная

всё!
(1) Occultas,
May 7 2021, 05:30:55 Ereb Altor - Eldens Boning [ep] (2021)
здесь опять всё слащаво,надо возвращаться к старым работам....
(1) alex-82,
May 5 2021, 04:10:18 Metalblack - Осколки (2020)
очередной альбом в помойку
(2) VerminGhost, yuratroll,
Apr 27 2021, 20:16:32 Terror - Trapped In A World (2021)


*Artist: Terror
*Album: Trapped In A World
*Year: 2021
*Genre: Hardcore
*Country: United States
*Format: mp3@CBR320kbps
*Size: 59MB

Tracklist:
01. Lowest of the Low 1:52
02. Life and Death 1:06
03. Out of My Face 2:20
04. Keep Your Distance 1:27
05. Less Than Zero 1:47
06. Overcome 2:32
07. Better off Without You 2:12
08. Crushed by the Truth 1:04
09. Not This Time 2:57
10. One with the Underdogs 1:28
11. Keep Your Mouth Shut 2:22
12. Push It Away 2:10
******************************
Total playing time: 21:07



[more=Technical info]
Input File: 02 Life and Death.mp3
Channels : 2
Sample Rate : 44100
Precision : 16-bit
Duration : 00:01:07.06 = 2957478 samples = 5029.72 CDDA sectors
File Size : 3.10M
Bit Rate : 369k
Sample Encoding: MPEG audio (layer I, II or III)
Comments :
Title=Life and Death (Trapped In A World Sessions)
Artist=Terror
Album=Trapped In A World
Tracknumber=2/12
Year=2021-21-20
Genre=9
Discnumber=1/1

[/more]

Register
(11) Brann, CRUNCH, DMIYUR, gwar, infiltrator, Konst, mikkah, Olethros, Ostinato, popen13, WX419,
Apr 16 2021, 06:23:33 Melkor - Brandmale (2021)
музыка хороша и спокойна,голос не всем подайдёт

я уж подумал Хорваты возрадились....
(1) mondlicht,
Apr 15 2021, 20:34:28 Sinly Dreams - No More Religeon (1995)


*Artist: Sinly Dreams
*Album: No More Religeon
*Year: 1995
*Genre: Avant-Garde Doom Metal
*Country: Russian Federation
*Format: mp3@CBR320kbps
*Size: 74MB

Tracklist:
1. Intro Do You Die For Me 02:11
2. I'm Fire Hell 02:45
3. Satan Of Jesus, Jesus Of Satan 02:55
4. My Necroland 02:17
5. Hey, Jesus! 03:13
6. Epelepsy Inside Madride 01:51
7. Dismember To Abbat 03:20
8. Horror Mistery 02:58
9. Divine Incest 02:26
10. St. Maria In Chains 02:36
11. No More Religeon 03:40
12. Panflute Of Full Moon 01:10
13. Uotro Holy Of Annholy 05:21
******************************
Total playing time: 36:43

Preview 1

[more=Extended info]Side project of members and ex-members of Butterfly Temple[/more]

[more=Technical info]
Input File: 03 Satan of Jesus, Jesus of Satan.mp3
Channels : 2
Sample Rate : 44100
Precision : 16-bit
Duration : 00:02:54.79 = 7708283 samples = 13109.3 CDDA sectors
File Size : 7.00M
Bit Rate : 320k
Sample Encoding: MPEG audio (layer I, II or III)
Comments :
Title=Satan of Jesus, Jesus of Satan
Artist=Sinly Dreams
Album=No more religeon
Tracknumber=3
Year=1995
Genre=12

[/more]

Register
(14) Bregon, caro, chipsgott, infiltrator, kimkayoung, metala, Olethros, randumbum, skidnik, stumpheavyrock, Svafrlami, VALERY, varlam4, wreak,
Apr 7 2021, 21:37:55 Tash - Death (2021)


*Artist: Tash
*Album: Death
*Year: 2021
*Genre: Black/Death Metal
*Country: United States
*Format: mp3@CBR320kbps
*Size: 125MB

Tracklist:
1.Tash - A Good Death 5:38
2.Tash - Descent into Horror 4:53
3.Tash - Tome 6:23
4.Tash - Follower 5:08
5.Tash - Profane Darkness 4:28
6.Tash - To Linger Here 5:12
7.Tash - Wolven 3:40
8.Tash - Children of the Night 3:56
9.Tash - Hollennacht 4:25
10.Tash - Alter of Opinion 5:16
11.Tash - Transcendent Lie 5:37
******************************
Total playing time: 54:36



[more=Technical info]
Input File: 03. Tome.mp3
Channels : 2
Sample Rate : 44100
Precision : 16-bit
Duration : 00:06:23.08 = 16893828 samples = 28731 CDDA sectors
File Size : 15.4M
Bit Rate : 321k
Sample Encoding: MPEG audio (layer I, II or III)
Comments :
Title=Tome
Artist=Tash
Album=Death
Tracknumber=3
Year=2021

[/more]

Register
(1) Shadechaser,
Apr 5 2021, 05:47:06 Ignis Gehenna - Rites Of Transvaluation (2020)
хоть и старичок - а заливать не научился( всё без тэгов)
(1) Occultas,
Mar 14 2021, 14:10:22 Ecpatia - Ecpatia (2020)


*Artist: Ecpatia
*Album: Ecpatia
*Year: 2020
*Genre: Depressive Black Metal
*Country: Costa Rica
*Format: mp3@CBR320kbps
*Size: 121MB

Tracklist:
1.Ecpatía - Home 03:23
2.Ecpatía - Sacrificium 03:34
3.Ecpatía - Aileen 06:03
4.Ecpatía - Alone 04:24
5.Ecpatía - In The Edge 07:25
6.Ecpatía - Ecpati 08:22
7.Ecpatía - In The Mirror 04:28
8.Ecpatía - Gone 06:38
9.Ecpatía - Adios Definitivo 05:08
10.Ecpatía - Another Stone In The River 04:51
******************************
Total playing time: 54:16




[more=Technical info]
Input File: ecpatia-alone.mp3
Channels : 2
Sample Rate : 44100
Precision : 16-bit
Duration : 00:04:24.09 = 11646325 samples = 19806.7 CDDA sectors
File Size : 10.6M
Bit Rate : 322k
Sample Encoding: MPEG audio (layer I, II or III)
Comments :
Title=Alone
Artist=Ecpatía
Album=Ecpatía
Tracknumber=04/10
Year=2020
Genre=Depressive Black Metal

[/more]

Register
(9) infiltrator, kim666, metala, Olethros, SilentNidhogg, stone88, VALERY, varlam4, vasiljev_sergej,
Feb 19 2021, 20:32:50 Lake Of Tears - Ominous (2021)
чего тут писать: Шляпа, она и в африке Шляпа (Боярский)
(3) Andrew, infiltrator, Shadowman,
Feb 7 2021, 17:33:43 Satan's Fall - Seven Nights [demo] (2016)


*Artist: Satan's Fall
*Album: Seven Nights [demo]
*Year: 2016
*Genre: Heavy/Speed Metal
*Country: Finland
*Format: mp3@CBR320kbps
*Size: 24MB

Tracklist:
01. Poisonhead 3:22
02. Steel Highway 3:47
03. Seven Nights 3:19
******************************
Total playing time: 10:28



[more=Technical info]
Input File: 01 - Poisonhead.mp3
Channels : 2
Sample Rate : 44100
Precision : 16-bit
Duration : 00:03:21.95 = 8905863 samples = 15146 CDDA sectors
File Size : 8.20M
Bit Rate : 325k
Sample Encoding: MPEG audio (layer I, II or III)
Comments :
Title=Poisonhead
Artist=Satan's Fall
Album=Seven Nights
Tracknumber=1/3
Year=2016
Genre=Heavy Metal

[/more]

Register
(17) caro, infiltrator, Marek, marilin, Mogozoz, nord6666, Olethros, Rosen, smes, smysl, stumpheavyrock, Taakeferd, varlam4, Wail, wgs73, wreak, Yngwarr,
Feb 7 2021, 17:30:21 Satan's Fall - Metal Of Satan [ep] (2016)


*Artist: Satan's Fall
*Album: Metal Of Satan [ep]
*Year: 2016
*Genre: Heavy/Speed Metal
*Country: Finland
*Format: mp3@CBR320kbps
*Size: 35MB

Tracklist:
01. Metal of Satan 3:57
02. Riders of the Night 3:26
03. The Beast Rises 4:07
04. False Idols 3:11
******************************
Total playing time: 14:41



[more=Technical info]
Input File: 01 - Metal of Satan.mp3
Channels : 2
Sample Rate : 44100
Precision : 16-bit
Duration : 00:03:57.23 = 10461623 samples = 17791.9 CDDA sectors
File Size : 9.73M
Bit Rate : 328k
Sample Encoding: MPEG audio (layer I, II or III)
Comments :
Title=Metal of Satan
Artist=Satan's Fall
Album=Metal of Satan
Tracknumber=1/4
Year=2016
Genre=Heavy Metal

[/more]

Register
(18) caro, chipsgott, EvgeniusLongus, infiltrator, Marek, marilin, Mogozoz, nord6666, Rosen, smes, smysl, stumpheavyrock, Taakeferd, varlam4, Wail, wgs73, wreak, Yngwarr,

21 Pages V   1 2 3 > » 
- Lo-Fi Version Support form
Copyrights and abuse reports form
Time is now: 19th January 2022 - 02:41:06