Welcome Guest ( Log In | Register )

История благодарностей участнику Razorbladeswaltz ::: Спасибо сказали: 2158 раз(а)
Дата поста: В теме: За сообщение: Спасибо сказали:
Jun 10 2021, 08:42:20 Percussor - Remnants Of Horror Redux (2019)
имеются смачные эпизоды, но в целом олдскульная кустарщина.
(1) Occultas,
Jun 2 2021, 23:54:46 Thromos - Taucht Ein ... In Finsternis (2018)
Thromos из альбома в альбом ваяют узнаваемый чермет, без изысков и выe60нов на стыке собственно немецкой и финской школ - сурово, мелодично, по канонам отцовЪ.
(1) Occultas,
May 31 2021, 22:13:06 Impaled Nazarene - Goat Of Mendes [ep] (2021)
нечасто стали финны радовать полноформатными релизами. перед прослушиванием нового альбома - неплохая затравка, порох есть. там, где ему быть полагается.
(1) Occultas,
May 30 2021, 22:49:09 Cannibal Corpse - Violence Unimagined (2021)
хороший альбом. дядя Жора только чёт совсем уж однообразен, но драйва хватает, Рутан влился зачётно.
(1) 6666666,
May 19 2021, 13:45:02 The Prophecy²³ - Fresh Metal (2020)
довольно забойный трэшак. ставлю лайк.
(1) DarkHorde,
May 10 2021, 13:38:23 Lobotomy - Holy Shit [ep] (2000)
reuploaded
Register
(3) thenecromancer, wendigo, Xtohar,
Apr 25 2021, 09:38:53 Lamb Of God - Laid To Rest [single] (2004)


*Artist: Lamb Of God
*Album: Laid To Rest [single]
*Year: 2004
*Genre: Groove Metal/Metalcore
*Country: United States
*Format: mp3@CBR320kbps
*Size: 18MB

Tracklist:
1. Laid to Rest (Clean Version) 03:55
2. Laid to Rest (Album Version) 03:53
******************************
Total playing time: 7:48

Preview 1

[more=Technical info]
Input File: 01 - Laid to Rest (Clean Version).mp3
Channels : 2
Sample Rate : 44100
Precision : 16-bit
Duration : 00:03:55.95 = 10405571 samples = 17696.5 CDDA sectors
File Size : 9.53M
Bit Rate : 323k
Sample Encoding: MPEG audio (layer I, II or III)
Comments :
Title=Laid to Rest (Clean Version)
Artist=Lamb of God
Album=Laid to Rest
Tracknumber=01/02
Year=2004
Genre=Metal

[/more]

Register
(7) caro, infiltrator, Marek, Olethros, Svafrlami, varlam4, wreak,
Mar 11 2021, 15:23:13 Malacath - Despondence (2015)
reuploaded
Register
(1) kim666,
Mar 7 2021, 14:30:03 Revenant Marquis - Youth In Ribbons (2020)
поржавевший Железный Дровосек, пребывая в делирии, сношает печку-буржуйку в чьём-то подвале с перерывами на побренчать. грохота много, смысла не очень.

для неистовых любителей энтого дела перезалил
Register
(1) peppuzzo,
Mar 1 2021, 11:17:35 Bloodmoon - Supervoid Trinity (2018)
reuploaded
Register
(1) kimkayoung,
Mar 1 2021, 10:59:12 Morgue 22 - Horror Metal [ep] (2019)
шустрый, неотёсанный, ядовитый трэшак в духе Evil Army на более андеграундных щах, где проглядывают и клыки дэта.
(1) WOLAND,
Feb 28 2021, 23:51:00 Ectoplasma - Cryogenically Revived [ep] (2018)
шикарный олдскул. 25.gif

"Жесточайший мини-альбом записали на свой счёт греки в 2018 году (а там ещё и отличный полноформат выходил и сплит с уругвайскими коллегами по цеху). Жирный звук, глубокий гроул и хорошая техника - минимальный набор для записи достойного death metal-альбома. + с композиторским мастерством тут тоже всё в порядке.
На выходе имеем интро + 6 треков мощной олдскулятины."

камрады, вы где, блт? ни одного коммента.
(1) Samaritianin,
Feb 22 2021, 10:53:38 Earth Rot - Chthonian Virtues [ep] (2016)
reuploaded
Register
(1) MortSathynr,
Jan 31 2021, 07:55:57 Astral Tomb - Subterranean Forms [ep] (2019)
[не такой уж и] примитивный дэтх с хорошим потенциалом, но косоруко сыгранный и записанный. INTERGALACTIC не обнаружено.
(1) Occultas,
Jan 27 2021, 07:41:24 Malacath - An Ode To The Loss Of Life [ep] (2013)
reuploaded
Register
(1) kim666,
Jan 24 2021, 11:34:09 Arkona - Age Of Capricorn (2019)
отличный альбом вышел у поляков, хорошая мелодика и осмысленное долбилово.
(1) Kazoth,
Dec 14 2020, 21:26:59 Gurthang - Shattered Echoes (2017)
неожиданно яростный и нетривиальный стафф от польского коллектива. Funeral, впрочем, реально и рядом не ночевал.

reuploaded
Register
(1) thenecromancer,
Nov 27 2020, 09:04:20 Sulphurous - Dolorous Death Knell (2018)
шикарный стафф по канонам.
(1) Occultas,
Nov 19 2020, 22:05:12 Asthenic Syn - Neuroleptic Strangulation (2019)
изощрённая звуковая психическая атака. очень достойное продолжение дебютника. некоторыми приёмами и подачей напомнило мэйхемовский Esoteric Warfare.
ледяное кружево одиночества, мрак повсеместного разложения, тупая боль и разочарование.
(1) Chasm,
Nov 13 2020, 22:10:07 Olio Tähtien Takana - Neocosmos (2017)
нет ли у кого в качестве?
(2) infiltrator, Occultas,
Nov 13 2020, 19:20:07 Deep-Pression - Postmortem [ep] (2011)
reuploaded
Register
(1) varlam4,
Nov 13 2020, 19:16:41 Deep-pression - An Endless Sea (2010)
reuploaded
Register
(1) varlam4,
Nov 13 2020, 18:55:59 Deep-pression - ...And The Swamps Stood In A Rain... [single] (2013)
reuploaded
Register
(1) varlam4,
Nov 13 2020, 18:36:24 Deep-pression - Slave Of Events (2014)
reuploaded
Register
(1) varlam4,
Nov 3 2020, 23:02:30 Brett Dell'alba - Of Thorns [demo] (2019)
reuploaded with correct tagz
Register


P.S. фактическое название проекта - Ofthorns
Register
(2) rickzammuto, thenecromancer,

35 Pages V   1 2 3 > » 
- Lo-Fi Version Support form
Copyrights and abuse reports form
Time is now: 14th June 2021 - 23:07:11