Welcome Guest ( Log In | Register )

История благодарностей участнику Lucifer ::: Спасибо сказали: 2803 раз(а)
Дата поста: В теме: За сообщение: Спасибо сказали:
Apr 12 2024, 07:19:44 Tarot - Glimpse Of The Dawn (2024)
ЦИТАТА(cesar @ 12th April 2024 - 06:19:15) *
Та же фигня...

Я с вами, пацаны.
(1) vosmidesijatye,
Apr 3 2024, 17:33:28 Дажбогавы Унукі - Беларускі Вікінг Метал [ep] (2022)


*Artist: Дажбогавы Унукі
*Album: Беларускі Вікінг Метал [ep]
*Year: 2022
*Genre: Viking Metal
*Country: Belarus
*Format: mp3@CBR320kbps
*Size: 39MB

Tracklist:
01. Беларускі вікінг метал
02. Вікінг
03. Палёт і спеў валькірый
******************************
Total playing time: 15:25

[more=Technical info]
Input File: 01. Беларускі вікінг метал.mp3
Channels : 2
Sample Rate : 44100
Precision : 16-bit
Duration : 00:04:17.88 = 11372684 samples = 19341.3 CDDA sectors
File Size : 12.2M
Bit Rate : 380k
Sample Encoding: MPEG audio (layer I, II or III)
Comments :
Title=Беларускі вікінг метал
Artist=Дажбогавы Ўнукі
Album=Беларускі Вікінг Метал (EP)
Tracknumber=01
Year=2022
Genre=Belarussian Viking Metal

[/more]

Register
(10) artscald, Cartman223, disney666, HMHamster, mishasha, skogtroll, terron, Vitald, Wail, wreak,
Apr 3 2024, 15:22:11 Новости Folk/Pagan/Viking
[youtube]k7yS9YmlF1w[/youtube]
(1) kostja,
Mar 22 2024, 13:36:45 Новости Folk/Pagan/Viking
Звучит как песня с первых альбомов Ensiferum.

[youtube]hYKIONR-abc[/youtube]
(2) kostja, Old Vyaine,
Feb 23 2024, 13:41:57 Кто какие альбомы ждёт? Albums you are waiting for
ЦИТАТА(vosmidesijatye @ 23rd February 2024 - 21:27:10) *
Шутничёг

Никаких шуток, он записывал альбом с друзьями, но все партии дозаписать не успели по понятной причине. В общем, ожидаем что-то аналогичное пост-альбому Крупнова. Когда выйдет неизвестно, наверняка не в этом году.
(1) vosmidesijatye,
Feb 20 2024, 15:23:43 Noosphera - Más Allá Del Sol (2018)
ЦИТАТА(Genuine Thrashiac @ 20th February 2024 - 23:02:16) *
Транс, в смысле, это электроника какая?

Да. В целом, из ближайших аналогов - Blood Stain Child.
(1) Genuine Thrashiac,
Feb 20 2024, 06:08:39 Synsnake - Fluxus (2021)


*Artist: Synsnake
*Album: Fluxus
*Year: 2021
*Genre: Melodic Death Metal/Trance/Metalcore
*Country: South Korea
*Format: mp3@CBR320kbps
*Size: 114MB

Tracklist:
1. Rear Sight
2. Manneristic
3. Saturn In The Loop
4. Demian
5. Flip
6. One Million Pieces Of You
7. Prism
8. Acceleration
9. Luminarie
10. Ire Of Lilith [feat. Fantax]
11. Venom [Fluxus version]
******************************
Total playing time: 43:30





[more=Technical info]
Input File: 03. Saturn In The Loop.mp3
Channels : 2
Sample Rate : 44100
Precision : 16-bit
Duration : 00:03:50.65 = 10171533 samples = 17298.5 CDDA sectors
File Size : 10.5M
Bit Rate : 366k
Sample Encoding: MPEG audio (layer I, II or III)
Comments :
Title=Saturn In The Loop
Artist=Synsnake
Album=Fluxus
Tracknumber=3/11
Year=2021
Genre=Metal
Discnumber=1/1

[/more]

Register
(8) Alpha_Prime, artscald, chipsgott, Mogozoz, Piriaka_Power_Station, Weikai, wreak, zhol,
Feb 20 2024, 05:59:24 Noosphera - Más Allá Del Sol (2018)


*Artist: Noosphera
*Album: Más Allá Del Sol
*Year: 2018
*Genre: Melodic Death Metal/Trance
*Country: Mexico
*Format: mp3@CBR320kbps
*Size: 87MB

Tracklist:
1. Es tiempo 02:22
2. Reflejos 04:02
3. Más allá del sol 04:09
4. Colapso gravitacional 04:02
5. Revolución: El plano eterno 05:20
6. Fragmentación: El abismo interno 04:07
7. Noosfera 04:20
8. Ecos de la vida 03:17
9. Lo último de nosotros 05:30
******************************
Total playing time: 37:09

[more=Technical info]
Input File: 2. Reflejos.mp3
Channels : 2
Sample Rate : 44100
Precision : 16-bit
Duration : 00:04:02.00 = 10672200 samples = 18150 CDDA sectors
File Size : 9.91M
Bit Rate : 328k
Sample Encoding: MPEG audio (layer I, II or III)
Comments :
Title=Reflejos
Artist=Noosphera
Album=Más Allá Del Sol
Tracknumber=2/9
Year=2018-06-02
Genre=Melodic Death Metal/Trance

[/more]

Register
(7) apostol_13, artscald, chipsgott, Piriaka_Power_Station, Weikai, wreak, zhol,
Jan 22 2024, 06:34:16 Fratello Metallo - Misteri (2008)
kastrup,
Register


Интересный проект, конечно. Нашел тут клипец еще, на английском причем. Фраза WHAT THE HELL в исполнении батюшки звучит с особо суровой колоритностью. 5.gif
[youtube]Au-66ViT7SQ[/youtube]

Та же песня, но на итальянском языке и с криповым детским хором. Не определился, какая версия мне нравится больше true_black.gif
[youtube]Gn7FgHfaQXY[/youtube]


Кстати, на этом же канале, кажется выложены все его альбомы в разных стилях. Особого внимания заслуживает его первый метал-альбом, выпущенный под названием Metalluminium, это ж практически Dio. 5.gif
[youtube]CfNfB0OsPRM[/youtube]
(1) kastrup,
Dec 29 2023, 11:43:58 DragonForce - Power Of The Saber Blade [single] (2023)


*Artist: DragonForce
*Album: Power Of The Saber Blade [single]
*Year: 2023
*Genre: Power Metal
*Country: United Kingdom
*Format: mp3@CBR320kbps
*Size: 9MB

Tracklist:
1. Power of the Saber Blade
******************************
Total playing time: 4:03

Preview 1

[more=Extended info]Exclusive Song for Beat Saber Game Soundtrack.[/more]

[more=Technical info]
Input File: 01. Power of the Saber Blade.mp3
Channels : 2
Sample Rate : 44100
Precision : 16-bit
Duration : 00:04:02.27 = 10684195 samples = 18170.4 CDDA sectors
File Size : 9.69M
Bit Rate : 320k
Sample Encoding: MPEG audio (layer I, II or III)
Comments :
Title=Power of the Saber Blade (Single)
Artist=DragonForce
Album=Power of the Saber Blade (Single)
Tracknumber=01
Year=2023
Genre=Power Metal

[/more]

Register
(10) Aresson, boby9052, cenzored, gwar, infozahist, Jony2324, Lugia010719d1, Mannard, Wail, zhol,
Nov 30 2023, 15:06:08 Oak - Disintegrate (2023)
Очень хороший повествовательный альбом, я залип. Неспешно перетекающий из меланхоличной атмосферы в хаотичную. Самое главное, альбом-песня при своей продолжительности совсем не наскучивает и звучит действительно цельно.
(1) Tormentor6,
Oct 30 2023, 06:53:04 Wisp - The Insomniac [ep] (2021)


*Artist: Wisp
*Album: The Insomniac [ep]
*Year: 2021
*Genre: Atmospheric Funeral Doom Metal/Shoegaze
*Country: United Kingdom
*Format: mp3@CBR320kbps
*Size: 47MB

Tracklist:
1. Stand Before the Sky 10:35
2. Faint of Heart 09:29
******************************
Total playing time: 20:04

[more=Extended info]Side project of Joe Hawker of Ethereal Shroud.
Instrumental.[/more]

[more=Technical info]
Input File: 02 Faint of Heart.mp3
Channels : 2
Sample Rate : 44100
Precision : 16-bit
Duration : 00:09:29.17 = 25100309 samples = 42687.6 CDDA sectors
File Size : 22.8M
Bit Rate : 320k
Sample Encoding: MPEG audio (layer I, II or III)
Comments :
Title=Faint of Heart
Artist=Wisp
Album=The Insomniac (EP)
Tracknumber=02
Year=2021

[/more]

Register
(16) artscald, EndlessDrone, Hell_Is_Here, infozahist, LiarOfAngmar, Olethros, Shadechaser, supremo, Tormentor6, VALERY, vlad74, vyacheslav, Wail, Weikai, wreak, ZamanFu,
Oct 30 2023, 06:41:59 Ethereal Shroud - Trisagion (2021)
Другой микс вам принес. Сам с бэндкампа не смог купить, ибо всё заблочено санкциями, но Джо добродушно поделился кодом на скачивание, за что ему большой респект.



Ethereal Shroud - Trisagion (LP Mix 2023)

Tracklist:
1. A: Chasmal Fires
2. B: Chasmal Fires cont. - Discarnate
3. C: Astral Mariner
4. D: Lanterns

24bit LP mix of Trisagion, mixed and mastered by Spenser Morris and pressed by Throne Records.
released March 12, 2023


Register



ЦИТАТА(Exorcist @ 30th December 2021 - 00:16:18) *
Один из лучших метал-альбомов уходящего года.

Как по мне, он и вовсе лучший в 2021, постоянно возвращаюсь к его прослушиванию. Очень глубокий и атмосферный альбом.
К слову, если кому нужно, делал переводы текстов.
(3) gadyakhrenova, iuiubambam, Козлотролль,
Sep 4 2023, 06:29:03 Primal Fear - Code Red (2023)
Интересные обсуждения по поводу лучшего павера последних лет. Со своей колокольни выделю следующие альбомы:

Pathfinder - 2010 - Beyond The Space Beyond The Time
Unisonic - 2012 - Unisonic
Gamma Ray - 2014 - Empire Of The Undead
Serious Black - 2015 - As Daylight Breaks
Cain's Offering - 2016 - Stormcrow
Angra - 2018 - ØMNI
Seventh Wonder - 2018 - Tiara
Gladenfold - 2022 - Nemesis
(1) Yarri,
Aug 22 2023, 06:45:13 Warmen - Here For None (2023)
Warmen неожиданно выдали свой лучший альбом. Музыкальная формула Алекси Лайхо отлично работает, да еще и ниша свободна.
Конечно, новинке не тягаться с классикой ЧоБ, но он вполне себе на уровне последних альбомов оригинала, разве что соляки здесь проще.
Забавно, до участников группы, похоже, начало доходить, что вне ЧоБ их творчество не особо интересно (и не особо прибыльно), такими темпами недалеко и до реюниона с тем же Петри на вокале и Александром Куопалой на гитаре (в последние пару лет он стал активен на сцене и в соц сетях, а так же пересекается с бывшими коллегами.)
(1) isvili,
Jul 21 2023, 10:48:48 Vimbulnatt - Septem Novem (2023)


*Artist: Vimbulnatt
*Album: Septem Novem
*Year: 2023
*Genre: Atmospheric Black Metal
*Country: Germany
*Format: mp3@CBR320kbps
*Size: 100MB

Tracklist:
1. Ahnenweg 03:37
2. De Naturae Sensu 03:18
3. Satellite Nior 04:09
4. Sub Specie Interiortatis 03:57
5. Le Dieu des mouches 03:54
6. Rattenkönig 02:45
7. Consolamentum 05:30
8. Beteigeuze 02:54
9. Venenum 03:10
10. Insanire 03:27
11. Mycorhize 03:34
12. Alles oder Nichts 04:12
******************************
Total playing time: 44:27



[more=Technical info]
Input File: 03 - Satellite Noir.mp3
Channels : 2
Sample Rate : 48000
Precision : 16-bit
Duration : 00:04:10.42 = 12020112 samples ~ 18781.4 CDDA sectors
File Size : 10.3M
Bit Rate : 330k
Sample Encoding: MPEG audio (layer I, II or III)
Comments :
Title=Satellite Noir
Artist=Vimbulnatt
Album=Septem Novem
Tracknumber=3
Year=2023
Genre=atmospheric black metal

[/more]

Register
(22) AlexSmith, Altkiller, artscald, Buregon, Carcharoth, dermarsoran, kim666, kimkayoung, Korpse, Mogozoz, nemx, oldvarg, robertho777, SilentNidhogg, sludge666, smysl, supremo, VALERY, varlam4, vlad74, Wail, wreak,
Jul 17 2023, 13:12:33 Bathory - Requiem (1994)
ЦИТАТА(Rodin @ 17th July 2023 - 06:57:25) *
Решил освежить альбом сразу после прослушки дебютника. Отличнейший альбом!!!! На молодежном для своего времени звуке Маэстро запилил крутейше. Не понимаю снобов, повторяющих заученые слова, о том, что Октагон и Реквием отстой. У Маэстро как по мне нет плохих записей. Эти альбому Реквием с годами всё актуальней)))

Люблю все периоды группы, Реквием - обожаю, а вот Октагон я так и не понял, только кавер на Кисс оттуда хочется переслушивать.

Кстати, месяц назад вышел альбом Apocalypse - Retaliation (2023), понятно дело, что там подражание на грани с плагиатом, но учитывая, что стилистику Реквиема у других групп днем с огнем не сыщешь, этот релиз все же представляет некий интерес.)
(1) DarkHorde,
Jul 10 2023, 11:46:07 Silent Hill - Silent Hill (2008)


*Artist: Silent Hill
*Album: Silent Hill
*Year: 2008
*Genre: Epic Doom Metal
*Country: Italy
*Format: mp3@CBR320kbps
*Size: 90MB

Tracklist:
1. Intro 00:54
2. October 41 04:13
3. Cold Frontiers 06:02
4. Interlude I 02:20
5. The Solemn Bird 03:54
6. Interlude II 03:53
7. Silent Hill 04:14
8. Interlude to Criteria 03:45
9. Criteria 09:49
******************************
Total playing time: 39:04



[more=Extended info]Doom metal band from Rome, Italy, formed in 2003.
After the release of their self-titled album in 2008, the only one to date, Silent Hill began the recording process of a second album.
But Chris Rotten (vocalist) and Richard Gisorse (drummer) died in a car accident on August 9th, 2008.[/more]

[more=Technical info]
Input File: 2. October 41.mp3
Channels : 2
Sample Rate : 44100
Precision : 16-bit
Duration : 00:04:13.74 = 11190110 samples = 19030.8 CDDA sectors
File Size : 10.3M
Bit Rate : 325k
Sample Encoding: MPEG audio (layer I, II or III)
Comments :
Title=October 41
Artist=Silent Hill
Album=Silent Hill
Tracknumber=02
Year=2008
Genre=Epic Doom Metal

[/more]

Register
(18) artscald, Carcharoth, Dante_D, Grev, marilin, metala, Mogozoz, poeira, rainbow83, s810ic1, sergsazan, stumpheavyrock, supremo, VALERY, vyacheslav, wreak, Xtohar, zhol,
Jun 27 2023, 14:07:59 Tsjuder - Scandinavian Black Metal Attack [ep] (2023)
Стоит отметить состав.

Nag - Vocals, Bass (TSJUDER)
Draugluin - Guitars, Backing Vocals (TSJUDER)
Frederick Melander - Bass (ex-BATHORY)
Jon "The Charn" Rice - Drums
(1) Occultas,
Jun 27 2023, 10:13:28 Apocalypse - Retaliation (2023)
На этот раз копия альбома Bathory "Requiem".
Плохо, что без собственных идей.
Хорошо, что теперь можно что-то в стиле Requiem послушать. Было дело, искал такие альбомы, но безуспешно.

Кстати, мастеринг и продюсирование делал Mikael Moberg, помогавший Куортону с записью Destroyer of Worlds и обеих частей Nordland.
(1) DarkHorde,
Jun 4 2023, 12:44:52 Ил - Именины (2023)
Отличная компиляция. Выбранные песни и запись выше всяких похвал.
(1) Ainar,
May 20 2023, 12:32:57 YOB - Elaborations Of Carbon (2002)
2023 Reissue, Remastered
[youtube]MWJ30eR_MUA[/youtube]
(1) Mencae77,
Mar 29 2023, 02:35:42 Vimbulnatt - Quam Minimum Credula Postero [single] (2021)
ЦИТАТА(vovenom @ 29th March 2023 - 03:00:21) *
Чё-то непойму, на бэндкаме группы чё делает Дягилева?

Трибьют легенде блэка. 1488.gif
(3) SaintVitus, Voland00, vovenom,
Mar 27 2023, 07:10:02 Ethereal Shroud - Absolution|Emptiness (2013)
Выяснились забавные подробности. Цитирую автора:
ЦИТАТА
я удалю Absolution|Emptiness со всех стриминговых сервисов и Bandcamp в конце месяца. Если вы хотите скачать его для своих архивов, сделайте это сейчас.
ЦИТАТА
это демо было написано и записано за 5 дней в качестве шутки и пародии на DSBM - оно никогда не предназначалось для серьезного релиза, поэтому я выпустил его анонимно. Я никогда не ожидал, что оно к чему-то приведет, и, по правде говоря, даже название Ethereal Shroud изначально было шуткой - мне показалось, что после того, как у нас появилась фанбаза, я отказался от этого названия. Тем не менее, люди действительно отреагировали на демо-версию, поэтому я хотел бы предупредить людей, чтобы они успели приобрести ее, пока есть возможность.
ЦИТАТА
Я кричу "drop it like its hot" в конце третьего трека. Посмотрите, сможете ли вы это уловить.
ЦИТАТА
высмеивал то, как DSBM романтизирует депрессию в очень непристойной манере. Однако никто не понял, что это пародия, и это привело к тому, что я захотел использовать платформу для своих законных работ. Странный путь, конечно.
(1) Chasm,
Mar 27 2023, 06:16:22 Serenity In Murder - Reborn (2021)
Лень заливать по отдельности.


Serenity In Murder - Singles 2022-2023
Revolt
Infact Bellum (New Version 2022)
Matrix
Register
(1) Ingvar,

39 Pages V   1 2 3 > » 
- Lo-Fi Version Support form
Copyrights and abuse reports form
Time is now: 16th April 2024 - 02:27:37