Welcome Guest ( Log In | Register )

История благодарностей участнику Lucifer ::: Спасибо сказали: 2483 раз(а)
Дата поста: В теме: За сообщение: Спасибо сказали:
Apr 15 2021, 09:53:07 Bloodshed Walhalla - Second Chapter (2021)
ЦИТАТА(aleksey31 @ 15th April 2021 - 09:43:53) *
этот никитачетотамхренпойти, местный клоун или придурок ?

Ни то, ни другое. Просто он немного болен. Что-то типа психического расстройства, на самом деле вполне вменяем, возможно тут даже подойдет выражение "горе от ума".
ЦИТАТА(aleksey31 @ 15th April 2021 - 09:43:53) *
Один два коммента детским стилем с коверканьем языка, может и смешно было, но на постоянку....

Обещал, что больше так не будет:

ЦИТАТА
Nikita Kapernaumov
13 Apr at 11:58 am
Actions
я закончил с агрессией. больше никакого критиканства, нарочитой орфографии, вызовов онлайн опонентов на офлайн дуэли и всяческих номеров типа обливания девок говном. (ну кроме сочинения песен про маньячизм, которые меня возбуждает сочинять впринципе и хорошо идут с музыкой). у меня не получилось показать этим что меня нужно бояться(либо получилось, но не дало тех результатов которые я ожидал).
ЦИТАТА
всё, я теперь как кот леопольд, давайте жить дружно.

это объём музыкального материала который я хочу реализовать – сделал из меня клоуна. мало того что он испортил мне всю жизнь, всё это моё увлечение никому ненужными крмое меня вещами всмысле, так теперь он сделал из меня клоуна. после завершения первой песни раврид в июне 2020го из моего этого финального песенного «марафона» я сделал лишь 20. а ещё 120-150 штук. это вместе с писаниной может занять ещё 10 лет. это [мат->бан]ец. я чувствую себя правителем у которого под боком происходит какойто бунт, а военных которые могли бы его подавить нету – они все далеко на какойнибудь войне. с однйо стороны у меня есть закон, но нет возможности его исполнить.


https://vk.com/wall4954396_869
(2) Old Vyaine, plfan93,
Apr 11 2021, 05:45:18 Bloodshed Walhalla - Second Chapter (2021)
ЦИТАТА(SveT @ 11th April 2021 - 08:11:07) *
Falkenbach-воршип

Это в каком месте?

ЦИТАТА(Ellaya @ 11th April 2021 - 14:39:53) *
Походу этот никита который наумов просто какой-то бухарик.

Нет, но лучше бы бухал.
(1) Vagar,
Mar 5 2021, 09:43:28 Говнилиум - Всё B Дерьме (2010)
ЦИТАТА(Aresson @ 5th March 2021 - 18:05:05) *
Necrodictator, а старое название это какое?

Tranquillium может быть?
(2) Aresson, infiltrator,
Feb 28 2021, 13:27:02 Various Artists - Rockhard Festival Archives (Best Of 2007-2012) [live] (2013)
Register
(2) infiltrator, KKK1488,
Feb 28 2021, 06:46:24 Various Artists - Rockhard Festival Archives (Best Of 2007-2012) [live] (2013)


*Artist: Various Artists
*Album: Rockhard Festival Archives (Best Of 2007-2012) [live]
*Year: 2013
*Genre: Metal
*Country: Many
*Format: mp3@CBR320kbps
*Size: 115MB

Tracklist:
1. Jon Oliva - City Beneath The Surface/Sirens (Live)
2. Overkill - Hello From The Gutter (Live)
3. Kvelertak - Blodtørst (Live)
4. Amorphis - You I Need (Live)
5. Enslaved - Fusion Of Sense And Earth (Live)
6. Armored Saint - Last Train Home (Live)
7. Turbonegro - Get It On (Live)
8. Graveyard - Uncomfortably Numb (Live)
9. Opeth - The Lotus Eater (Live)
******************************
Total playing time: 50:33

[more=Extended info]Recorded and engineered at Amphitheater Gelsenkirchen 2007-2012.
Собственный сд-рип, вроде прежде этой компиляции в сети не было.[/more]

[more=Technical info]
Input File: 3. Kvelertak - Blodtørst (Live).mp3
Channels : 2
Sample Rate : 48000
Precision : 16-bit
Duration : 00:03:54.05 = 11234448 samples ~ 17553.8 CDDA sectors
File Size : 9.37M
Bit Rate : 320k
Sample Encoding: MPEG audio (layer I, II or III)
Comments :
Title=Blodtørst
Artist=Kvelertak
Album=Rock Hard Festival Archives
Tracknumber=3
Year=2013
Genre=9

[/more]

Register
(7) canadaspaceman, caro, Cartman223, infiltrator, stumpheavyrock, varlam4, wreak,
Feb 24 2021, 11:39:56 Serenity In Murder - Reborn (2021)
После прошлого шедеврального альбома этот воспринимается как шаг назад. Еще и вокалистка не оч, у них и первая была не оч, но эта даже хуже.
(1) StabWound,
Feb 7 2021, 02:26:06 Starforger - Wreath Of Frost (2021)
Хороший альбом. Действительно эпичный и атмосферный.
(1) Storky,
Feb 7 2021, 02:04:30 Кто какие альбомы ждёт? Albums you are waiting for
26.03 Gyze - Oriental Symphony EP

ЦИТАТА(kostja @ 5th February 2021 - 06:38:15) *
Эти альбомы, по слухам, уже записаны, но названия альбомов не известны:
Running Wild

German veterans Running Wild are working hard on their next studio album, planned to be released this May via Steamhammer Records. More info will be provided later this month.
(2) infiltrator, kostja,
Jan 31 2021, 03:35:50 Sur Austru - Obârșie (2021)
Хороший атмосферик, завораживает. Словно темной ночью заблудился в глуши древнего леса и случайно подглядываешь мрачный языческий ритуал, каждую минуту тревожась что тебя заметят.
(3) Ellaya, isvili, Olrak,
Jan 30 2021, 15:19:36 Antti Martikainen - Sonic Savior (2020)
Шикарный альбом. Один из лучших релизов за прошлый год. И факт отсутствия вокала ничуть не портит впечатление.
(1) Phlebotomized,
Jan 26 2021, 11:02:13 Therion - Leviathan (2021)
Для всех не шибко приличных)
Register
(8) Alexis The Best, annamai, Aresson, Hell_Is_Here, infiltrator, kostja, Old Vyaine, Сварог Барг,
Jan 4 2021, 16:04:17 Mechina - Siege (2021)
На самом деле не такой уж плохой альбом. Да, один из худших в дискографии, но при том это получше, чем условный занудный Telesterion-2 или возможное продолжение тупиковой линии идей Compendium. Спокойная фоновая музыка.
(2) Ghostb, Сварог Барг,
Dec 25 2020, 10:06:06 Лучший советчик МА - Часть 12 (МДМ) - Итоги
ЦИТАТА(Deze @ 25th December 2020 - 08:23:59) *
2-е место:
Lucifer (Serenity In Murder) - 8 ОЦС

Ого, прикольно. Не ожидал что альбом настолько по душе придется местным слушателям. Приятно =)
И раз уж такое дело, следующий их альбом REBORN выйдет через каких-то полтора месяца, 10 февраля 2021.

[youtube]hhD3DeqWohI[/youtube]

(1) Bloodn Lord,
Dec 23 2020, 11:02:31 Лучший советчик МА - Часть 13 (Солянка) - Тур 1, Общий сбор
А есть ли на форуме тема про беспроводные колонки для митола?
Хотелось бы купить нечто компактное, чтобы можно было в рюкзаке без напряга таскать, но при том с адекватным чистым звуком. Пока рассматриваю всевозможные JBL, но смутило описание из какой-то статьи, что jbl более подходят для электронной и танцевальной музыки.
(2) infiltrator, Old Vyaine,
Dec 16 2020, 13:26:22 Лучший советчик МА - Часть 12 (МДМ) - Тур 2, Рейтингование
Касаемо дискуссии вокруг Yuzukingdom. Печально, что здесь представлен второй альбом группы, а не шикардосный дебютник. В свое время неслабо проперся с песен оттуда. Что в принципе было ожидаемо, ибо материал сочинен полностью композитором Blood Stain Child.

Превосходное сочетание агрессии и няшности. Всякие бездушные бэбимитолы курят в сторонке.
[youtube]sLgJoP-xXL4[/youtube]

А вот второй альбом, присутствующие в голосовалке, изрядно разочаровал, каким-то сумбурным полуфабрикатом воспринимался, что тогда, что сейчас. Кроме приблэкованной Pandemic (жутко напоминающей The Rise Of All The Fall) и вспомнить то нечего. Видимо, и сами музыканты поняли, что сказать больше нечего, раз уж вскоре объявили о закрытии проекта.
(3) Bloodn Lord, FunZombie, infiltrator,
Nov 25 2020, 15:57:22 Winterfun - Thank My Songs (2020)
ЦИТАТА(dragonhead @ 25th November 2020 - 23:49:53) *
но вот сделал бы песни с адекватными текстами

Так ведь было же

[youtube]Tq33j-nlu3Q[/youtube]

[youtube]QHTL6RwT1KQ[/youtube]

Наивняк, конечно, но если бы автор тратил столько же времени на сочинение подобных текстов, сколько времени было убито на сочинение говнилиумовщины, то сейчас, глядишь, была бы вполне себе взрослая и серьезная годнота.
(1) dragonhead,
Nov 21 2020, 05:23:43 Лучший советчик МА - Часть 12 (МДМ) - Тур 2, Рейтингование
ЦИТАТА(mirotvorets @ Nov 18 2020, 19:47:45) *
Лови, комрад! Кто с яндексом дружен, тому гугл не нужен.

Вот же спасибо! Теперь хоть нормально скачаю. А то с гугла всё как попало, то треков не хватает, то целых альбомов. Вот открываю папку A Canorous Quintet а там одни лишь сканы, мол оценивай альбом по обложке, и так сойдёт. crazy.gif
(2) Alexis The Best, infiltrator,
Nov 14 2020, 05:34:53 Crewish - Unemployed Blacksmiths (A Nightwish Tribute) [ep] (2020)


*Artist: Crewish
*Album: Unemployed Blacksmiths (A Nightwish Tribute) [ep]
*Year: 2020
*Genre: Any Metal Rock
*Country: Finland
*Format: mp3@CBR256kbps
*Size: 43MB

Tracklist:
1. Sleeping Sun
2. Wish I Had An Angel
3. Amaranth
4. Nemo
5. Elan
******************************
Total playing time: 22:11

[more=Extended info]Crewish - это люди, входящие в концертный саппорт Nightwish: техники, менеджеры, звукачи и тд. В 2020 году они решили то ли приколоться, то ли выразить свою симпатию группе и записали данный EP.

Состав:
Kimmo Ahola, FOH
Aksu Rönkkö, Mon
Ville Wahlroos, LD
Tero Kinnunen, Keyboard & ProTools tech
Lassi Kauppinen, Bass tech
Jarkko Piipari, Drum tech
Antti Toivianen, Gtr tech
Juuso Jaakkola, Video tech
Markku Aalto, Pyro tech
Teemu Koivistoinen, Pyro tech
Jaska Erkinheimo, Stage manager
Ulrich Weitz, ex-Drum tech[/more]

[more=Technical info]
Input File: 02 - Wish I Had An Angel.mp3
Channels : 2
Sample Rate : 44100
Precision : 16-bit
Duration : 00:02:39.12 = 7017192 samples = 11934 CDDA sectors
File Size : 5.11M
Bit Rate : 257k
Sample Encoding: MPEG audio (layer I, II or III)
Comments :
Title=Wish I Had An Angel
Artist=Crewish
Album=Unemployed Blacksmiths
Tracknumber=02
Year=2020

[/more]

Register
(9) after21allD, gwar, infiltrator, Lukittaz, Mogozoz, Olethros, randumbum, wreak, Сварог Барг,
Nov 11 2020, 12:15:37 Новости направления MDM
ЦИТАТА(Emm Human @ 11th November 2020 - 16:32:53) *
Bodom After Midnight, в состав которой входит бывший гитарист Children Of Bodom Алекси Лайхо, отправилась в студию Finnvox для записи дебютного альбома.

Всего лишь бывший гитарист? Правильнее звучало бы "Bodom After Midnight - новый проект основателя, композитора, гитариста-вокалиста Children Of Bodom, являющийся стопроцентным продолжением CoB. (Название пришлось сменить только лишь из-за разлада между бывшими участниками и дележкой авторских прав.)"
(3) Deze, Emm Human, infiltrator,
Nov 4 2020, 05:11:55 Blind Guardian - At The Edge Of Time (2010)
ЦИТАТА(Aresson @ Apr 25 2020, 18:10:07) *
это песня - саундрек к игре Sacred 2, вышедшей в 2008 году. И не просто саундрек, с ним связан целый квест. В игре можно встретить самого Ханси, котороый попросит отыскать инструменты его товарищей, а в конце, в качестве награды пригласит на концерт, где они сыграют эту песню. (Эт если кто не в курсе)
[youtube]HllAIKSPTFk[/youtube]

Ого, вот это приколюха!
(1) Emm Human,
Oct 12 2020, 14:01:09 Лучший советчик МА - Часть 11 (Готик) - Тур 1, Общий сбор
Кстати, наверное это не очень хорошо, что меня так зацепила не оригинальная песня группы, а крутой кавер в их исполнении, но всё же хочу поделиться этой классной вещью.
[youtube]MfnF8xUjhcY[/youtube]
(1) скептик,
Oct 12 2020, 12:55:22 Лучший советчик МА - Часть 11 (Готик) - Тур 1, Общий сбор
ЦИТАТА(Old Vyaine @ Oct 12 2020, 21:35:23) *
Так, у нас уже нарисовались два лидера 1488.gif

Ты большой молодец! Словами не передать как я балдею от голоса этой вокалистки. Феноменальная девочка. Как жаль, что ее карьера ограничилась всего двумя альбомами. Слушал бы и слушал. (Конечно, тут нужно сказать спасибо и музыкантам, потому что любой феноменальный голос, без хотя бы среднего уровня музыкальной поддержки, не производит нужный эффект. Впрочем, в данном случае всё в полном порядке.)
(2) infiltrator, Old Vyaine,
Oct 2 2020, 12:31:20 Falkenbach - ...Skínn Af Sverði Sól Valtíva... [demo] (1996)
lafuma,
да, планируется! Неизвестно когда, но лейбл обмолвился, что работа (медленно) над ним ведётся. А это уже что-то!



А вот ссылка на предзаказ бокс-сета Falkenbach - The Nine Worlds Of Falkenbach (Manifestations 1995-2013)
https://en.prophecy.de/prophecy-productions...HJoFfGvVWSz-a7w
(2) RUDACHUR, thenecromancer,
Oct 2 2020, 08:45:01 Лучший советчик МА - Часть 11 (Готик) - Тур 1, Общий сбор
ЦИТАТА(Alexis The Best @ Sep 28 2020, 20:08:11) *
прослушать /скачать бразильцев можно здесь, или здесь (правда у них там в стиле написано "прогрессив-метал", но там и готики на 2 ведра будет)

P.S. вот нашёл 1 трек на ютрупе:
[youtube]5PlkAOFhyaQ[/youtube]

А вот это, кстати, вполне себе похоже на то, что можно назвать готикой. Вот только где метал? Музыка и вокал вполне себе в духе старых готик-роковых команд, а ля мои любимые Систерс оф Мерси. Единственное отличие по сути - в более грубом (не путать с тяжелым) звучании и обилии соляков. Т.е. По этой композиции получается, что готик метал = готик рок + соляки? Короче, это я тоже отнес бы к неформату. Хотя сама группка любопытная, возьму на заметку.
(2) Alexis The Best, infiltrator,
Oct 2 2020, 04:06:27 Falkenbach - ...Skínn Af Sverði Sól Valtíva... [demo] (1996)


*Artist: Falkenbach
*Album: ...Skínn Af Sverði Sól Valtíva... [demo]
*Year: 1996
*Genre: Viking/Black Metal
*Country: Germany
*Format: mp3@ABR256kbps
*Size: 81MB

Tracklist:
1. Ultima Thule
2. Asum ok Alfum naer...
3. Winternight
4. ...into the ardent awaited lands...
5. Gjallar
6. Heathenpride
7. …en their medh riki fara…
******************************
Total playing time: 45:03

Preview 1

Many thanks to the YouTube user IJsbrand! Samaria !Mulligan!

[more=Technical info]
Input File: 01. Ultima Thule (Demo).mp3
Channels : 2
Sample Rate : 48000
Precision : 16-bit
Duration : 00:03:45.12 = 10805952 samples ~ 16884.3 CDDA sectors
File Size : 7.27M
Bit Rate : 258k
Sample Encoding: MPEG audio (layer I, II or III)
Comments :
Title=Ultima Thule (Demo)
Artist=Falkenbach
Album=...Skínn Af Sverði Sól Valtíva... (Demo)
Tracknumber=1
Year=1996
Genre=9

[/more]

Register
(30) Angeldemon617, Borderline1991, Cartman223, Constantinus I, dulak, Forcerecon1, grimoir, gwar, heinz88, Ildjarn, INDARKNESS, infiltrator, killingod, kim666, lafuma, Mortuusinfernus, multizwilling, NappyRob, Olethros, rammmirez, Reverend, Rosen, Rudolfo_Metal, smysl, Svafrlami, thenecromancer, Vlosinssrigg, Wail, Wotanwatch, Zenial,

37 Pages V   1 2 3 > » 
- Lo-Fi Version Support form
Copyrights and abuse reports form
Time is now: 14th June 2021 - 22:35:19