Welcome Guest ( Log In | Register )

История благодарностей участнику Genuine Thrashiac ::: Спасибо сказали: 28300 раз(а)
Дата поста: В теме: За сообщение: Спасибо сказали:
Jan 3 2023, 12:06:52 Toxicon - Be The Fire And Wish For The Wind (2023)
Линкин Парк какой-то... Или Дистёрбед
Можно и на него, в принципе, накинуть такие теги и в формат затащить - а чо б не?
(1) Samaritianin,
Jan 3 2023, 02:54:38 Смерш - Thrash Metal [single] (2022)


*Artist: Смерш
*Album: Thrash Metal [single]
*Year: 2022
*Genre: Thrash Metal
*Country: Russian Federation
*Format: mp3@CBR320kbps
*Size: 11MB

Tracklist:
1. Thrash Metal 04:40
******************************
Total playing time: 4:40




[more=Extended info]„Трэш-металисты — это самый развитой и передовой класс, и никто не может отрицать, что это и есть передовой отряд всего пролетариата.“ — Владимир Ильич Ленин

Сингл с оригинальной композицией, между двумя полноформатами.
Дебютный альбом: КАПИТАЛ (2021)[/more]

[more=Technical info]
Input File: 01 - Thrash Metal.mp3
Channels : 2
Sample Rate : 44100
Precision : 16-bit
Duration : 00:04:41.07 = 12395011 samples = 21080 CDDA sectors
File Size : 11.3M
Bit Rate : 321k
Sample Encoding: MPEG audio (layer I, II or III)
Comments :
Title=Thrash Metal
Artist=Global Thrash Attack
Album=СМЕРШ - THRASH METAL (Single 2022)
Tracknumber=1
Year=2022

[/more]

Register
(13) Aresson, artscald, boby9052, Dark Sage, Grev, gwar, Lord Of The Siths, METALHUNTER, metaljosue, stumpheavyrock, varlam4, Wail, wreak,
Jan 3 2023, 02:41:48 Смерш - Капитал (2021)


*Artist: Смерш
*Album: Капитал
*Year: 2021
*Genre: Thrash Metal
*Country: Russian Federation
*Format: mp3@VBR288kbps
*Size: 61MB

Tracklist:
1. Бей! 01:47
2. Суицид 04:17
3. Девочка, танцуй 04:49
4. Каннибализм 04:31
5. Братишка 05:00
6. Настоящий враг 03:55
7. Бисер (MC Malohaval cover) 04:48
******************************
Total playing time: 29:07



[more=Extended info]Дебютный альбом. Актуальные хлёсткие тексты.

Бисер (MC Malohaval cover):

Буржуазия смотрит на вас сверху вниз
Нах... им не нужен этот коммунизм
Строить общий дом - со всеми делись...
Кто тут "мало хавал"? На пожри и отъебись
Достоинство выше материальных благ -
Родина ГУЛАГ?
Не видать тебя за красным флагом, мудак
Тут не я Иуда, ублюдок -
Это ваш КПСС стал сборищем ссыкла и проституток
У безыдейных всегда самые дешёвые респекты
Потому дела мои сегодня великолепны
В натуре щедрая душа Россия-мать -
После Союза тебя стало
Ещё приятнее ебать
Уфф... вошёл отлично -
Ты же встречал меня сам
В начале девяностых - лично!
Забыл?
Шпана, дворы, дела народные летят с горы
И ты орёшь, что надо валить из страны...

{Припев}
Глаза открой и посмотри вокруг, либерал!
Ведь это всё твой "рыночек порешал"!
Дед воевал, строил; батя проебал -
Его, как и тебя, развёл я - Капитал!
(2 раза)

{Куплет 2}
Я есть Капитал - много кого кидал
Подо мной всегда самый популярный канал
"Эксперт" ласкает ухо, радует глаз...
Кому нужна политика эта?
Повторяем ещё раз:
Свобода, выбор, индивидуализм!
Куда там дальше Ницше? - верим в дарвинизм!
Марксизм устарел. До него никому нету дела
Ленин умер. Сталин-ГУЛАГ. Совок прогнил
И вот сейчас "ништяк" -
Прилавки, вещи...
У товарной корзины, смотри
Пробито днище -
Прорва!
Не материально, ты духовно нищий
Go у мавзолея плясать упоротыми в дермище -
Покажем ему достижения цивилизации...
Такие люди - дело не в системе, братцы!
Лично меня, вполне, удовлетворяет такой расклад -
Что "Навал" у руля будет, что этот "Влад Залат"

{Припев}
Глаза открой и посмотри вокруг, либерал!
Ведь это всё твой "рыночек порешал"!
Дед воевал, строил; батя проебал -
Его, как и тебя, развёл я - Капитал!
(2 раза)

{Аутро}
"- Музыка, музыка, музыка... Ничего, кроме музыки, - говорил Гитлер на оккупированных территориях"

Только дай и отымею любую страну, любой народ

"Пропаганда пороков..."

И я буду *бать весь этот Мир дезориентированных телят, которые только обо мне всегда мечтают, они только меня хотят. Невротики mother fucker
[/more]

[more=Technical info]
Input File: 07 - Бисер (MC Malohaval cover).mp3
Channels : 2
Sample Rate : 44100
Precision : 16-bit
Duration : 00:04:48.60 = 12727260 samples = 21645 CDDA sectors
File Size : 10.4M
Bit Rate : 288k
Sample Encoding: MPEG audio (layer I, II or III)
Comments :
Title=СМЕРШ - Бисер (MC Malohaval)
Artist=Global Thrash Attack
Album=СМЕРШ - КАПИТАЛ (Thrash Metal from Russia)
Tracknumber=7
Year=2021

[/more]

Register
(16) artscald, boby9052, chipsgott, Dark Sage, gwar, Lord Of The Siths, METALHUNTER, oldvarg, postal67, stumpheavyrock, supremo, VALERY, varlam4, Vitald, Wail, wreak,
Apr 21 2019, 16:20:06 Death Penalty - Conviction (1998)
ЦИТАТА(olegator @ Mar 14 2019, 14:51:20) *
перезалейте плиз!)при скачке нет 3 песен почему то...
Register
(2) olegator, Z28517,
Mar 8 2019, 05:06:10 Mägo De Oz - Ira Dei (2019)
Tarelka, альбомчег

Фоном хорошо пошло)

А так, наверное, можно было бы и уполовинить)
(1) Tarelka,
Feb 22 2019, 00:07:02 Ragehammer - The Hammer Doctrine (2016)
(1) Luka,
Feb 20 2019, 18:44:57 Tod & Cold Void - Black Metal Armageddon [split] (2004)
Слушаю сейчас часть сплита от Cold Void



20.gif Какой там блэк? Харш-вокал а-ля Викернес на Filosofem

Блеком сложно назвать сие. Doom-овито, Thrash-вато и мрачно!
(1) rickzammuto,
Feb 3 2019, 09:11:31 Fit Of Frustration - Six Songs With Gene Singing [ep] (2011)
canadaspaceman, why is the tracklist differ?
(1) pichileon,
Jan 24 2019, 00:30:45 Mortal Scepter - Where Light Suffocates (2019)
Вот ещё "родной"
(1) artscald,
Jan 24 2019, 00:20:42 Новости Black-направления
Ребята, я не знаю, где этим с вами поделиться - вот такой чел делает превьюхи на блэк-метал релизы:
ЧЁРТОВЫ ЧЕРТОГИ
[youtube]bm_5JKR19cg[/youtube]

судя по кол-ву просмотров - вы фиг о нём знаете)

А подаёт материал, я считаю, что здорово!)
(2) Goatrex, Occultas,
Jan 16 2019, 23:00:59 Золотой фонд техно/прог-трэша (1) Язва,
Jan 4 2019, 02:52:18 Legion Of The Damned - Slaves Of The Shadow Realm (2019)
Есть с чего начать тему Лучшие Альбомы Thrash Metal 2019 5.gif
только я, наверное, в этом году откажусь зачинать и вести такую
(1) neoatheist,
Jan 1 2019, 23:38:17 Samarium - Right To Get Violent (2019)
aesteticvice, по-хорошему - мы знаем, кому ты должен был уступить зарелизить группу с таким ником ))
(3) AHBAnep, realexxx75, vosmidesijatye,
Jan 1 2019, 23:33:59 Survival - Survival [demo] (2011)
ЦИТАТА(Wail @ Dec 29 2018, 01:54:00) *
Please can you reup
Register

(2) pichileon, Wail,
Jan 1 2019, 23:24:46 Divulgence - Demo 2009 [demo] (2009)
Register
(2) pichileon, RotAnus,
Dec 23 2018, 23:41:54 Итальянская школа техно-дэта
ЦИТАТА(metala @ Dec 22 2018, 09:35:59) *
Уау... кат ты попал на етих гениалы?! И где я жил все етие годы неусведомлен так дольго о них существовании... прекрасная работа.
I was followed to the channel of this guy (YouTube) about a year or early ago. And from time to time he upload smth extra gem


all-releases-in-one is in Desecration - Reincarnation Of Eternal Suffering [best of/compilation] (2013)
listen on the bandcamp
(1) metala,
Dec 22 2018, 07:50:28 Итальянская школа техно-дэта (2) metala, SyncestrA,
Dec 21 2018, 16:20:05 Torque - Demo [demo] (1997)
Register
(2) METALHUNTER, RotAnus,
Dec 21 2018, 15:58:55 Asesino Violeta - Más Allá Del Fin (2000)
Register
(2) METALHUNTER, slack,
Dec 20 2018, 14:26:59 Золотой фонд техно/прог-трэша (1) Язва,
Dec 20 2018, 02:24:16 Ищу подобное, фактически прототип!
Пока ты ожидаешь знатоков и ценителей блэка - я тебе подкину из соседнего стиля темку
Бронебойный скоростной Death Metal

кстати, глянь вкладку похожих артистов на metal-archives
(1) Tarelka,
Dec 20 2018, 01:43:39 Hate Squad - Reborn From Ashes (2018)
ЦИТАТА(Samaritianin @ Dec 6 2018, 12:53:09) *

[more=НАМ П***Ц - ЭТО ЖЕ ГИТЛЕР!][/more]
(1) Diflock,
Dec 12 2018, 11:55:02 Vornth - Die Hard [demo] (2006)
ЦИТАТА(Wail @ Dec 11 2018, 02:29:30) *
Please can you reup
Register
(1) Wail,
Dec 12 2018, 11:38:44 Новости Thrash Metal направления
Немножечко ада с чадом кутежа:
https://youtu.be/EWmGBaHFLJM

[youtube]EWmGBaHFLJM[/youtube]

хз - та ли это французская группа, которая выпустила в этом году в апреле демку 3х песенную...
(1) METALHUNTER,
Dec 1 2018, 18:17:54 Sacrosanct - Necropolis (2018)
ЦИТАТА(Tarelka @ Nov 30 2018, 11:19:17) *
Вокалист кстати, покойного Караченцева напоминает)
Эт из какой метал-группы?

Мне вокалист напоминает Meliah Rage - Idol Hands (2018)
(1) Tarelka,

326 Pages V   1 2 3 > » 
- Lo-Fi Version Support form
Copyrights and abuse reports form
Time is now: 5th February 2023 - 18:08:47