Welcome Guest ( Log In | Register )

История благодарностей участнику TDM ::: Спасибо сказали: 9119 раз(а)
Дата поста: В теме: За сообщение: Спасибо сказали:
May 12 2021, 18:24:43 Альбом 2007 года в жанре technical/progressive death. Тур2
Отосрался.
Самая сложная голосовалка ever. Тонны отменного дерьма. Со слезами на глазах исключал порядка пяти учаснегов. В итоговом списке аж двое, которых не слышал раннее, но понравились, дал посонам шанс. В 2007-2008 году результат моего голосования был бы совершенно иной (кроме Сэйдиста и Дэзбрингера, конечно)
(1) Deze,
May 10 2021, 20:56:54 Альбом 2007 года в жанре technical/progressive death. Тур2
ЦИТАТА(6666666 @ May 10 2021, 21:55:45) *
Так голосовалки говно же.

"есть вещи на порядок выше, слышишь?" (с)
(2) Deze, hammer,
Apr 20 2021, 20:25:31 Paysage D'hiver - Geister (2021)
Не радует слишком чистый звук, я все ж фанат глухого пердежа в трубу на морозце от сабжа
(1) Tetragrammaton,
Apr 12 2021, 20:12:04 __________, или Голосовалка за лучший альбом 2020 года, Тур 2
Тема, гляжу, перспективная, сало хлещет из монитора.
(2) BleedingSun, infiltrator,
Mar 15 2021, 19:12:08 Lewis Pe - The Castle (2021)
Levi's Pee
(1) nsk2008,
Dec 21 2020, 16:38:17 Лучший советчик МА - Часть 13 (Солянка) - Тур 1, Общий сбор
стоунер-метал, который не стоунер-рок, достаточно сложно
потому что примерно половина стоунер-банд (которые не дум), это как раз стоунер рок/метал и пропорции даже норкоманы из палаты мер и весов (читай БМЗ) не установят
туда еще порой психеделик рок, рассупонив гульфик, прибегает
PS: где саузерн, господин крупьё?
(2) Tular, Un4given,
Nov 21 2020, 16:36:51 Dark Tranquillity - Moment (2020)
Пфф, Лунар Стрейн хорош своей неполовозрелостью
Потом письки заколосились и стали выдавать шедевры на все времена
но к 2004 Фриден энд компани поняли, шо лучше нет влагалища, чем очко товарища, и всё заверте...
(2) avather, infiltrator,
Nov 21 2020, 14:06:05 Dark Tranquillity - Moment (2020)
ЦИТАТА(6666666 @ Nov 21 2020, 15:04:57) *
За истину можно и пострадать.

Истина в вине, а поиски её в пиве.
(6) 6666666, avather, Ghostb, infiltrator, Old Vyaine, plfan93,
Nov 21 2020, 14:00:12 Dark Tranquillity - Moment (2020)
ЦИТАТА(6666666 @ Nov 21 2020, 14:58:03) *
Разумеется Skydancer.

А вот тут ты получаешь кованым немецким сапогом в правое подреберье.
(3) Faust_Vulkan_16, infiltrator, quicksand,
Nov 11 2020, 20:20:16 Nuclear Power Trio - A Clear And Present Rager [ep] (2020)
У Фридмана вечное 3 сентября
But the bottle is empty again
(1) Old Vyaine,
Nov 11 2020, 18:44:39 Nuclear Power Trio - A Clear And Present Rager [ep] (2020)
ЦИТАТА
Instrumental Progressive Metal/Rock/Fusion

перегрелся, тять, это ж просто инструментальный фьюжн
(1) Ghostb,
Oct 31 2020, 10:21:01 Al Rinach 333 - Eternal Negative Trinity (2019)
Верх бесполезности, апофеоз беспонтовости, экстремум бездарности, пик неслушабельности
(1) vosmidesijatye,
Oct 27 2020, 17:02:41 Te Ruki - E Tika Mateu [ep] (2020)
ЦИТАТА
ну где же ручки, ну где же ваши ручки, давай поднимем ручки и будем танцевать
(5) Dreamtale, Krosis, Kwaad, Shadowman, Shub,
Oct 13 2020, 16:13:05 Nächtlich & Grabesruhe - Nächtlich/Grabesruhe [split] (2020)
Сыро, подземно, унитазно, болезненно...
(1) noxspiritus,
Sep 30 2020, 19:44:36 Skáphe - Skáphe³ (2020)


*Artist: Skáphe
*Album: Skáphe³
*Year: 2020
*Genre: Black Metal
*Country: United States
*Format: mp3@CBR320kbps
*Size: 89MB

Tracklist:
1. VIII - Beyond Earthly Understanding 00:41
2. IX - The Lowest Abyss 04:30
3. X - Sing Lament to Thee 00:43
4. XI - The Ocean of Fire 05:10
5. XII - Buried in Dark Earth 00:49
6. XIII - The Shrill Cracks and Moan 05:33
7. XIV - A Spiritual Bypass 04:06
8. XV - Oblique Axis 00:56
9. XVI - Glass Sarcophagus 05:20
10. XVII - Rebirth Synthesis 08:49
******************************
Total playing time: 36:37

[more=Technical info]
Input File: 09 - XVI - Glass Sarcophagus.mp3
Channels : 2
Sample Rate : 44100
Precision : 16-bit
Duration : 00:05:20.12 = 14117380 samples = 24009.1 CDDA sectors
File Size : 13.1M
Bit Rate : 327k
Sample Encoding: MPEG audio (layer I, II or III)
Comments :
Title=XVI - Glass Sarcophagus
Artist=Skáphe
Album=Skáphe³
Tracknumber=9
Year=2020
Genre=Black Metal

[/more]

Register
(63) 1968_janeart, 6666666, abob, acerbus, AlexSmith, alikkon, as71, BERZERK, Boozer, Bzth, caro, Chasm, Daale, daemonarch, DarkHorde, Dmitry1977, El_Chibo, Fryz, grimoir, Hell_Is_Here, Ildjarn, infiltrator, judaz, kim666, kimkayoung, korovakaska, Lamby90, metaljosue, milosdjor, MMMMM, Moonshtook, Mortuusinfernus, MrSatanislav, multizwilling, murian, nemx, NOMIDIMON, Old Vyaine, Olethros, peppuzzo, randumbum, Razorbladeswaltz, ripper33, robertho777, Rosen, sabr, SaintVitus, sarcophagus, SilentNidhogg, skeletron215, smes, thenecromancer, Trelledorn, Tyrone, VALERY, varlam4, vov7609, wreak, wtk.412, xska, Yorker, yuratroll, Авел,
Sep 16 2020, 08:27:25 Cannibal Corpse - Tomb Of The Mutilated (1992)
Лично всегда переводил название, как "Могила покалеченных"
Непонятно откуда тут вообще возникла идея ед.ч.
Дисамур - батя, все разложил, как надо, ну и опыт непотребств в могилах и склепах явно имеет
(1) plfan93,
Aug 22 2020, 09:13:22 Aten - Stars [ep] (2020)


*Artist: Aten
*Album: Stars [ep]
*Year: 2020
*Genre: Death Metal
*Country: Albania
*Format: mp3@CBR320kbps
*Size: 65MB

Tracklist:
1. I Call upon Thy Name 06:02
2. Star-Born 04:08
3. Above the Men 04:59
4. Dyonisia 04:35
5. The Mark of Death 04:12
******************************
Total playing time: 23:56

[more=Technical info]
Input File: 04 - Dyonisia.mp3
Channels : 2
Sample Rate : 44100
Precision : 16-bit
Duration : 00:04:35.56 = 12152108 samples = 20666.9 CDDA sectors
File Size : 11.0M
Bit Rate : 320k
Sample Encoding: MPEG audio (layer I, II or III)
Comments :
Title=Dyonisia
Artist=Aten
Album=Stars EP
Tracknumber=4
Year=2020
Genre=Death Metal

[/more]

Register
(12) caro, frituz3, infiltrator, METALHUNTER, Olethros, Rosen, TeamatSE, VALERY, varlam4, vyacheslav, wanderer73, wreak,
Jun 16 2020, 13:40:27 Beltane - Wsov [ep] (2005)


*Artist: Beltane
*Album: Wsov [ep]
*Year: 2005
*Genre: Black Metal
*Country: New Zealand
*Format: mp3@CBR320kbps
*Size: 60MB

Tracklist:
1. 2015 S.P.I.K.Y II 07:29
2. North Sun 06:41
3. A.i.j. / A.S. 05:21
4. Voudoun 05:46
******************************
Total playing time: 25:17

[more=Technical info]
Input File: 02 - North Sun.mp3
Channels : 2
Sample Rate : 44100
Precision : 16-bit
Duration : 00:06:41.32 = 17698124 samples = 30098.9 CDDA sectors
File Size : 16.1M
Bit Rate : 320k
Sample Encoding: MPEG audio (layer I, II or III)
Comments :
Title=North Sun
Artist=Beltane
Album=WSOV EP
Tracknumber=2
Year=2005
Genre=Black Metal

[/more]

Register
(14) 1968_janeart, infiltrator, kim666, Ludwig Hagen, Olethros, randumbum, robertho777, Rosen, SilentNidhogg, stub888, Svafrlami, VALERY, varlam4, vasiljev_sergej,
Jun 16 2020, 13:37:34 Avernus - Disappear/Silver And Black [demo] (1997)
Register
(1) thenecromancer,
May 29 2020, 11:52:23 Альбом 2008 года в жанре technical / progressive death. Тур1
Cynic - Traced In Air - максимум баллов
(1) Язва,
May 27 2020, 21:22:03 Альбом 2019 года в жанре technical / progressive death. Финал
Що тут казатi?
Эквипойз топчик, Инанимейт - найс, Найл не люблю, хотя альбом хороший, Аллегеон хуже предыдущего, а значит фтопку.
(2) Ghostb, Язва,
Feb 21 2020, 14:58:45 Лучший советчик МА - Часть 5 (Прог) - Тур 2, Рейтингование
1994
House Of Spirits - Turn Of The Tide - 1
старались в свои годы, но DT тогда был пободрее

Vauxdvihl - To Dimension Logic - 1
твердая, как уд, мужская единица

1995
Kobong - Kobong - 0
прогшляпинг

1996
Annon Vin - A New Gate - 1
стараюццо

End Zone - Thalatta et Thanatos - 3
годнилий

Ens Cogitans - Heart of the Way - 1
стараюццо

1997
Sync - Variations About Themes of Evil (EP) - 0

1998
Korova - Dead Like an Angel - 1
из всего творчества предпочитаю последний альбом

Magnitude 9 - Chaos To Control - 1
уважаемые говноделы, сиречь группа в своей нише отличная, но такое не люблю

Seer's Tear - Precious - 2
расслушал не сразу, но оч понравилось

1999
Ebonylake - On The Eve Of The Grimly Inventive - 0
говнилий

2000
Forgotten Silence - KaBaAch - 2
не лучший опус сабжа, есть у них вещи и на троечку

Koyaanisqatsy - From The Yearning To Burst - 2
гитарки нравятся не совсем, в остальным выше многих похвал

2002
Hourglass - The Journey Into - 1
стараюццо

Ring Of Fire - Dreamtower - 0
отвратительная содомия

2003
John Arch - A Twist Of Fate (EP) - 0
что-то непонятное

2004
Equirhodont - Black Crystal - 0
кто здесь? 17.gif

2007
NewBreed - Child Of The Sun - б.о., так как моё

Sepia Dreamer - The Sublime - 2

Step Into Liquid (post-Megace) - Traffic in My Head - 0

2008
Another Life - Memories From Nothing - 2
первый дицк - отл, второй - непонятная срань

Ansur - Warring Factions - 3

Dekadent - The Deliverance Of The Fall
- 2
блэцк

Janvs - Vega - 2
аппенинская годнота

Kurai - Mantra - 0
за несколько прослушек так и не понял

2009
Odd Logic - Legends Of Monta: Part II - 1

Psychostatus - Chains Of Life - 2
мило

Stormy Atmosphere - Color Blind - 2
интересно девки пляшут

2010
Dreyelands - Rooms Of Revelation - 0

Look To Windward - Fortunes Haze - 0

Sole Remedy - Apoptosis - 2

The Shadow Theory - Behind The Black Veil
- 1

Whirling - Faceless Phenomena - 0

White Walls - Mad Man Circus - 0

2011
Diapsiquir - A.N.T.I. - 1
не особо нужны, хотя забавные телеги есть, при любых условиях выберу пестиков

2012
Kälter - Ubuntu - 2
хороший линукс

The Levitation Hex - The Levitation Hex - 3

2013
Theater Of The Absurd - The Myth Of Sisyphus - 1

2014
Appearance of Nothing - A New Beginning - 1
стараюццо

2015
Zierler - ESC - 2
немного затянуто, но бомб хватает

2016
Hteththemeth - Best Worst Case Scenario - 2
многовато проходняка

2018
Hollow - Between Eternities Of Darkness - 0
не слушаю такое
(4) Deze, Emm Human, infiltrator, Yarri,
Jan 21 2020, 20:47:14 Лучший советчик МА - Часть 5 (Прог) - Тур 2, Рейтингование
ЦИТАТА(mirotvorets @ Jan 21 2020, 17:16:22) *
нет сатанизма, ведь это музыка, порождаемая позитивным настроением и демонстрирующая созидательную работу мысли, и соответственно несущая духоподъёмный настрой.

очень плохо
с таким подходом лучше сразу воцерковиться и рукоблудить по гитарке средь сводов
митол должен быть минорным
(2) infiltrator, Фо,
Jan 16 2020, 21:10:11 Лучший советчик МА - Часть 5 (Прог) - Тур 1, Общий сбор
прогтур имени Бокассы
(2) infiltrator, Фо,
Jan 16 2020, 20:47:26 Лучший советчик МА - Часть 5 (Прог) - Тур 1, Общий сбор
ЦИТАТА(mirotvorets @ Jan 16 2020, 21:37:36) *
надо как Фо, сам записал, на СКлоуд выложил - первородность обеспечена, .

то есть надо успеть до начала голосования записать прог-альбом и выложить на саундклауд?
(2) infiltrator, plfan93,

76 Pages V   1 2 3 > » 
- Lo-Fi Version Support form
Copyrights and abuse reports form
Time is now: 17th May 2021 - 20:51:43