Welcome Guest ( Log In | Register )

История благодарностей участнику TDM ::: Спасибо сказали: 9218 раз(а)
Дата поста: В теме: За сообщение: Спасибо сказали:
Sep 9 2021, 15:34:44 Ак Бүре - Безнең Ил (2021)
ЦИТАТА(p4B10 @ Sep 9 2021, 14:30:29) *
только пауки - не насекомые, внезапно

Древние тюрки не шарили в членистоногих
(2) Penetralia, plfan93,
Sep 9 2021, 07:33:17 Ак Бүре - Безнең Ил (2021)
ЦИТАТА(Aresson @ Sep 9 2021, 08:05:03) *
кторое из этих слов "чёрный", а которое "бровь"?

во всех тюркских языках "кара" - черный, "ак" - белый, "кызыл" - красный
(3) Daecadance, ingram, plfan93,
Sep 6 2021, 21:07:50 Kenn Nardi - Trauma (2021)
ЦИТАТА(Old Vyaine @ Sep 6 2021, 21:58:05) *
Я проверю.

это даже не смешно
вот щас ТДМ проверит...

VK-прог
фтопку
(1) Shadowman,
Aug 18 2021, 21:02:39 Diploid - "Is God Up There?" (2016)
ЦИТАТА(Evgundel @ Aug 16 2021, 19:52:57) *
*Genre: Powerviolence/Screamo/Black Metal/Noise

http://old.301-1.ru/gen-mems/img_mems/34bbfa64f7133a58662cc05f3a787640.jpg
(2) Deze, Ludwig Hagen,
Aug 12 2021, 08:14:17 Шип Сна - Шип Сна [ep] (2021)
ЦИТАТА(vosmidesijatye @ Aug 11 2021, 20:45:36) *
Открыл лирику с твоего этого Анбиинга...
facessspalm.png 15.gif
Это школярное творчество типа хороший текст?

многие англоязычные тексты такие же
если потрудиться перевести bye.gif
(3) Evjenne, Glioma, Zyozic_Bandutto,
Aug 10 2021, 09:27:06 Bloody Cumshot - Nymphomania (2021)
недурнец 20.gif

а это ведь женский one-woman band, оказывается
итить-колотить
Жунька молодцом!
любительница кровавых камшотов и зубастых вагин
(1) metamfer,
Jul 6 2021, 11:26:42 Enslaved - The Rise Of Ymir (Verftet Online Festival 2020) [live] (2021)


*Artist: Enslaved
*Album: The Rise Of Ymir (Verftet Online Festival 2020) [live]
*Year: 2021
*Genre: Progressive Black/Viking Metal
*Country: Norway
*Format: mp3@CBR320kbps
*Size: 127MB

Tracklist:
1. Ethica Odini 08:36
2. Return to Yggdrasil 05:30
3. Ruun 07:44
4. The Dead Stare 05:43
5. The Crossing 09:17
6. Havenless 05:33
7. Sacred Horse 07:55
8. Isa 03:52
******************************
Total playing time: 54:10

[more=Technical info]
Input File: 03 - Ruun (Verftet Online Festival 2020).mp3
Channels : 2
Sample Rate : 44100
Precision : 16-bit
Duration : 00:07:44.72 = 20494196 samples = 34854.1 CDDA sectors
File Size : 18.9M
Bit Rate : 325k
Sample Encoding: MPEG audio (layer I, II or III)
Comments :
Title=Ruun (Verftet Online Festival 2020)
Artist=Enslaved (Nor)
Album=The Rise Of Ymir (Verftet Online Festival 2020)
Tracknumber=03/08
Year=2021
Genre=Progressive Viking Metal
Discnumber=1/1

[/more]

Register
(19) AHBAnep, Bzth, cancer1974, caro, Cartman223, cesar, Constantinus I, dulak, Hell_Is_Here, Marek, nikolay81, Olethros, oyhra_blood, Reverend, supremo, Taakeferd, VALERY, varlam4, wreak,
Jul 5 2021, 21:29:54 At The Gates - The Nightmare Of Being (2021)
ЦИТАТА(6666666 @ Jul 5 2021, 22:27:58) *
Месить

глиномес!
(2) Ghostb, infiltrator,
Jul 5 2021, 21:28:00 Крутейшие Black Thrash Metal творения
Zwartketterij - Cult Of The Necro-Thrasher
(1) Tarelka,
Jul 1 2021, 17:03:55 Darkthrone - Eternal Hails...... (2021)
ЦИТАТА(Strangler @ Jul 1 2021, 17:53:13) *
Альбом плох, ему нечего предложить современному слушателю. И ностальгирующим тоже нечего.

более того, если б альбом был выпущен под другой, менее известной вывеской, комменты бы делились на 2 группы:
а) шо за тухлые бездари, проходняк, вк-митол
б) все это было сыграно раннее тыщу раз + название "типа очень классической группы конца 80-х - начала 90-х"
(2) infiltrator, Strangler,
Jun 25 2021, 18:50:50 Darkthrone - Eternal Hails...... (2021)
Затхлый, бездарный кусок гамна.
Оправдать можно только тем, что ребята чисто для себя играют.
Другим такое исподнее я бы постыдился показывать.
(3) ent404, infiltrator, Svetozar,
Jun 8 2021, 20:22:54 Waldweg - Waldweg [demo] (2015)


*Artist: Waldweg
*Album: Waldweg [demo]
*Year: 2015
*Genre: Black Metal
*Country: Italy
*Format: mp3@CBR320kbps
*Size: 79MB

Tracklist:
1. In Lontananza Kiapparo 6:04
2. Rugiada 2:51
3. Dall'argenteo Confine 6:56
4. Una Lama nel Gelo 3:59
5. Autunno 5:55
6. la Tavola Degli Otto 4:56
7. Demoniaca Paranoia 4:16
******************************
Total playing time: 34:57

[more=Extended info]Rip с CD-R[/more]

[more=Technical info]
Input File: 01 - In Lontananza Riappaio.mp3
Channels : 2
Sample Rate : 44100
Precision : 16-bit
Duration : 00:06:02.13 = 15970021 samples = 27159.9 CDDA sectors
File Size : 14.5M
Bit Rate : 320k
Sample Encoding: MPEG audio (layer I, II or III)
Comments :
Title=In Lontananza Riappaio
Artist=Waldweg
Album=Waldweg (Demo)
Tracknumber=1
Year=2015
Genre=Black Metal

[/more]

Register
(7) infiltrator, Olethros, SilentNidhogg, uncolored, varlam4, Wail, wreak,
Jun 8 2021, 20:08:59 Le Prochain Hiver - Hiver '96 (2021)
ЦИТАТА(rominow @ Jun 8 2021, 13:39:20) *
В целом отлично, но вокализы (завывания) бабы на заднем плане, сквозь весь альбом, уже к середине порядком надоедают.

справедливое замечание
(1) nsk2008,
Jun 3 2021, 11:12:43 Альбом 2007 года в жанре technical / progressive death metal. Итоги.
Собсна, свежак от Дэзбрингера
(1) CRUNCH,
Jun 2 2021, 22:14:17 Deathbringer - Homo Divisus (2007)
Собсна, свежак
(1) Нигилист,
May 12 2021, 18:24:43 Альбом 2007 года в жанре technical/progressive death. Тур2
Отосрался.
Самая сложная голосовалка ever. Тонны отменного дерьма. Со слезами на глазах исключал порядка пяти учаснегов. В итоговом списке аж двое, которых не слышал раннее, но понравились, дал посонам шанс. В 2007-2008 году результат моего голосования был бы совершенно иной (кроме Сэйдиста и Дэзбрингера, конечно)
(1) Deze,
May 10 2021, 20:56:54 Альбом 2007 года в жанре technical/progressive death. Тур2
ЦИТАТА(6666666 @ May 10 2021, 21:55:45) *
Так голосовалки говно же.

"есть вещи на порядок выше, слышишь?" (с)
(2) Deze, hammer,
Apr 20 2021, 20:25:31 Paysage D'hiver - Geister (2021)
Не радует слишком чистый звук, я все ж фанат глухого пердежа в трубу на морозце от сабжа
(1) Tetragrammaton,
Apr 12 2021, 20:12:04 __________, или Голосовалка за лучший альбом 2020 года, Тур 2
Тема, гляжу, перспективная, сало хлещет из монитора.
(2) BleedingSun, infiltrator,
Mar 15 2021, 19:12:08 Lewis Pe - The Castle (2021)
Levi's Pee
(1) nsk2008,
Dec 21 2020, 16:38:17 Лучший советчик МА - Часть 13 (Солянка) - Тур 1, Общий сбор
стоунер-метал, который не стоунер-рок, достаточно сложно
потому что примерно половина стоунер-банд (которые не дум), это как раз стоунер рок/метал и пропорции даже норкоманы из палаты мер и весов (читай БМЗ) не установят
туда еще порой психеделик рок, рассупонив гульфик, прибегает
PS: где саузерн, господин крупьё?
(2) Tular, Un4given,
Nov 21 2020, 16:36:51 Dark Tranquillity - Moment (2020)
Пфф, Лунар Стрейн хорош своей неполовозрелостью
Потом письки заколосились и стали выдавать шедевры на все времена
но к 2004 Фриден энд компани поняли, шо лучше нет влагалища, чем очко товарища, и всё заверте...
(2) avather, infiltrator,
Nov 21 2020, 14:06:05 Dark Tranquillity - Moment (2020)
ЦИТАТА(6666666 @ Nov 21 2020, 15:04:57) *
За истину можно и пострадать.

Истина в вине, а поиски её в пиве.
(6) 6666666, avather, Ghostb, infiltrator, Old Vyaine, plfan93,
Nov 21 2020, 14:00:12 Dark Tranquillity - Moment (2020)
ЦИТАТА(6666666 @ Nov 21 2020, 14:58:03) *
Разумеется Skydancer.

А вот тут ты получаешь кованым немецким сапогом в правое подреберье.
(4) Faust_Vulkan_16, infiltrator, Proteus_666, quicksand,
Nov 11 2020, 20:20:16 Nuclear Power Trio - A Clear And Present Rager [ep] (2020)
У Фридмана вечное 3 сентября
But the bottle is empty again
(1) Old Vyaine,

77 Pages V   1 2 3 > » 
- Lo-Fi Version Support form
Copyrights and abuse reports form
Time is now: 16th September 2021 - 12:30:06