Welcome Guest ( Log In | Register )

История благодарностей участнику TDM ::: Спасибо сказали: 8481 раз(а)
Дата поста: В теме: За сообщение: Спасибо сказали:
Yesterday, 21:05:19 Лучший советчик МА - Часть 4 (Блэк) - Тур 2
ЦИТАТА(vosmidesijatye @ Dec 15 2019, 11:56:08) *
Ты Фо первый раз читаешь чтоли? 1488.gif

Как раз таки относительно сабжа Фо пояснил, как батя
(1) Фо,
Yesterday, 21:03:50 Золотой фонд техно-дэта
У него и сладж со стоунером неформат crazy.gif
(1) vosmidesijatye,
Dec 12 2019, 16:42:24 Лучший советчик МА - Часть 4 (Блэк) - Тур 2
ЦИТАТА(vosmidesijatye @ Dec 12 2019, 18:20:39) *
Эт ты к чему базланул ваще? headcrab.png

когда отвечаю на 1-2 вышерасположенных сообщения, то зачастую не использую цитирование
соответственно речь о Dead Silent Slumber
(2) infiltrator, vosmidesijatye,
Dec 11 2019, 14:58:34 Лучший советчик МА - Часть 4 (Блэк) - Тур 2
Снулое бездарное гамно не может быть беспроигрышным вариантом - не тешьте себя слепыми иллюзиями.
(1) Фо,
Dec 11 2019, 13:40:54 Лучший советчик МА - Часть 4 (Блэк) - Тур 2
Гармонбозии печаль непонятна мне
(1) Deze,
Dec 11 2019, 13:36:45 Лучший советчик МА - Часть 4 (Блэк) - Тур 2
ну, если тур не закончится баньками и угрозами физической расправы ИРЛ, то он прошел впустую

ЦИТАТА(Deze @ Dec 11 2019, 15:35:14) *
Увы, нет. Единственное, акустическая инструменталка в середине отличная.

увы, да
(1) eternald,
Dec 11 2019, 13:33:32 Лучший советчик МА - Часть 4 (Блэк) - Тур 2
Берега Бен Ладена - то, что доктор Менгеле прописал true_black.gif banana.gif
(1) acerbus,
Dec 11 2019, 13:05:17 Лучший советчик МА - Часть 4 (Блэк) - Тур 2
не знаю шо там по остальной сыри, но Армянешафт просто гамно
(1) Penetralia,
Dec 10 2019, 12:28:48 [Amatory] - Doom (2019)
ЦИТАТА(vosmidesijatye @ Dec 10 2019, 14:26:53) *
Это кор подростковый. А любой кор за исключением отдельных исполнителей хардкора - хрень.

но это не значит, что это не рок
(2) garmonbozia, plfan93,
Dec 10 2019, 12:14:33 Лучший советчик МА - Часть 4 (Блэк) - Тур 2
Пожалуй, соглашусь.
Дело, видать, в большей разномастности блэковых подстилей от сырого подвала через суицид и капище к зиге и симфониям (ну, вы сами знаете).
В этом году закотировал ацтеков Blue hummingbird on the left, даже хотел их сюда принесть.

ЦИТАТА(Deze @ Dec 10 2019, 14:03:38) *
на каждый тред свои локальные культы.

support local true_black.gif
(1) Deze,
Dec 9 2019, 14:38:13 Лучший советчик МА - Часть 3 (Треш) - Итоги
ЦИТАТА(Deze @ Dec 9 2019, 16:32:41) *
Дык, их никогда не было.

Секта "попырри" отрабатывает)
(1) Deze,
Dec 9 2019, 09:37:05 Лучший советчик МА - Часть 3 (Треш) - Итоги
Алексис все верно расписал.
(1) Alexis The Best,
Dec 8 2019, 13:28:58 Лучший советчик МА - Часть 4 (Блэк) - Тур 1, Общий сбор
Все зависит от характера жужжания и тарахтения genius.gif
Мои фавориты: ненавязчивое жужжание и осмысленное тарахтение
(1) plfan93,
Dec 8 2019, 12:45:45 Лучший советчик МА - Часть 4 (Блэк) - Тур 1, Общий сбор
ЦИТАТА(Penetralia @ Dec 8 2019, 14:44:23) *
Есть такое слово "поппури", а у нас "попыри" 1488.gif

тогда уж "попурри" - "попырри"
(1) Deze,
Dec 8 2019, 12:44:41 The Curf - Among Others (2019)
ЦИТАТА(avkruchinin @ Dec 8 2019, 14:43:31) *
Kehl05 смотрю вплотную занялся TDMом fear.gif

Шутки шутками, а ведь аэстетика он ушатал 25.gif

не удастся
(1) avkruchinin,
Dec 8 2019, 12:41:16 Лучший советчик МА - Часть 4 (Блэк) - Тур 1, Общий сбор
адепты попыра уже на низком старте и скоро принесут нам много еды
(2) Deze, plfan93,
Dec 8 2019, 12:34:31 Лучший советчик МА - Часть 4 (Блэк) - Тур 1, Общий сбор
в блэчке самое бурление и жирнение должно быть
сходил за пивом и попкорном
(2) Deze, vosmidesijatye,
Dec 8 2019, 11:01:33 Sxwxp - Trans Am Jams (2019)


*Artist: Sxwxp
*Album: Trans Am Jams
*Year: 2019
*Genre: Southern/Groove Metal
*Country: United States
*Format: mp3@CBR320kbps
*Size: 79MB

Tracklist:
01. Trans Am Jams 0:44
02. Rising Tides 4:12
03. Closing Time 3:54
04. I Tried 5:04
05. Cup Of Sorrow 5:24
06. Fallen Angel 4:52
07. I'll Drink Till I Die 6:28
08. From Day One 5:19
******************************
Total playing time: 35:57

[more=Technical info]
Input File: 07 - I\'ll Drink Till I Die.mp3
Channels : 2
Sample Rate : 44100
Precision : 16-bit
Duration : 00:06:28.51 = 17133467 samples = 29138.5 CDDA sectors
File Size : 15.5M
Bit Rate : 320k
Sample Encoding: MPEG audio (layer I, II or III)
Comments :
Title=I'll Drink Till I Die
Artist=SxWxP
Album=Trans Am Jams
Tracknumber=7
Year=2019
Genre=Southern/Groove Metal

[/more]

Register
(4) boby9052, morbidangelo, Olethros, Rosen,
Dec 8 2019, 10:49:21 Dusteroid - Tyrannosonor (2010)


*Artist: Dusteroid
*Album: Tyrannosonor
*Year: 2010
*Genre: Stoner Metal
*Country: United Kingdom
*Format: mp3@CBR320kbps
*Size: 124MB

Tracklist:
1. Defy 04:59
2. High Roller 05:30
3. Tomahawk StormTroopers 05:33
4. Whiskey Overdose 07:27
5. Imprisonment 05:02
6. The Rolling Head 06:10
7. Holy Sin 05:33
8. Dusty Road 05:05
9. Hidden Track 03:10
******************************
Total playing time: 43:13

[more=Technical info]
Input File: 04 - Whiskey Overdose.mp3
Channels : 2
Sample Rate : 44100
Precision : 16-bit
Duration : 00:07:25.87 = 19662647 samples = 33439.9 CDDA sectors
File Size : 17.8M
Bit Rate : 320k
Sample Encoding: MPEG audio (layer I, II or III)
Comments :
Title=Whiskey Overdose
Artist=Dusteroid
Album=TyrannoSonor
Tracknumber=4/8
Year=2010
Genre=Stoner Metal

[/more]

Register
(4) marilin, Olethros, Ostinato, Rosen,
Dec 8 2019, 10:47:18 Dusteroid - To Fathom Hell (2016)


*Artist: Dusteroid
*Album: To Fathom Hell
*Year: 2016
*Genre: Stoner Metal
*Country: United Kingdom
*Format: mp3@CBR320kbps
*Size: 105MB

Tracklist:
1. Crack 08:28
2. To Fathom Hell 12:37
3. The One 13:58
4. Underdog Basement Jam 08:10
******************************
Total playing time: 43:13

[more=Technical info]
Input File: 03 - The One.mp3
Channels : 2
Sample Rate : 44100
Precision : 16-bit
Duration : 00:15:03.07 = 39825299 samples = 67730.1 CDDA sectors
File Size : 36.1M
Bit Rate : 320k
Sample Encoding: MPEG audio (layer I, II or III)
Comments :
Title=The One
Artist=Dusteroid
Album=To Fathom Hell
Tracknumber=3/4
Year=2016
Genre=Stoner Metal

[/more]

Register
(4) marilin, Olethros, Rosen, VALERY,
Dec 8 2019, 10:43:43 Scissorfight - Doomus Abruptus, Vol.1 (2019)


*Artist: Scissorfight
*Album: Doomus Abruptus, Vol.1
*Year: 2019
*Genre: Southern/Stoner Metal
*Country: United States
*Format: mp3@CBR320kbps
*Size: 101MB

Tracklist:
01. Caveman Television 3:38
02. Dumpfight 3:31
03. Coagulus 3:38
04. Rock And / Or Die 4:07
05. Where Eagles Drink 4:19
06. Piss in the Wind 3:29
07. The Battle of (Mudhole Mountain) 5:52
08. Lead Venom 5:32
09. Whatcha Get 5:24
10. Piss Halen 0:43
11. Blood Rust Dust 4:33
******************************
Total playing time: 44:46

[more=Technical info]
Input File: 03 - Coagulus.mp3
Channels : 2
Sample Rate : 44100
Precision : 16-bit
Duration : 00:03:38.06 = 9616270 samples = 16354.2 CDDA sectors
File Size : 8.72M
Bit Rate : 320k
Sample Encoding: MPEG audio (layer I, II or III)
Comments :
Title=Coagulus
Artist=Scissorfight
Album=Doomus Abruptus, Vol. 1
Tracknumber=3/11
Year=2019
Genre=Southern/Stoner Metal

[/more]

Register
(3) marilin, Olethros, Rosen,
Dec 8 2019, 10:35:33 Legba - Hell (2019)


*Artist: Legba
*Album: Hell
*Year: 2019
*Genre: Sludge/Doom Metal
*Country: United States
*Format: mp3@CBR320kbps
*Size: 140MB

Tracklist:
1. Mother's Flood 07:08
2. Beaten Dead 05:05
3. Bringer of Fire 07:51
4. Bury the Bones 07:10
5. Our Grave 05:01
6. Hell 07:14
7. My Dear 07:43
8. The Day We Died 07:16
9. Gone Like the Ghost 06:51
******************************
Total playing time: 1:01:19



[more=Technical info]
Input File: 05 - Our Grave.mp3
Channels : 2
Sample Rate : 44100
Precision : 16-bit
Duration : 00:05:01.68 = 13304132 samples = 22626.1 CDDA sectors
File Size : 12.1M
Bit Rate : 320k
Sample Encoding: MPEG audio (layer I, II or III)
Comments :
Title=Our Grave
Artist=Legba
Album=Hell
Tracknumber=5
Year=2019
Genre=Sludge/Doom Metal

[/more]

Register
(10) ahp, atom72, igorzz, Kodel, marilin, Olethros, Ostinato, Rosen, stub888, VALERY,
Dec 8 2019, 10:31:46 The Curf - Among Others (2019)


*Artist: The Curf
*Album: Among Others
*Year: 2019
*Genre: Stoner/Doom Metal
*Country: Greece
*Format: mp3@CBR320kbps
*Size: 77MB

Tracklist:
1. I Stole The Day 04:13
2. Book Of Faces 05:15
3. Invocation 03:14
4. Deceive 05:51
5. Away From Me 02:37
6. Venomous Thoughts 04:17
7. Feeling Sad 03:26
8. Creepy Little Things 04:50
******************************
Total playing time: 33:43



[more=Technical info]
Input File: 03 - Invocation.mp3
Channels : 2
Sample Rate : 44100
Precision : 16-bit
Duration : 00:03:14.36 = 8571320 samples = 14577.1 CDDA sectors
File Size : 7.78M
Bit Rate : 320k
Sample Encoding: MPEG audio (layer I, II or III)
Comments :
Title=Invocation
Artist=The Curf
Album=Among Others
Tracknumber=3
Year=2019
Genre=Stoner/Doom Metal

[/more]

Register
(9) ahp, avkruchinin, gena, igorzz, marilin, Olethros, Rosen, Tular, VALERY,
Dec 8 2019, 07:32:34 Лучший советчик МА - Часть 4 (Блэк) - Тур 1, Общий сбор
ЦИТАТА(Emm Human @ Dec 8 2019, 09:11:07) *
Ну не знаток я блэкового "подполья"! smile1.gif
Ну пусть тогда это будет

У Фломастера на ласте слушателей в 2 раза больше, чем юзверей на арее.
(1) Deze,
Dec 6 2019, 20:40:12 Лучший советчик МА - Часть 3 (Трэш) - Тур 2, Рейтингование
Искать аритмию в гамне... Да вы абстракционисты...
(1) plfan93,

74 Pages V   1 2 3 > » 
- Lo-Fi Version Support form
Copyrights and abuse reports form
Time is now: 16th December 2019 - 01:14:27