Welcome Guest ( Log In | Register )

История благодарностей участнику TDM ::: Спасибо сказали: 9629 раз(а)
Дата поста: В теме: За сообщение: Спасибо сказали:
Feb 15 2024, 14:40:51 Ihsahn - Ihsahn (2024)
Изяна уважаем
за капс в тэгах - бить ногами
(3) aesteticvice, Ash_1980, Old Vyaine,
Jan 24 2024, 20:55:25 Horror On Black Heels - An Empty Throne (2014)
ЦИТАТА(Shadechaser @ Jan 24 2024, 10:16:31) *
вона чё на фейсбуке нашёл:
действительно, сначала был ужас на чёрных каблуках. 8 лет назад переименовались.

норкоманы
(1) BlackSwordMaster88,
Jan 23 2024, 16:53:29 Horror On Black Heels - An Empty Throne (2014)
ЦИТАТА(Veggr @ Jan 23 2024, 17:42:47) *
TDM, у тебя неправильное название группы в заголовке.

вот так
Horror on Black Hills
https://www.metal-archives.com/bands/Horror...ills/3540406949

Раз
Два

Заслал на архивы репорт о неправильном названии группы.
(1) Veggr,
Jan 23 2024, 08:57:53 Horror On Black Heels - An Empty Throne (2014)


*Artist: Horror On Black Heels
*Album: An Empty Throne
*Year: 2014
*Genre: Symphonic Black/Death Metal
*Country: Uruguay
*Format: mp3@CBR320kbps
*Size: 147MB

Tracklist:
01 Her Legend 06:10
02 ...and The Wounded God Slept 03:37
03 Beheading The Queen 02:51
04 Goddess Incomplete 03:18
05 Branches Of A Dead World 02:57
06 Four Seasons Without Her 04:25
07 I, the Giant 01:53
08 Mother War 04:10
09 Rios de Sal 04:17
******************************
Total playing time: 33:38

[more=Technical info]
Input File: 04 - Goddess Incomplete.mp3
Channels : 2
Sample Rate : 44100
Precision : 16-bit
Duration : 00:03:18.57 = 8756937 samples = 14892.8 CDDA sectors
File Size : 7.94M
Bit Rate : 320k
Sample Encoding: MPEG audio (layer I, II or III)
Comments :
Title=Goddess Incomplete
Artist=Horror On Black Heels
Album=An Empty Throne
Tracknumber=4
Year=2014
Genre=Symphonic Black/Death Metal

[/more]

Register
(18) Altkiller, artscald, BlackSwordMaster88, Carcharoth, dermarsoran, kim666, LiarOfAngmar, lldma, MMMMM, Mogozoz, Radek, Shadechaser, supremo, TeamatSE, VALERY, Wail, Weikai, wreak,
Dec 15 2023, 21:56:01 Therion - Leviathan III (2023)
Ради справки:
с утра обмазался треками с сабжа 2, 6, 7, при этом треки 2 и 5 слушал раннее
а под вечер по синьке накатил с Сириуса Б 2, 4 и 7
разница будто после вселенского шайзе Дерьмодемона вдохнул мудрости валаров и шляпок мухоморов
(3) BoomBox, Hexenmeister, xyzABC,
Dec 5 2023, 20:03:12 Syn - Villfarelse (2023)
Слава старым способам!
(2) Occultas, vosmidesijatye,
Nov 2 2023, 20:23:44 Xoth - Exogalactic (2023)
ЦИТАТА(Genuine Thrashiac @ Nov 2 2023, 21:14:11) *
помесь Dimmu Borgir с Земляне

spiritual black рокот космодрома
puritanical euphoric трава у дома
(7) apries, Genuine Thrashiac, Ghostb, Kitalter, Penetralia, Strid, xax,
Nov 2 2023, 10:57:44 Schreigarm - The Mysteries Of Fate (2023)
ближе к калу
из-за вокалу
(1) Bulldozzzzzzer,
Oct 5 2023, 11:18:24 Peste Noire - Antîoche - Livre I [ep] (2023)
ЦИТАТА(Aresson @ Oct 5 2023, 12:15:49) *
блэк шансон на раёне?)

стафф мягок и люб
(1) Kwaad,
Sep 19 2023, 20:59:26 Тролль Гнет Ель - Хмель Его Хранил [ep] (2023)
ЦИТАТА(aesteticvice @ Sep 19 2023, 21:53:53) *
че-то унылое вызывающее зевоту, под это не пиво пить, а только какахи откладывать с перепою

Дароф, Beer Bulldozer!
(1) aesteticvice,
Jun 7 2023, 07:15:02 Cień
Register

Register

Register

Register
(1) blaskhyrk,
May 24 2023, 19:55:47 Олицетворение блэка
а Макс сошел с ума и стал говнарем одновременно и было это давно
в этом различие
(1) SSWolf88,
May 22 2023, 23:00:34 Олицетворение блэка
ЦИТАТА(Alamar @ May 22 2023, 23:43:46) *
Ну дык я их в эту шапку и не двигаю. Мне вообще не очень понятно, как обсуждение на них перекинулось.

слишком много пациентов без адекватной терапии на квадратный метр нашего дурдома
(1) SSWolf88,
May 22 2023, 22:34:25 Олицетворение блэка
ЦИТАТА(Alamar @ May 22 2023, 23:33:49) *
Не квинтэссенция жанра, понятное дело. Что не мешает им (в лучших проявлениях) быть интереснее подавляющего большинства трушничков.

шапку темы перечитать не мешало бы
(1) SSWolf88,
May 22 2023, 22:26:25 Олицетворение блэка
По теме можно предложить:
Ildjarn
Taake
Angantyr
Isvind
Kvist
etc
(1) SSWolf88,
May 22 2023, 22:15:23 Олицетворение блэка
ЦОФ и ДБ не тот блэк
(1) SSWolf88,
Sep 21 2022, 18:57:30 In Flames - Foregone Pt. 1 [single] (2022)
Эпилептичный сблев
(1) avather,
Sep 3 2022, 12:01:33 Therion - Pazuzu [single] (2022)


*Artist: Therion
*Album: Pazuzu [single]
*Year: 2022
*Genre: Symphonic Metal
*Country: Sweden
*Format: mp3@CBR320kbps
*Size: 48MB

Tracklist:
1. Pazuzu 04:27
2. Pazuzu - AOR Version 04:27
3. Litany Of The Fallen 04:10
******************************
Total playing time: 13:04

[more=Technical info]
Input File: 01 - Pazuzu.mp3
Channels : 2
Sample Rate : 44100
Precision : 16-bit
Duration : 00:04:27.20 = 11783432 samples = 20039.9 CDDA sectors
File Size : 11.4M
Bit Rate : 341k
Sample Encoding: MPEG audio (layer I, II or III)
Comments :
Title=Pazuzu
Artist=Therion (Swe)
Album=Pazuzu (Single)
Tracknumber=1
Year=2022
Genre=Symponic Metal
Discnumber=1/1

[/more]

Register
(27) A.L.Rapsod, after21allD, Aresson, artscald, boby9052, caro, Cartman223, cesar, Dante_D, Druidir, GorAtheist, gwynnbleid, Hell_Is_Here, Ice Gnoll, kluval, kostja, Lanceatum, martintrue, metaljosue, nekrokilldozer, noel666, Old Vyaine, Reverend, satanist666, sergsazan, Wail, wreak,
Aug 30 2022, 12:00:54 Therion - Lepaca Kliffoth (1995)
Theli понад усё, особенно в идее, к творческой составляющей вопросов никаких, реализация немного подкачала, а облога так почти худшая в митоле ever, хотя истинно сумрачные джентльмены чаёвничают и приносят жервы под Symphony Masses.
(3) 6666666, BoomBox, Old Vyaine,
Jul 14 2022, 08:19:51 Deathbringer - It (2022)
кальцо
в первую очередь звучанием
хуже дебютника на порядок (т.е. прям реально раз в десять)
(2) aesteticvice, Луч,
Jul 7 2022, 15:15:12 Praznina - Nedostižni Zenit [ep] (2022)
Очень хорошо
(1) Mencae77,
May 5 2022, 13:33:49 Butterfly Temple - Окольное Братство Нетленного Мира [ep] (2022)
солнечный зайчик незрячего мира
(3) apries, Larsuk, nekrokilldozer,
Mar 4 2022, 23:23:12 Scorpions - Rock Believer (2022)
ЦИТАТА(vosmidesijatye @ Mar 5 2022, 00:04:40) *
Пауважительнее, дядь. И эта, сабж звучит достойно вне возрастных рамок участников, многим молодым рокерам до уровня сабжа не доскакать ни в жись.

Всё верно базланишь, босяк
(1) BleedingSun,
Mar 4 2022, 22:46:20 Scorpions - Rock Believer (2022)
С учетом, что сабж от столетних пердунов, то зачёт.
И да, Россия без путена.
(2) BleedingSun, Ghostb,
Feb 19 2022, 09:36:27 Рожь - Two Sagas [compilation] (2020)


*Artist: Рожь
*Album: Two Sagas [compilation]
*Year: 2020
*Genre: Ambient/Post-Black/Funeral Doom Metal
*Country: Russian Federation
*Format: flac
*Size: 230MB

Tracklist:
1 Один 9:37
2 Платье под железом 2:04
3 Головы 3:56
4 Сажень 6:40
5 Пасха 7:05
6 Рукава и сажа 5:26
7 Остов 4:14
******************************
Total playing time: 39:02

[more=Extended info]https://www.discogs.com/ru/release/15609777-%D0%A0%D0%BE%D0%B6%D1%8C-Two-Sagas[/more]

Register
(11) BERZERK, Chasm, Dante_D, Emhyr var Emreis, kolar666, Oath19, Old Vyaine, Olethros, VALERY, WOLAND, wreak,

79 Pages V   1 2 3 > » 
- Lo-Fi Version Support form
Copyrights and abuse reports form
Time is now: 22nd April 2024 - 04:50:06