Welcome Guest ( Log In | Register )

История благодарностей участнику Emm Human ::: Спасибо сказали: 2826 раз(а)
Дата поста: В теме: За сообщение: Спасибо сказали:
Mar 23 2024, 14:47:26 Behexen - Rituale Satanum (2000)
Вот именно такой как здесь - c "догоняюще-перегоняющими" ударными - нет. Да, в целом материал довольно достойный и правда чувствуется влияние того же Burzum, но реализация этого материала... не, я такое слушать не хочу

ЦИТАТА(vosmidesijatye @ Mar 23 2024, 21:39:51) *
Удивлен, что ты котируешь такой блэкчанидзинский crazy.gif

Я вообще много что котирую. Хотя кроме рока/метала иную музыку не признаю в принципе, но в данной ипостассии очень разносторонний слушатель smile1.gif
(1) vosmidesijatye,
Mar 19 2024, 17:52:54 Кипелов - Весы Судьбы [ep] (2024)
О если б слушать только тишину! Не ложь, не лесть... не нынешнего Кипелова 21.gif

Когда-то я этого человека очень уважал, теперь нет.

Музыка стала дряхлым самоповторным бредом и тексты... в общем под стать.
(1) Qliphoth,
Mar 3 2024, 18:32:41 Quo Vadis - Labirynth (2024)
ЦИТАТА(Strid @ Mar 4 2024, 01:04:03) *
Вот и я так подумал, но, ссылка в названии выводит на канадцев.

Fix.
Теперь на пшеков smile1.gif
(1) Genuine Thrashiac,
Dec 6 2023, 17:20:44 Metallica - Unload [bootleg] (1999)
Странная кассетка... однозначно, исключительно для ценителей и преданных фэнов.
(1) Occultas,
Nov 1 2023, 16:47:33 Paradise Lost - In Requiem (2007)
ЦИТАТА(пацц @ Apr 20 2007, 17:34:14) *
Больше всего добили тексты (с сорроу, меморис, тирз, которые уош ве пэйн и т.п.) и "гатишные" клавишные на заднем плане (ну не парадайзовское это!)

Хм... не раз уже за последние годы, когда кто-то говорит/пишет "Вот так, вот то-то, вот так-то! Не! Ну это не Парадайзы! Это не их!", задаюсь вопросом/задаю вопрос: говоря о Paradise Lost и их стаффе так сказать узнаваемом, правильно ли все воспринимать опираясь на стилистику/подачу первых двух-трех (или четырех) альбомов? Вот в данном случае, после бесконечно ценных/эпохальных/и т.д. "Lost Paradise", "Готика", "Оттенков Бога" и "Иконы", группа выпустила 6 альбомов включая сабж - заметно стилистически отличающихся от всего предыдущего и фактически создала свое новое лицо.

Да, много букав, много мыслев, но уж если кратко: Paradise Lost к сожалению или к радости, кому как - коллектив развивающийся и следовательно меняющийся.

Хотя лично здесь ещё в год выхода, отметил для себя много отсылок к прошлому (классическому) периоду группы.
(1) plfan93,
Jul 29 2023, 12:30:28 Новости Heavy/Power металла
[youtube]CmWAcWFJstQ[/youtube]
(1) avather,
Jul 29 2023, 12:25:56 Creed - My Own Prison (1997)


*Artist: Creed
*Album: My Own Prison
*Year: 1997
*Genre: Post-Grunge
*Country: United States
*Format: mp3@CBR320kbps
*Size: 110MB

Tracklist:
1. Torn 6:25
2. Ode 4:58
3. My Own Prison 5:00
4. Pity for a Dime 5:29
5. In America 5:00
6. Illusion 4:37
7. Unforgiven 3:38
8. Sister 4:56
9. What's This Life For 4:08
10. One 5:03
******************************
Total playing time: 49:14

[more=Technical info]
Input File: 02 - Ode.mp3
Channels : 2
Sample Rate : 44100
Precision : 16-bit
Duration : 00:04:57.16 = 13104844 samples = 22287.1 CDDA sectors
File Size : 11.9M
Bit Rate : 320k
Sample Encoding: MPEG audio (layer I, II or III)
Comments :
Title=Ode
Artist=Creed
Album=My Own Prison
Tracknumber=2/10
Year=1997
Genre=Post Grunge

[/more]

Register


Register
(6) AndreFrancis, canadaspaceman, Carcharoth, terrano2006, thenecromancer, Wail,
Jul 17 2023, 15:23:14 Новости направления MDM
[youtube]l3-OzRcjgEA[/youtube]
(2) LuryL, Old Vyaine,
Jul 5 2023, 18:29:54 Shining - Allt För Döden [single] (2023)


*Artist: Shining
*Album: Allt För Döden [single]
*Year: 2023
*Genre: Depressive Black Metal
*Country: Sweden
*Format: mp3@CBR320kbps
*Size: 26MB

Tracklist:
01. Allt För Döden 11:18
******************************
Total playing time: 11:18


 ! 

2. Pick Up the Bones (Alice Cooper cover)
 


[more=Technical info]
Input File: 01 - Allt För Döden.mp3
Channels : 2
Sample Rate : 44100
Precision : 16-bit
Duration : 00:11:18.44 = 29919204 samples = 50883 CDDA sectors
File Size : 27.4M
Bit Rate : 323k
Sample Encoding: MPEG audio (layer I, II or III)
Comments :
Title=Allt För Döden
Artist=Shining
Album=Allt För Döden
Tracknumber=01
Year=2023
Genre=Black Metal

[/more]

Register
(5) anbe, blaskhyrk, dermarsoran, Messian, zorn666,
Jul 5 2023, 18:06:10 Screaming Trees - Uncle Anesthesia (1991)


*Artist: Screaming Trees
*Album: Uncle Anesthesia
*Year: 1991
*Genre: Grunge/Psychedelic Rock
*Country: United States
*Format: mp3@CBR320kbps
*Size: 102MB

Tracklist:
1. Beyond This Horizon 4:13
2. Bed of Roses 3:02
3. Uncle Anesthesia 3:52
4. Story of Her Fate 1:41
5. Caught Between 5:03
6. Lay Your Head Down 3:32
7. Before We Arise 2:26
8. Something About Today 3:02
9. Alice Said 4:11
10. Time for Light 3:50
11. Disappearing 3:12
12. Ocean of Confusion 3:05
13. Closer 5:48
******************************
Total playing time: 46:57

[more=Technical info]
Input File: 01 - Beyond This Horizon.mp3
Channels : 2
Sample Rate : 44100
Precision : 16-bit
Duration : 00:04:13.09 = 11161401 samples = 18982 CDDA sectors
File Size : 10.1M
Bit Rate : 320k
Sample Encoding: MPEG audio (layer I, II or III)
Comments :
Title=Beyond This Horizon
Artist=Screaming Trees
Album=Uncle Anesthesia
Tracknumber=01/13
Year=1991
Genre=Rock

[/more]

Register
(3) marilin, stub888, Wail,
Jul 5 2023, 16:21:40 Alcohol Funnycar - Time To Make The Donuts (1993)


*Artist: Alcohol Funnycar
*Album: Time To Make The Donuts
*Year: 1993
*Genre: Grunge
*Country: United States
*Format: mp3@CBR320kbps
*Size: 85MB

Tracklist:
1.Shapes 4:10
2. Get It Right 4:41
3. Try To Understand 3:57
4. All About It 3:49
5. Marble Head 1:34
6. Time 4:39
7. Tumble Down 4:06
8. Last Night 3:46
9. Aggravation 3:35
10. AFC Theme Song 2:10
******************************
Total playing time: 36:27

[more=Technical info]
Input File: 01. Shapes.mp3
Channels : 2
Sample Rate : 44100
Precision : 16-bit
Duration : 00:04:10.40 = 11042508 samples = 18779.8 CDDA sectors
File Size : 10.2M
Bit Rate : 326k
Sample Encoding: MPEG audio (layer I, II or III)
Comments :
Title=Shapes
Artist=Alcohol Funnycar
Album=Time To Make The Donuts
Tracknumber=1/10
Year=1993

[/more]

Register
(4) Bruce, stub888, vosmidesijatye, Wail,
Jun 26 2023, 18:27:22 Floridian Old School Death Metal
ЦИТАТА(Thrashman @ Jun 26 2023, 17:21:00) *
Asphyx и Vader какое имеют отношение к флоридскому death metal? 1488.gif

ЦИТАТА(Biomechanik @ Jun 26 2023, 17:29:25) *
Совершенно согласен, у составителя списка, какая то каша в голове. 21.gif

По вашим многочисленным "просьбам" Asphyx и Vader исключены из списка. smile1.gif
(2) spbfucker, Thrashman,
Jun 17 2023, 20:59:15 Floridian Old School Death Metal
Ну чтож! Добро пожаловать... всем ценителям floridian-дэт-метла! Эта тема посвящена флоридской школе данного музыкального стиля, а конкретно – коллективам, играющим в рамках именно флоридской школы дэта.

В данной Энциклопедии предлагаю собрать информацию о всех группах (и их альбомах), игравших или играющих дэт-метал флоридского разлива, а также адреса имеющихся на форуме тем с живыми (на момент добавления) ссылками на альбомы.

Ниже будем вести постоянно обновляемый каталог групп.

[more=Каталог команд]
Acid Death (Греция)
Altar (Нидерланды)
Cancer (Великобритания)
Catastrophic (США)
Chemical Breath (Бельгия)
Creepmime (Нидерланды)
Death (США)
Deceased (США)
Deicide (США)
Demented Ted (США)
Denial Fiend (США)
Deteriorate (США)
Dies Irae (Польша)
Disciples Of Power (Канада)
Disincarnate (США)
Ecocide (Нидерланды)
Gruesome (США)
Incubus (США)
Inhuman Condition (США)
Killing Addiction (США)
Lemming Project (Германия)
Lowbrow (США)
Malevolent Creation (США)
Massacre (США)
Master (США/Чехия)
Monstrosity (США)
Morbid Angel (США)
Morfin (США)
Morgoth (Германия)
Nocturnus (США)
Nunslaughter (США)
Obituary (США)
Resurrection (США)
Six Feet Under (США)
Skeletal Remains (США)
Southwicked (США)
Tardy Brothers (США)
Torture Killer (Финляндия)
Vital Remains (США)
Undead Prophecies (США). [/more]
(2) canadaspaceman, hate_eternal,
Jun 17 2023, 19:23:39 Cancer - To The Gory End (1990)
Register
(1) Wail,
Jun 9 2023, 18:19:54 Scar Symmetry - The Singularity (Phase II: Xenotaph) (2023)
ЦИТАТА(BleedingSun @ Jun 9 2023, 00:02:17) *
Увы - ни один их альбом без Альвестама так и не оставил. И дело не только в вокале...

Никогда не понимал, чего все так на этого Эльвестама наяривают! Бесспорно, как вокалист Кристиан очень крут, но по сути и Ларс с Робертом ничем не хуже жару дают. В общем, не вижу какой-то существенной утраты для группы в уходе Эльвестама.

Классное продолжение классной истории. Из-за этого даже, что бывает редко, повникал в содержание текстов.

С музыкальной точки зрения для меня здесь всё практически безупречно. Из современного металического движа Scar Symmetry уже давно являются моими фаворитами. Что на первой "Фазе", что здесь, ребята очень грамотно и уместно сочетают эстрадную подачу аля-скандинавский поп с мощным мелодэтом. На таком контрасте аранжировок, вкупе с элементами прог-метла, материал звучит очень монументально.

9 лет не прошли даром, запал не пропал, идеи не протухли smile1.gif
(1) Genuine Thrashiac,
May 14 2023, 13:04:44 Suicidal Tendencies - Lights... Camera... Revolution! (1990)
Register
(1) Utugg,
May 13 2023, 16:35:47 Cannibal Corpse - Gore Obsessed (2002)
Register
(2) Infidel, Melusinara,
May 13 2023, 16:35:14 Cannibal Corpse - Bloodthirst (1999)
Register
(1) Melusinara,
May 13 2023, 16:34:24 Cannibal Corpse - Gallery Of Suicide (1998)
Register
(1) lucifix,
May 13 2023, 16:33:40 Cannibal Corpse - Vile (1996)
Register
(2) Melusinara, Soulgrinder,
May 13 2023, 16:33:00 Cannibal Corpse - Created To Kill [demo] (1995)
Register
(2) Occultas, thenecromancer,
May 13 2023, 16:30:46 Cannibal Corpse - The Bleeding (1994)
Register
(1) A.L.Rapsod,
May 13 2023, 16:30:08 Cannibal Corpse - Tomb Of The Mutilated (1992)
Register
(2) A.L.Rapsod, Froze,
May 13 2023, 16:28:28 Cannibal Corpse - Butchered At Birth (1991)
Register
(2) Melusinara, Soulgrinder,
May 13 2023, 16:27:19 Cannibal Corpse - Eaten Back To Life (1990)
Register
(2) Ash_1980, Melusinara,

50 Pages V   1 2 3 > » 
- Lo-Fi Version Support form
Copyrights and abuse reports form
Time is now: 21st April 2024 - 06:46:15