Welcome Guest ( Log In | Register )

История благодарностей участнику Hell_Is_Here ::: Спасибо сказали: 1839 раз(а)
Дата поста: В теме: За сообщение: Спасибо сказали:
May 5 2020, 07:26:29 S6R6Th6 - Inverted Triangle (2020)
▼6▼6▼6
(2) Occultas, spammer666,
Mar 2 2020, 16:47:09 Umbilicus Mundis - L'ancien Code [ep] (1998)
[youtube]bjlV0HIzrkg[/youtube]
(2) lldma, Occultas,
Mar 2 2020, 10:40:58 Deogen - The Endless Black Shadows Of Abyss [demo] (2020)
Тембр клавиш и сырость в звуке напомнили про дебютный полноформат Gehenna. Тут проще, чем у норвежцев, но всё равно слушается отлично. 20.gif
(1) Sangreal,
Mar 2 2020, 05:26:41 Victory Over The Sun - A Tessitura Of Transfiguration (2020)
ЦИТАТА
This record is the result of hundreds of hours of writing, rewriting, recording, rerecording, mixing and remixing. It also comes from a great deal of soul-searching regarding the process of finding my voice as an artist as well as a trans woman
ЦИТАТА
The band describes its music as "TRANScendental Black Metal"
crazy.gif [left][/left]https://www.metal-archives.com/images/3/5/4/0/3540462149_photo.jpg
(2) infiltrator, Rudolfo_Metal,
Feb 21 2020, 19:40:07 Aphex Twin - Come To Daddy [ep] (1997)
ЦИТАТА(sethurius @ Feb 21 2020, 22:02:44) *
Перезалейте, кому не сложно! 9.gif

Register
(2) Occultas, sethurius,
Dec 11 2019, 07:04:49 Lv-426 - Lv-426 [ep] (2019)


*Artist: LV-426
*Album: LV-426 [ep]
*Year: 2019
*Genre: Cybergrind/Speedcore/Extratone
*Country: International
*Format: mp3@CBR192kbps
*Size: 20MB

Tracklist:
1. Intro 02:33
2. Haunted Horror 01:54
3. Shredded By Nothingness 03:21
4. W Otchłani Kosmosu Piekło Istnieje (In The Abyss Of Space Hell Exists) 04:12
5. Outro 02:06
******************************
Total playing time: 14:06



[more=Extended info]Russian Federation/Poland[/more]

[more=Technical info]
Input File: 04 - W Otchlani Kosmosu Pieklo Istnieje (In The Abyss Of Space Hell Exists).mp3
Channels : 2
Sample Rate : 44100
Precision : 16-bit
Duration : 00:04:12.92 = 11153640 samples = 18968.8 CDDA sectors
File Size : 6.06M
Bit Rate : 192k
Sample Encoding: MPEG audio (layer I, II or III)
Comments :
Title=W Otchlani Kosmosu Pieklo Istnieje (In The Abyss Of Space Hell Exists)
Artist=LV-426
Album=LV-426 (EP)
Tracknumber=1
Year=2019

[/more]

Register
(5) craP_cillA, gwar, infiltrator, Rosen, wreak,
Nov 20 2019, 07:54:38 Remorseful - Exit (2019)
Кому как, мне сие Author & Punisher напомнило. [left][/left] [youtube]jjlBOPLWZyw[/youtube]
(1) denver,
Oct 6 2019, 21:24:01 Goreatorium - Homicidal Ideation [ep] (2019) (2) Samaritianin, satanist666,
Sep 24 2019, 07:07:26 Today Needed
ЦИТАТА(thenecromancer @ Sep 23 2019, 11:25:45) *
A Canorous Quintet - As Tears [ep] (1994)

Done!



Carcass - Livestock Marketplace [single] (2014) Обновите пжлст.
(1) thenecromancer,
Sep 24 2019, 07:02:10 A Canorous Quintet - As Tears [ep] (1994)
Register
(1) thenecromancer,
Aug 9 2019, 09:01:42 Misery Index - Rituals Of Power (2019)
Рипнул флак
Register
(4) as71, infiltrator, Razorbladeswaltz, Язва,
Aug 8 2019, 12:53:42 Various Artists - In Memory Of... Celtic Frost [compilation] (1996)
Отредактировал последний файл (порезал на 3 отдельных трэка).
Register
(1) thenecromancer,
Aug 3 2019, 16:21:09 Flesh Prison - To Satisfy An Artificial Urge (2019)
[youtube]v07YKZiX9nM[/youtube]
(1) METALHUNTER,
Jun 3 2019, 16:14:20 Oceanwake - Lights Flashing In Mute Scenery (2019)
Re-up!
(1) rocesid,
May 7 2019, 08:07:32 Above The Creation - Dehumanized... [ep] (2019)
[youtube]kuENGXNeMsw[/youtube]
(1) Shadowman,
Jan 30 2019, 17:55:29 Corrosion - The Rotten Galaxy (2019)
Никаких ноктюрнусо-отголосков ни отдалённо, ни близко, не услышал (сужу по выложенным 3 трэкам на youtube). Всё довольно-таки уныло. 21.gif А этот шепчущий вокал... 22.gif Он что маман боялся разбудить? hmm.gif
(2) Ghostb, Samaritianin,
Jan 24 2019, 07:12:33 Oomph! - Ritual (2019)
ЦИТАТА(vosmidesijatye @ Jan 23 2019, 21:14:59) *
Даже Рамштойн тяжелее этого Умф 1488.gif

Ошибаешься. 23.gif [left][/left][youtube]_QQDQsLugoM[/youtube] [youtube]tfNp3QE4i2o[/youtube] [youtube]CvfKea_0LcI[/youtube]
(3) infiltrator, Mplast, paganheart,
Jan 22 2019, 10:22:50 Velnezers - I: Es Uzcēlu Durvis Tīrumā (2019)
Зеркало на оба альбома
Register
(2) artscald, targonium,
Jan 22 2019, 10:22:28 Velnezers - II: Drīz Mūsu Gravās Atkal Zāle Dīgs (2019)
Зеркало на оба альбома
Register
(2) artscald, Razorbladeswaltz,
Jan 10 2019, 08:54:55 Cancelled Earth - 002 [ep] (2019)
Register
Register
(3) Razorbladeswaltz, SilentNidhogg, VALERY,
Jan 4 2019, 17:39:00 Misanthrope - Deus Puerilis [demo] (1992)
Register
(1) thenecromancer,
Dec 14 2018, 07:05:46 Mass Casualty Incident - Desecrate Your Flesh [ep] (2018)
Register
(1) METALHUNTER,
Dec 8 2018, 07:51:13 Combustion - Warhead (2016)
Register
(1) satanist666,
Nov 2 2018, 15:01:10 Dead Can Dance - Dionysus (2018)
ЦИТАТА(hammer @ Nov 2 2018, 18:52:50) *
я так и не понял что тут шедеврального.

Ничем не могу помочь тогда. 15.gif
(2) Ghostb, vam1972,
Nov 2 2018, 14:43:21 Dead Can Dance - Dionysus (2018)
[youtube]7em5haBGxz4[/youtube]
(3) EvgeniusLongus, Ghostb, Panacea,

33 Pages V   1 2 3 > » 
- Lo-Fi Version Support form
Copyrights and abuse reports form
Time is now: 28th May 2020 - 04:23:23