Welcome Guest ( Log In | Register )

История благодарностей участнику Hell_Is_Here ::: Спасибо сказали: 1984 раз(а)
Дата поста: В теме: За сообщение: Спасибо сказали:
Jul 14 2021, 04:19:45 Mortify - Abyssal [demo] (1995)
Полноформат. Фото с пластинкой прикрепляю. 1 2
(1) Necrodictator,
Jul 1 2021, 07:26:05 Die Krupps - Songs From The Dark Side Of Heaven (2021)
ЦИТАТА(Vitald @ Jun 28 2021, 18:41:56) *
Обменник голимый. С телефона требует установить приложение, которое мне на хер не упёрлось.

Register
(4) thenecromancer, Vitald, WOLAND, Xor,
Jun 29 2021, 08:32:39 Impaled Nazarene - Eight Headed Serpent (2021)
ЦИТАТА
Limited edition, Digipak

1. Goat of Mendes
2. Eight Headed Serpent
3. Shock and Awe
4. The Nonconformists
5. Octagon Order
6. Metastasizing and Changing Threat
7. Debauchery and Decay
8. Human Cesspool
9. Apocalypse Pervertor
10. Triumphant Return of the Antichrist
11. Unholy Necromancy
12. Mutilation of the Nazarene Whore
13. Foucault Pendulum
14. Penis et Circes (2021)
15. The Horny and the Horned (2021)
(4) kostja, neoatheist, Occultas, thenecromancer,
Jun 15 2021, 20:11:31 Plague Of Machines - Demo 2021 [demo] (2021)
[youtube]nZuipaEqez0[/youtube]
(1) Occultas,
Jun 9 2021, 12:10:33 Decompositorum & Narbhasaklanti - Death Engine/Glass Wire [split] (2021)
ЦИТАТА
Decompositorum is a one-man experimental black metal project from Russia. Formed by Hviteguden in early 2019.
(1) Occultas,
May 29 2021, 13:24:17 Die Krupps - Songs From The Dark Side Of Heaven (2021)
[youtube]ENmU6knf3Y0[/youtube] [youtube]KEa6g1wbiho[/youtube]
(3) infiltrator, Old Vyaine, Terrorizer,
Apr 20 2021, 15:31:57 The Crown - Royal Destroyer (2021)
Подожду 2 CD Deluxe edition.
ЦИТАТА
Disc 1
1. Baptized in Violence
2. Let the Hammering Begin!
3. Motordeath
4. Ultra Faust
5. Glorious Hades
6. Full Metal Justice
7. Scandinavian Satan
8. Devoid of Light
9. We Drift On
10. Beyond the Frail
11. Absolute Monarchy

Disc 2 - Deathrace 13
1. Deathexplosion
2. No Tomorrow
3. Executioner (Slayer Of The Light)
4. Face Of Destruction (Deep Hit Of Death)
5. I Won't Follow
6. Deliverance
7. Vengeance
8. Natashead Overdrive
9. Dead Man's Song
10. Are You Morbid
11. Bow To None
12. Cold Is The Grave
13. Rebel Angel
(1) StabWound,
Feb 13 2021, 19:34:00 Rvbber VVitch - Mastvrbations Malveillantes MMXVII (2019)
ЦИТАТА(Сварог Барг @ Jan 19 2021, 17:22:13) *
Действительно Mastvrbations, не тратьте время на прослушивание.

ЦИТАТА(Vitald @ Jan 20 2021, 16:26:30) *
Генератор случайных ЫндастрЫаНАльных звуков.

ЦИТАТА(kordi @ Jan 21 2021, 04:37:25) *
Такое шото.
3 из 5ти...

Там вам новый Aborym подогнали. bye.gif
PS А мне по превью понравился этот релиз. Надо будет внимательней ознакомиться. 20.gif
(1) Occultas,
Dec 24 2020, 20:30:00 Autopsy - Live In Chicago [live] (2020)
Register
(2) Antichrist, infiltrator,
Dec 24 2020, 20:29:38 Today Needed
ЦИТАТА(wolverine @ Dec 23 2020, 18:38:34) *

Done!
(2) Antichrist, infiltrator,
Dec 22 2020, 10:22:39 Morgue - Doors Of No Return (2016)
Register
(2) boba, bowelled,
Dec 2 2020, 08:32:40 Today Needed
ЦИТАТА(rebornflms95 @ Dec 2 2020, 12:08:20) *

Done!
(2) infiltrator, rebornflms95,
Dec 2 2020, 08:32:08 Avulsed - Bloodcovered [ep] (2001)
Register
(4) infiltrator, rebornflms95, varlam4, wendigo,
Nov 26 2020, 11:44:50 Cultes Des Ghoules & Sepulchral Zeal - Ageless Malediction/Saturnine Templar [split] (2017)
Перезалив. Громкость увеличена.
Register
(2) Occultas, varlam4,
Nov 24 2020, 13:01:05 Hardcore Anal Hydrogen - HyperCut (2018)
Register
(3) kimkayoung, nikolay81, varlam4,
Nov 24 2020, 12:54:47 Hardcore Anal Hydrogen - The Talas Of Satan (2014)


*Artist: Hardcore Anal Hydrogen
*Album: The Talas Of Satan
*Year: 2014
*Genre: Experimental/Avant-Garde Metal/Electronic
*Country: France
*Format: mp3@CBR320kbps
*Size: 48MB

Tracklist:
01. Dhamar 1:56
02. Ramahd 2:01
03. Release The Crackhead 2:40
04. Pentamere 2:02
05. Kalakaka 2:18
06. Rupack 1:37
07. COI 2:12
08. KRR 0:28
09. 한오백년 1:25
10. Coq au vin 1:53
11. Chautal 3:34
******************************
Total playing time: 22:06



[more=Technical info]
Input File: 03-hardcore_anal_hydrogen-release_the_crackhead-237c6afc.mp3
Channels : 2
Sample Rate : 44100
Precision : 16-bit
Duration : 00:02:40.69 = 7086473 samples = 12051.8 CDDA sectors
File Size : 6.43M
Bit Rate : 320k
Sample Encoding: MPEG audio (layer I, II or III)
Comments :
Title=Release the Crackhead
Artist=Hardcore Anal Hydrogen
Album=The Talas of Satan
Tracknumber=3/11
Year=2014
Genre=17

[/more]

Register
(11) A.L.Rapsod, deadterror, gwar, infiltrator, kimkayoung, metala, Olethros, Rosen, varlam4, wreak, yuratroll,
Nov 24 2020, 12:53:34 Hardcore Anal Hydrogen - Division Zero (2011)


*Artist: Hardcore Anal Hydrogen
*Album: Division Zero
*Year: 2011
*Genre: Experimental/Avant-Garde Metal/Electronic
*Country: France
*Format: mp3@CBR320kbps
*Size: 48MB

Tracklist:
01. Le Jour De La Purification 2:13
02. 666 Teron 1:25
03. Crème Glacée De Cochon 1:32
04. L'ouest 3:25
05. Boeuf Bourguignon 2:15
06. Carnet Intime D'un Hippie Drogué 1:10
07. Da Funk In Da Shit 2:15
08. RAH! 0:15
09. Fantaisie Pour Piano Préparé (Et Flute A Bec Alto) 1:54
10. Zoy Houy! 1:21
11. Printemps 1982 1:41
12. SM Core 1:23
******************************
Total playing time: 20:49



[more=Technical info]
Input File: 07 - Da funk in da shit.mp3
Channels : 2
Sample Rate : 44100
Precision : 16-bit
Duration : 00:02:15.17 = 5960777 samples = 10137.4 CDDA sectors
File Size : 5.44M
Bit Rate : 322k
Sample Encoding: MPEG audio (layer I, II or III)
Comments :
Title=Da funk in da shit
Artist=Hardcore Anal Hydrogen
Album=Division Zero
Tracknumber=7
Year=2011

[/more]

Register
(9) A.L.Rapsod, gwar, infiltrator, kimkayoung, Olethros, Rosen, varlam4, wreak, yuratroll,
Nov 24 2020, 12:52:21 Hardcore Anal Hydrogen - Fork You :​(​)​{ :​|​:​& };: (2009)


*Artist: Hardcore Anal Hydrogen
*Album: Fork You :​(​)​{ :​|​:​& };:
*Year: 2009
*Genre: Experimental/Avant-Garde Metal/Electronic
*Country: France
*Format: mp3@CBR320kbps
*Size: 40MB

Tracklist:
01. We Will Fork You 0:44
02. 2309 2:06
03. Decapitated Succube 1:40
04. Cradle Song 1:38
05. DoWhatTheFuckYouWant 1:11
06. Mercurocum 1:50
07. Verole 2:14
08. Non Sense 1:19
09. Cacastle 2:09
10. 2070s 2:40
******************************
Total playing time: 17:31



[more=Technical info]
Input File: 10 - 2070s.mp3
Channels : 2
Sample Rate : 44100
Precision : 16-bit
Duration : 00:02:40.43 = 7074787 samples = 12032 CDDA sectors
File Size : 6.44M
Bit Rate : 321k
Sample Encoding: MPEG audio (layer I, II or III)
Comments :
Title=2070s
Artist=Hardcore Anal Hydrogen
Album=Fork you :(){ :|:& };:
Tracknumber=10
Year=2009

[/more]

Register
(9) A.L.Rapsod, gwar, infiltrator, kimkayoung, Olethros, Rosen, varlam4, wreak, yuratroll,
Nov 18 2020, 06:05:54 Tryggvi - Sharperpetual [single] (2020)


*Artist: Tryggvi
*Album: Sharperpetual [single]
*Year: 2020
*Genre: Breakcore/Funk/Orchestra
*Country: Russian Federation
*Format: mp3@CBR192kbps
*Size: 5MB

Tracklist:
01. Sharperpetual
******************************
Total playing time: 1:58

preview

[more=Technical info]
Input File: 01 - Sharperpetual.mp3
Channels : 2
Sample Rate : 44100
Precision : 16-bit
Duration : 00:01:58.73 = 5235817 samples = 8904.45 CDDA sectors
File Size : 2.85M
Bit Rate : 192k
Sample Encoding: MPEG audio (layer I, II or III)
Comments :
Title=Sharperpetual
Artist=Tryggvi
Album=Sharperpetual
Tracknumber=1
Year=2020

[/more]

Register
(3) gwar, infiltrator, Olethros,
Oct 31 2020, 21:21:35 Ceremonial Bloodbath - The Tides Of Blood (2020)
Трубопревью порадовало. 20.gif Кровавое месиво вперемешку с грязью, ржавчиной и с голосами жертв падающих в мясорубку навстречу смерти. true_black.gif
(3) infiltrator, Metalass, wn129aa,
Sep 25 2020, 15:25:50 Darkatgzebruth - Kaos Rites Ov 9 Angled Darkness [demo] (2017)
[youtube]1m3Tp-LfMN4[/youtube]
(1) Cramloth,
Jul 3 2020, 18:10:22 Zigur - The Origin Of Black Light (2020)
ЦИТАТА
Formed during the Coronavirus Outbreak in 2020 due to boredom
Stupid piece of sh*t. 21.gif [left][/left]
(1) NachtWulf,
May 30 2020, 15:55:54 Cadaveribus - Open The Gate [ep] (2020)
ЦИТАТА(GRAF @ May 19 2020, 04:11:39) *
Эти японцы не понимают что такое Doom и не умеют его исполнять.


ЦИТАТА(Samaritianin @ May 17 2020, 19:09:19) *
Kohei Azuma All instruments, Vocals

15.gif 15.gif 15.gif Нормальный Death Metal на около думовых скоростях. Не высший пилотаж, но слушается норм. 20.gif
(1) Metalass,
May 30 2020, 08:17:56 Mulla - هل تحتاج إلى [ep] (2020)
ЦИТАТА
Lyrical themes: Islam
22.gif
(1) fylopaloma,
May 5 2020, 07:26:29 S6R6Th6 - Inverted Triangle (2020)
▼6▼6▼6
(3) infiltrator, Occultas, spammer666,

34 Pages V   1 2 3 > » 
- Lo-Fi Version Support form
Copyrights and abuse reports form
Time is now: 16th September 2021 - 21:49:07