Welcome Guest ( Log In | Register )

История благодарностей участнику tormoz ::: Спасибо сказали: 1553 раз(а)
Дата поста: В теме: За сообщение: Спасибо сказали:
Feb 14 2022, 18:24:10 Watain - The Agony & Ecstasy Of Watain (2022)
понравился альбом. такое ощущение, что они наконец-то научились играть - прям как на тех двух вещах с 10-го, которые на самом деле тогда вытянул ныне покойный брат одной упомянутой здесь особы.
(1) Ainar,
Feb 10 2022, 21:15:02 Amorphis - Halo (2022)
помнится, на детспелл амеге обсуждали оморфис, а давайте теперь наоборот. я ни того ни другого слушать не собираюсь, но почетаю с удовольствием.
(3) Brann, ent404, Samaritianin,
Feb 3 2022, 18:32:20 Darvaza - Ascending Into Perdition (2022)
послушал без отвращения и даже с удовольствием. предыдущее творчество совсем не вкатывало, а здесь, по-моему, все ништяк, нормас и заeбок.
(2) Hexer, NOMIDIMON,
Jan 21 2022, 19:36:35 Russian Black Metal
ЦИТАТА(Kazoth @ Jan 21 2022, 20:02:36) *
Там еще очень трогательный момент был, когда мама гитаристки вынесла ей на сцену цветы в конце концерта.


это были цветы зла
(4) Ainar, lopuh21, STN, Winterkalte,
Jan 9 2022, 20:59:23 Rawrorr - Vostok [single] (2021)
матерщина там строго в жилу, а что касается неувожения, то слушатели такого музла вряд ли воспримут текст как неуважительный.
а те, кто настолько тупы, что воспримут - заслуживают чего и похуже.
(4) Formaldehyd, Ghostb, MetalPriest7, Луч,
Jan 9 2022, 16:14:14 Rawrorr - Vostok [single] (2021)
у вас интервью намного лучше музыки получается
(2) Ghostb, WOLAND,
Jan 3 2022, 19:55:38 Black metal top-2021
ЦИТАТА(FullofHate @ Jan 3 2022, 20:09:50) *
слегонца накидывает


слегонца накидывает тот, кто с пылающим афедроном сперва специально тащит сюда избранные цитаты (хотя его об этом никто не просил), а потом лицемерно успокаивает возбудившихся сородичей жуткими персональными санкциями в адрес каких-то лабухов, озвучивающих кремлевскую повесточку, причем успокаивает с таким видом, что подобной публики в природе не существует, он чиста для смеху так фантазирует.
(6) Black Cat, Dionis, Exorcist, randyhermit, suseka, Tular,
Dec 30 2021, 20:09:46 Funeral Mist - Deiform (2021)
ЦИТАТА(SSWolf88 @ Dec 30 2021, 19:44:27) *
но в реале можно такому "критику" дать в рыло, если что


абсолютно, если бы ты меня попытался грузануть этой xepней в реале, я б тебе втащил с удовольствием
(4) ent404, Exorcist, plfan93, Winterkalte,
Dec 22 2021, 17:28:45 Варххорн - Варххорн (2021)
ЦИТАТА(Nattfodd @ Dec 22 2021, 16:53:56) *
Только мне показалось, что песни отличаются друг от друга только текстом?


текст в русском роке - самое главное
(3) Fryz, Infidel, nsk2008,
Dec 21 2021, 17:37:16 Новости Black-направления
ЦИТАТА(Daale @ Dec 21 2021, 14:24:10) *
фольклор такой в наследство достался от Руси?


от какой руси, весь фольклор написан профессиональными "собирателями сказок", типа братьев гримм.
ну а кому не повезло с братьями гримм, у того леший с бабой ягой под окнами ябутся.
(3) rimfrost, suseka, thrashes,
Dec 19 2021, 19:38:04 Новости Black-направления
предлагаю новости про бм на руси размещать в теме русский рок терочки
(8) energo68, infiltrator, Lux, Namnlos, rimfrost, STN, suseka, thrashes,
Dec 2 2021, 18:29:30 Black metal top-2021
Thy Darkened Shade / Amestigon / Inconcessus Lux Lucis / Shaarimoth, а также Peste Noire, а более ничего.
(1) Daale,
Nov 26 2021, 17:41:24 Slipknot - The Chapeltown Rag [single] (2021)
гоблин тоже гoвно
(4) 6666666, BleedingSun, Bruce, Isaz,
Nov 24 2021, 19:01:27 Thulcandra - A Dying Wish (2021)
кажется, тут не все понимают значимость дсскшн. никакое количество их клонов не является достаточным, при том, что ни один их клон никогда не сравнится с оригиналом.
дело не в том, чтобы играть похоже, а в том, чтобы искра не гасла. можно даже сказать, что дело не в музыке, евпочя.
(3) Black Cat, VerminGhost, WOLAND,
Nov 13 2021, 17:13:21 Ofermod - Mysterium Iniquitatis (2021)
а ничего так, прогнал уже раза три, цепляет и держит не в пример предыдущим крепко. молодцом дядя, молодцом.
(1) smes,
Oct 29 2021, 17:43:39 Thulcandra - A Dying Wish (2021)
как обычно очень аккуратный, даже бережный оммаж, настоящая услада для души и ушей
(2) Black Cat, sta1081,
Oct 24 2021, 09:07:37 Green Lung - Free The Witch [ep] (2018)


*Artist: Green Lung
*Album: Free The Witch [ep]
*Year: 2018
*Genre: Stoner/Doom Metal/Rock
*Country: United Kingdom
*Format: mp3@CBR320kbps
*Size: 70MB

Tracklist:
1. Lady Lucifer 05:17
2. Free the Witch 05:55
3. Living Fossil 05:35
4. Older than the Hills 07:47
5. When the Axe Comes Down (Bonus Track) 04:57
******************************
Total playing time: 29:31



[more=Technical info]
Input File: 01. Lady Lucifer.mp3
Channels : 2
Sample Rate : 44100
Precision : 16-bit
Duration : 00:05:19.00 = 14067988 samples = 23925.1 CDDA sectors
File Size : 13.0M
Bit Rate : 326k
Sample Encoding: MPEG audio (layer I, II or III)
Comments :
Title=Lady Lucifer
Artist=Green Lung
Album=Free the Witch
Tracknumber=1
Year=2018-02-19
Genre=17
Discnumber=1

[/more]

Register
(15) artscald, boby9052, caro, chipsgott, Fallen Soul, julianotidre, kimkayoung, madera, marilin, metaljosue, Olethros, stub888, Svafrlami, VALERY, wreak,
Oct 22 2021, 17:37:32 Green Lung - Black Harvest (2021)


*Artist: Green Lung
*Album: Black Harvest
*Year: 2021
*Genre: Stoner/Doom Metal/Rock
*Country: United Kingdom
*Format: mp3@CBR320kbps
*Size: 100MB

Tracklist:
1. The Harrowing 02:19
2. Old Gods 03:58
3. Leaders of the Blind 04:42
4. Reaper’s Scythe 04:23
5. Graveyard Sun 05:41
6. Black Harvest 02:39
7. Upon the Altar 04:38
8. You Bear the Mark 04:12
9. Doomsayer 05:26
10. Born to a Dying World 05:09
******************************
Total playing time: 43:07



[more=Technical info]
Input File: 02 - Old Gods.mp3
Channels : 2
Sample Rate : 44100
Precision : 16-bit
Duration : 00:03:58.00 = 10495800 samples = 17850 CDDA sectors
File Size : 9.74M
Bit Rate : 327k
Sample Encoding: MPEG audio (layer I, II or III)
Comments :
Title=Old Gods
Artist=Green Lung
Album=Black Harvest
Tracknumber=2
Year=2021-10-22
Genre=Metal
Discnumber=1

[/more]

Register
(21) artscald, boby9052, Brutal, caro, chipsgott, djsema4, Fallen Soul, HMHamster, julianotidre, kimkayoung, kolar666, madera, marilin, metaljosue, Olethros, Ostinato, Reducer, sludge666, TheVoidReturned, wreak, yinchanghanhuang,
Oct 14 2021, 19:06:31 Necromantia - To The Depths We Descend... (2021)
https://youtu.be/JTa9g1PGsbo

хорошая работа, вдохновляющий материал, но нахиба они переигранное старье сюда прилепили - я хз.
(3) Lux, Occultas, sabr,
Oct 9 2021, 14:48:24 Norse - Ascetic (2021)
искусствоведов группа тихо
восторженно глядит на холст
и вдруг один седой и строгий
отчетливо сказал говно
(1) govno,
Oct 8 2021, 18:58:58 Blackdeath - Also Sprach Das Chaos (2021)
а кто из поповых себя учеником дугина (говнобородого правослабно-лапотного фелософа, если кто не по курсам) называл, не помните?
слушать я это конечно не буду, брезгливо как-то. держу в курсе.
(4) Black Cat, ent404, karut, WOLAND,
Oct 7 2021, 16:39:22 Новости Black-направления
ЦИТАТА(Darkwood @ Oct 7 2021, 11:57:15) *
спижжено конечно абсолютно все, но в целом звучит очень даже неплохо 27.gif


наконец-то мы дожили до того момента, когда это говорят не про стремный старорежимный пердеж норвежского или французского толка
(3) Darkwood, Occultas, suseka,
Aug 7 2021, 18:26:58 Reverorum Ib Malacht - Not Here (2021)
ЦИТАТА(Вальфар @ Aug 7 2021, 16:48:04) *
Вот душнилы комментаторы. Да католицизм помрачнее уж нынешних нергаликов будет. Посмотреть на средневековье, на немецких художников тех, вроде хоть Гольбейна - куда уж блэковее. Все эти memento mori и totentanz за пояс заткнут по уровню безысхода и мракобесия дивизионы современных зумерков.


разъяснялы с двача подъехали. или с вконтактика, хз. за ненецких художников трут. очень познавательно. спасибо, этой информации у меня не было. давай досвидания.
(2) Bzth, Chasm,
Aug 6 2021, 19:39:21 Reverorum Ib Malacht - Not Here (2021)
простити за тупой вопрос: это ведь анблэк, я правильно понимаю?
(1) Unknown,
Aug 5 2021, 04:05:59 Necrocock - Bipolární Noci (2021) (1) Mencae77,

17 Pages V   1 2 3 > » 
- Lo-Fi Version Support form
Copyrights and abuse reports form
Time is now: 3rd October 2022 - 12:58:28