Welcome Guest ( Log In | Register )

Объявления

* gmail.com упорно продолжает считать почту с нас "unsolicited" и отбивает в том числе и письма активации, поэтому просьба использовать альтернативные почтовые ящики.
------------
* gmail.com continues reject all mail from us as "unsolicited" (activation mails too) therefore please use alternate mail servers.
История благодарностей участнику Thrashman ::: Спасибо сказали: 5018 раз(а)
Дата поста: В теме: За сообщение: Спасибо сказали:
Jun 6 2024, 10:13:25 Gatecreeper - Deserted (2019)
320kb + scans

Register
(2) Ash_1980, hell_armageddon,
Jun 5 2024, 16:06:18 Gatecreeper - Sonoran Depravation (2016)
320kb + scans

Register
(2) Ash_1980, hell_armageddon,
May 29 2024, 08:33:51 Slayer - Slayer Final World Tour - Live Toronto [bootleg] (2018)
320kb/206MB
Register
(2) Occultas, rebornflms95,
May 6 2024, 12:58:21 Kerry King - Residue [single] (2024)
ЦИТАТА(Фо @ May 5 2024, 22:42:33) *
Том, как бе, начал намекать, что без Джеффа они не способны выпускать достойный материал

Том истину глаголит
(2) cesar, Фо,
May 4 2024, 07:50:04 Dark Tranquillity - Unforgiveable [single] (2024)
хороший бодрячковый трек, побольше бы таких на новом альбоме, а то ДТ совсем в меланхолию свалились
(1) Faust_Vulkan_16,
Mar 13 2024, 18:46:45 Новости Death Metal направления
[youtube]DG4KxFndJdw?si=poz6z_K3jpP_5gFX[/youtube]
(2) Chasm, Occultas,
Feb 27 2024, 18:45:30 Accept - Humanoid [single] (2024)


*Artist: Accept
*Album: Humanoid [single]
*Year: 2024
*Genre: Heavy Metal
*Country: Germany
*Format: mp3@CBR320kbps
*Size: 11MB

Tracklist:
1.Humanoid
******************************
Total playing time: 4:36

[more=Technical info]
Input File: 01 Humanoid.mp3
Channels : 2
Sample Rate : 44100
Precision : 16-bit
Duration : 00:04:35.51 = 12149771 samples = 20662.9 CDDA sectors
File Size : 11.5M
Bit Rate : 333k
Sample Encoding: MPEG audio (layer I, II or III)
Comments :
Title=Humanoid
Artist=Accept
Album=Humanoid
Tracknumber=1/1
Year=2024-02-28
Genre=Heavy Metal
Discnumber=1

[/more]

Register
(21) Aresson, artscald, boby9052, canadaspaceman, cast_iron, chipsgott, ErickLeoni, evelyn, GeorG, Grev, gwar, gwynnbleid, infozahist, Lanceatum, Marek, rammmirez, Reverend, sergsazan, vir2al, Wail, wreak,
Feb 25 2024, 17:02:26 Bonestorm - Hidden Horizon (2014)
320kb/111MB + scans


Register



FLAC + scans 280MB

Register
(2) Boozer, XxNachtmahRxX,
Feb 22 2024, 11:40:23 Кто какие альбомы ждёт? Albums you are waiting for
01.03 Suicidal Angels - Profane Prayer
08.03 Myrath - Karma
08.03 Skeletal Remains - Fragments Of The Ageless
29.03 Rage - Afterlifelines
05.04 In Vain - Solemn
26.04 Accept - Humanoid
17.05 Kerry King - From Hell I Rise
(1) Andrew,
Dec 6 2023, 07:45:50 Obscura (1) Bannanik,
Nov 23 2023, 14:31:43 Swedish Old School Death Metal (2) BERZERK, swed,
Nov 5 2023, 14:09:08 Downlord - Random Dictionary of the Damned (2007)
320kb/94MB

Register
(3) stumpheavyrock, wendigo, wreak,
Nov 5 2023, 10:58:26 Kill-o-Matic - Root Beer Maniacs (2023)
ЦИТАТА(Samaritianin @ Nov 4 2023, 19:58:04) *
*Country: Hungary


Олег и Федор - типичные венгерские мужские имена 1488.gif

[youtube]R7a5TL_tAsk[/youtube]
(1) bowelled,
Nov 1 2023, 12:15:04 Philosopher - Fires Of The End (2023)
[youtube]-5eNy3U14lA?si=mHAvEscooHIvM9QT[/youtube]
(1) goatkvlt,
Nov 1 2023, 08:00:46 Be'lakor - Coherence (2021)


143MB/320kb

Register
(1) Ветеринар,
Sep 6 2023, 00:04:07 Бездна Анального Угнетения - Враг Металла [ep] (2023)
ЦИТАТА(Shadechaser @ Sep 5 2023, 07:54:31) *
это Золотухин или Охлобыстин на фото, не пойму?

це ж зелебобер после очередной дозы кокса
(1) Shadowman,
Aug 11 2023, 12:29:49 Kobold - Chaos Head (2023)
[youtube]rGQs6v83iu0[/youtube]
(1) Genuine Thrashiac,
Aug 1 2023, 12:16:08 Parasitario - Afterlife Truth [ep] (2019)
320/31MB

Register
(1) Xtohar,
Jul 29 2023, 14:01:50 Akercocke - Renaissance In Extremis (2017)


FLAC 390MB

Register
(1) Occultas,
Jul 15 2023, 07:03:53 Inhumed - Feasted Upon Like Carrion [ep] (2023)
[youtube]00lLFSVOg10[/youtube]
(2) elciocruz, vodomer,
Jul 14 2023, 15:40:39 Kalmah - Kalmah (2023)
399MB FLAC CUE + scans

Register
(2) Emhyr var Emreis, Lucifer,
Jul 11 2023, 09:50:24 Ribspreader - Life Crawls - The Best Of Ribspreader [compilation] (2023)
mp3

Register
(5) Ash_1980, Grev, hell_armageddon, Pinhead666, princeshr,
Jul 10 2023, 06:55:51 Swedish Old School Death Metal (1) vosmidesijatye,
Jul 5 2023, 10:56:35 Dark Tranquillity - Fiction (2007)
Dark Tranquillity - Fiction (FLAC tracks+cue) 492MB



Register



320kb/165MB

Register
(2) Diflock, system36,
Jun 26 2023, 10:21:00 Floridian Old School Death Metal
Asphyx и Vader какое имеют отношение к флоридскому death metal? 1488.gif
(1) SSWolf88,

66 Pages V   1 2 3 > » 
- Lo-Fi Version Support form
Copyrights and abuse reports form
Time is now: 24th June 2024 - 03:46:21