Welcome Guest ( Log In | Register )

История благодарностей участнику KoreanGringo ::: Спасибо сказали: 10238 раз(а)
Дата поста: В теме: За сообщение: Спасибо сказали:
Mar 7 2021, 18:05:21 Twitch Of The Death Nerve - Beset By False Prophets [ep] (2021)
О, какие старики вылезли из пещеры. Подача альбома в виде парочки новых треков и десятка живых выступлений не вдохновляет, честно говоря. Сам материал вроде типичный бронебойный брутал, отдалённо напомнил Wormed, но без какой-либо атмосферы.
(2) infiltrator, Occultas,
Dec 25 2020, 14:11:44 Ikd-Sj - Kill The Dictator [studio clip] (2020)


*Performer: Ikd-Sj
*Title: Kill The Dictator
*Type: Studio Clip
*Album: Single
*Year: 2020
*Genre: Nu-Metal/Psychedelic/shoegaze
*Country: Japan

*Audio: mp3@128kbps
*Video: divx@3266kbps
*Resolution: 1920x1080
*Size: 137MB
******************************
*Length: 00:05:39

[more=Extended info][youtube]s5IREF6Xlvo[/youtube][/more]

Register
(4) gwar, Occultas, Rosen, varlam4,
Dec 18 2020, 12:43:09 Contrastic - Mamun (2020)
Новый альбом спустя 20 лет после выхода предыдущего?) Сильно.
Пока идёт хорошо, экспериментальный грайнд с налётом электроники и странного чистого вокала на заднем плане. Раньше тоже было здорово, но звучок был менее интересный, более нойзовый. А сейчас это эдакий аналог японских Swarrrm.
(3) Bloodn Lord, Evilded, spazm,
Nov 3 2020, 14:32:08 Daasha - K​-​pop Golden Collection (2019)
Отличный пост-метал с жирнейшим звуком и суперским вокалом.
(1) abob,
Oct 26 2020, 09:36:47 Static-X - Project Regeneration, Vol. 1 (2020)
ЦИТАТА(KLOP @ Oct 11 2020, 17:07:45) *
Я слышал что вокалист умер. Тогда кто поет?... hmm.gif

В трех треках звучит "мёртвый" вокалист т.к. остались записи вокала. В остальных звучит сильно обработанный голос вокалиста DOPE, очень похожий на вокал Уейна. Ну и басист многие партии исполняет (он всегда на бэках был).
(2) infiltrator, KLOP,
Oct 25 2020, 09:58:39 The White Swan - Nocturnal Transmission [ep] (2020)


*Artist: The White Swan
*Album: Nocturnal Transmission [ep]
*Year: 2020
*Genre: Doom/Sludge/Post-Metal
*Country: Canada
*Format: mp3@CBR320kbps
*Size: 49MB

Tracklist:
1. In Love And Ritual 05:03
2. Nocturnal Transmission 05:12
3. Purple 05:47
4. Tell It To The Sky 05:23
******************************
Total playing time: 21:25




[more=Extended info]Line-Up:
Mercedes Lander - Drums, Vocals, Keyboards, Guitar (Kittie)
Shane Jeffers - Guitar (Bloodmoon Collective)
Kira Longeuay - Bass[/more]

[more=Technical info]
Input File: 01. In Love and Ritual.mp3
Channels : 2
Sample Rate : 44100
Precision : 16-bit
Duration : 00:00:00.30 = 13362 samples = 22.7245 CDDA sectors
File Size : 12.2M
Bit Rate : 322M
Sample Encoding: MPEG audio (layer I, II or III)
Comments :
Title=In Love and Ritual
Artist=The White Swan
Album=Nocturnal Transmission
Tracknumber=1
Year=2020
Genre=Sludge Metal

[/more]

Register
(10) fallen, gena, grimoir, infiltrator, Olethros, Ostinato, Rosen, stumpheavyrock, VALERY, wreak,
Oct 25 2020, 09:27:23 The God Awful Truth - Memory Palace (2020)


*Artist: The God Awful Truth
*Album: Memory Palace
*Year: 2020
*Genre: Experimental Metal/Mathcore
*Country: United States
*Format: mp3@CBR320kbps
*Size: 66MB

Tracklist:
1. Jack, Jack 01:58
2. You've Got Red On You 02:27
3. Kyoko, Go Go 02:09
4. Abbott Is Death Process 02:00
5. My Flesh Moves Like Liquid 01:50
6. Multiple Miggs 03:32
7. The Granny Killer 02:20
8. Knockout Ned 02:57
9. Somerset 02:59
10. Unique New York 02:09
11. Imhotep 01:48
12. Wake Up Joe, It's A Beautiful Day 02:41
******************************
Total playing time: 28:50





[more=Extended info]For fans of: The Dillinger Escape Plan, The Tony Danza Tapdance Extravaganza, Daughters, The Sound That Ends Creation.[/more]

[more=Technical info]
Input File: 02. You\'ve Got Red On You.mp3
Channels : 2
Sample Rate : 44100
Precision : 16-bit
Duration : 00:02:27.42 = 6501222 samples = 11056.5 CDDA sectors
File Size : 5.96M
Bit Rate : 324k
Sample Encoding: MPEG audio (layer I, II or III)
Comments :
Title=You've Got Red On You
Artist=The God Awful Truth
Album=Memory Palace
Tracknumber=2/12
Year=2020
Genre=Mathcore

[/more]

Register
(9) Hell_Is_Here, infiltrator, kimkayoung, metala, Olethros, Ostinato, Rosen, sludge666, wreak,
Oct 25 2020, 08:43:43 Zeal And Ardor - Wake Of A Nation [ep] (2020)


*Artist: Zeal And Ardor
*Album: Wake Of A Nation [ep]
*Year: 2020
*Genre: Black Metal/Soul/Dark Americana
*Country: United States
*Format: mp3@CBR320kbps
*Size: 38MB

Tracklist:
1. Vigil 03:11
2. Tuskegee 03:49
4. I Can't Breathe 01:18
3. At the Seams 03:09
5. Trust No One 03:08
6. Wake of a Nation 02:32
******************************
Total playing time: 17:07





[more=Technical info]
Input File: 02 Tuskegee.mp3
Channels : 2
Sample Rate : 44100
Precision : 16-bit
Duration : 00:03:48.64 = 10082848 samples = 17147.7 CDDA sectors
File Size : 9.15M
Bit Rate : 320k
Sample Encoding: MPEG audio (layer I, II or III)
Comments :
Title=Tuskegee
Artist=Zeal & Ardor
Album=Wake of a Nation
Tracknumber=02/06
Year=2020-20-20
Discnumber=1/1

[/more]

Register
(20) caro, garml2, infiltrator, marilin, Metalass, metaljosue, Occultas, Olethros, Orkkh, Ostinato, randyhermit, robertho777, Rosen, skinnyboo, VALERY, varlam4, vasiljev_sergej, wreak, xska, yuratroll,
Oct 24 2020, 16:05:33 Wyrmwoods - Gamma (2020)
ВЫ мне лучше объясните, что за странные словечки попадаются в лирике?
ЦИТАТА
Cacodeamor hidden darkest
Throng flickering leert
Now thendish bloom glore
Anshun I beghoul aermore

Это вообще безопасно слушать?
(2) BlackTroll, Deze,
Sep 28 2020, 11:34:32 King Rest - VIII (2020)
Хорошие чуваки, правда правильнее было бы написать в тегах "Experimental Death Metal/Mathcore"
(1) Zonderteam,
Sep 28 2020, 08:09:34 Deftones - Ohms (2020)
ЦИТАТА(Ghostb @ 27th September 2020 - 20:38:00) *
Ну, ничего себе заявление (прошлый-то был не очень). Надо слушать.

Ну на мой взгляд у них вообще не было ровных альбомов, в каждом были какие-то нюансы. Тот же White Pony уж больно хаотичен в плане структуры и концепта. А здесь все 10 треков будто связаны друг с другом, в особенности нравится настроение альбома. Конечно, просто потыкать альбом (как некоторые адепты флеша гордона выше) тут нельзя ни в коем случае - только медленно, размеренно смакование.
ЦИТАТА(xax @ 28th September 2020 - 03:55:07) *
типичный для них нюмитал.

Тут некоторые даже нью-метал слышат 1488.gif Тыкайте альбомы дальше.
(4) Baudolino, Daale, Ghostb, infiltrator,
Sep 27 2020, 19:21:13 Deftones - Ohms (2020)
Если что в теги можно спокойно добавлять Post-Metal, гитары тут местами очень тяжелые, а общая атмосфера густая словно зефир.
Альбом пока что лучшее, что слышал среди мейнстрим музыки в этом году. И возможно лучший альбом в дискографии группы.
(3) ent404, Ghostb, infiltrator,
Sep 26 2020, 14:57:37 Deftones - Ohms (2020)


*Artist: Deftones
*Album: Ohms
*Year: 2020
*Genre: Alternative Metal/Experimental/Shoegaze
*Country: United States
*Format: mp3@CBR320kbps
*Size: 116MB

Tracklist:
1. Genesis 05:17
2. Ceremony 03:27
3. Urantia 04:30
4. Error 04:50
5. The Spell of Mathematics 05:27
6. Pompeji 05:25
7. This Link Is Dead 04:37
8. Radiant City 03:35
9. Headless 04:59
10. Ohms 04:10
******************************
Total playing time: 46:17





[more=Extended info]Line-Up:
Chino Moreno - Vocals
Stephen Carpenter – Guitar
Frank Delgado – Samples, Keys
Abe Cunningham – Drums
Sergio Vega - Bass
Chi Cheng - Bass[/more]

[more=Technical info]
Input File: 01 Genesis.mp3
Channels : 2
Sample Rate : 44100
Precision : 16-bit
Duration : 00:05:17.35 = 13995267 samples = 23801.5 CDDA sectors
File Size : 13.7M
Bit Rate : 346k
Sample Encoding: MPEG audio (layer I, II or III)
Comments :
Title=Genesis
Artist=Deftones
Album=Ohms (2020)
Tracknumber=01/10
Year=2020-20-20
Genre=17
Discnumber=1/1

[/more]

Register
(27) 6666666, Aresson, Baudolino, BERZERK, Black Cat, boby9052, craP_cillA, fylopaloma, Ghostb, Hovnoliaty, infiltrator, Joey_73, kimkayoung, leviathanticus, Old Vyaine, Olethros, Phlebotomized, plfan93, satanath, Shadechaser, Tarelka, VALERY, Xor, xska, yuratroll, Zenial, партизан,
Sep 17 2020, 19:55:18 Panzerballett - Planet Z (2020)
Отличный альбом, много математики, всё как я люблю 19.gif
(2) Evilded, Foneg,
Jul 11 2020, 06:56:18 Static-X - Project Regeneration, Vol. 1 (2020)


*Artist: Static-X
*Album: Project Regeneration, Vol. 1
*Year: 2020
*Genre: Industrial/Nu Metal
*Country: United States
*Format: mp3@CBR320kbps
*Size: 93MB

Tracklist:
01. Regeneration 01:00
02. Hollow (Project Regeneration) 02:41
03. Worth Dyin For 03:26
04. Terminator Oscillator 03:13
05. All These Years 03:56
06. Accelerate 02:48
07. Bring You Down (Project Regeneration) 03:35
08. My Destruction 03:29
09. Something of My Own (Project Regeneration) 02:52
10. Otsego Placebo 04:20
11. Follow 03:08
12. Dead Souls 04:44
******************************
Total playing time: 39:12






[more=Extended info][youtube]c7zN-D5vg7c[/youtube][/more]

[more=Technical info]
Input File: 02 - Hollow (Project Regeneration).mp3
Channels : 2
Sample Rate : 44100
Precision : 16-bit
Duration : 00:02:41.94 = 7141510 samples = 12145.4 CDDA sectors
File Size : 7.73M
Bit Rate : 382k
Sample Encoding: MPEG audio (layer I, II or III)
Comments :
Title=Hollow (Project Regeneration)
Artist=Static-X
Album=Project Regeneration, Vol. 1
Tracknumber=2/12
Year=2020
Genre=19
Discnumber=1/1

[/more]

Register
(16) Alpha_Prime, Aresson, boby9052, Buregon, canadaspaceman, flamandez, gwar, infiltrator, J0k3r, kimkayoung, multizwilling, Olethros, Shadechaser, smes, Tino, Weltenfeind666,
Jun 27 2020, 08:23:54 Mushroomhead - A Wonderful Life (2020)
Судя по синглам ребята стали в разы проще и слащавее, хотя, правды ради, раньше их спокойно можно было назвать экспериментальным металом. Сейчас же это утяжеленный альтернативный рок с новым никакущим вокалистом.
(1) Ghostb,
Jun 25 2020, 17:45:49 Pyrrhon - Abscess Time (2020)
ЦИТАТА
*Стиль: Technical Death Metal

представляю глаза любителей старого доброго тег тэта, которые включат первый трек данного альбома 15.gif
(4) Foneg, infiltrator, Moonshtook, StabWound,
Jun 16 2020, 13:29:27 Low Watt Gurgler - The Desolation Soundtrack (2019)


*Artist: Low Watt Gurgler
*Album: The Desolation Soundtrack
*Year: 2019
*Genre: Experimental Sludge/Post-Metal/Mathcore
*Country: Japan
*Format: mp3@CBR320kbps
*Size: 73MB

Tracklist:
1. Nd60 06:40
2. He Started Gurgling 06:19
3. Vestigial 05:01
4. Spirit Tumor 06:14
5. Apparitions 07:21
******************************
Total playing time: 31:35





[more=Extended info]Operating at the absolute lowest wattage possible.

Members of Kill My Bleeding Smile, Knellt, Teratova, Nerveless, Second To None, Kanchenjunga.

For fans of: Admiral Angry, Black Sheep Wall, Knellt.

[youtube]hl5P4bo1k9k[/youtube][/more]

[more=Technical info]
Input File: 01 - Nd60.mp3
Channels : 2
Sample Rate : 44100
Precision : 16-bit
Duration : 00:06:40.04 = 17641544 samples = 30002.6 CDDA sectors
File Size : 16.2M
Bit Rate : 324k
Sample Encoding: MPEG audio (layer I, II or III)
Comments :
Title=Nd60
Artist=Low Watt Gurgler
Album=The Desolation Soundtrack
Tracknumber=1
Year=2019

[/more]

Register
(7) 555, Hell_Is_Here, infiltrator, metala, Olethros, RichardAmadeyGere, Rosen,
Jun 16 2020, 12:47:39 Marta Prell - Adrenaline [single] (2020)


*Artist: Marta Prell
*Album: Adrenaline [single]
*Year: 2020
*Genre: Metalcore/Mathcore
*Country: Russian Federation
*Format: mp3@CBR320kbps
*Size: 9MB

Tracklist:
1. Adrenaline 04:15
******************************
Total playing time: 4:15



Preview 3


[more=Extended info][youtube]F8dOZ5AO0gg[/youtube][/more]

[more=Technical info]
Input File: 01 - Adrenaline.mp3
Channels : 2
Sample Rate : 44100
Precision : 16-bit
Duration : 00:04:16.02 = 11290350 samples = 19201.3 CDDA sectors
File Size : 10.2M
Bit Rate : 320k
Sample Encoding: MPEG audio (layer I, II or III)
Comments :
Title=Adrenaline
Artist=Marta Prell
Album=Single
Tracknumber=1
Year=2020
Genre=Mathcore

[/more]

Register
(3) infiltrator, Olethros, Rosen,
May 27 2020, 19:53:21 Zerbirst - Eternal Ruin [ep] (2019)


*Artist: Zerbirst
*Album: Eternal Ruin [ep]
*Year: 2019
*Genre: Technical Death Metal/Grindcore
*Country: Germany
*Format: mp3@CBR320kbps
*Size: 32MB

Tracklist:
1. Consumption 00:27
2. Parasitic Construct 02:25
3. Eternal Ruin 03:58
4. Weltschmerz 01:54
5. Social Nausea 02:18
******************************
Total playing time: 11:02




[more=Extended info]Ex-members of Vaulting.[/more]

[more=Technical info]
Input File: 02 - Parasitic Construct.mp3
Channels : 2
Sample Rate : 44100
Precision : 16-bit
Duration : 00:02:25.20 = 6403276 samples = 10889.9 CDDA sectors
File Size : 6.06M
Bit Rate : 334k
Sample Encoding: MPEG audio (layer I, II or III)
Comments :
Title=Parasitic Construct
Artist=Zerbirst
Album=Eternal Ruin
Tracknumber=2
Year=2019

[/more]

Register
(11) cesar, chipsgott, Hell_Is_Here, infiltrator, killingod, Lukittaz, Mares, Olethros, Rosen, varlam4, Язва,
Apr 17 2020, 12:31:04 Rabbit Leader - Drowning In Your Insincerity [single] (2020)


*Artist: Rabbit Leader
*Album: Drowning In Your Insincerity [single]
*Year: 2020
*Genre: Chaotic Metalcore/Experimental
*Country: Ukraine
*Format: mp3@CBR320kbps
*Size: 7MB

Tracklist:
1. Drowning in Your Insincerity 03:20
******************************
Total playing time: 3:20





[more=Extended info]Rabbit Leader is a band from Rivne, Ukraine, created by three friends – Dmytro Khytryi, Serhii Myronchuk and his sister Oleksandra Kreminska. Guided by a pure desire to do something honest and melodic, and based on previous experience, the musicians decided to record an EP. At the stage of recording, bass guitarist Artem Cherchyk joined them.

[youtube]xgsvtBKno6g[/youtube][/more]

[more=Technical info]
Input File: 01 - Drowning in Your Insincerity.mp3
Channels : 2
Sample Rate : 44100
Precision : 16-bit
Duration : 00:03:20.43 = 8838743 samples = 15031.9 CDDA sectors
File Size : 8.02M
Bit Rate : 320k
Sample Encoding: MPEG audio (layer I, II or III)
Comments :
Title=Drowning in Your Insincerity
Artist=Rabbit Leader
Album=Single
Tracknumber=1
Year=2020
Genre=Alternative Rock

[/more]

Register
(4) chipsgott, infiltrator, Olethros, Ostinato,
Apr 5 2020, 09:39:25 Ikd-Sj - ᗺ⨕ᗷ [studio clip] (2020)


*Performer: Ikd-Sj
*Title: ᗺ⨕ᗷ
*Type: Studio Clip
*Album: Single
*Year: 2020
*Genre: Psychedelic/Math Metal/Nu-Metal
*Country: Japan

*Audio: mp3@128kbps
*Video: divx@4331kbps
*Resolution: 1920x1080
*Size: 191MB
******************************
*Length: 00:06:00

[more=Extended info][youtube]VnyRVwJ3Gn8[/youtube][/more]

Register
(2) gwar, Rosen,
Mar 21 2020, 23:21:27 Catatonic Effigy - Putrid Tendency (2019)
ЦИТАТА
*Стиль: Experimental/Avant-Garde Death Metal/Noise/Post Metal

Чепушня, почти весь альбом это авангард джаз.
(3) BlackTroll, Evilded, infiltrator,
Mar 18 2020, 20:33:13 Downy - 第七作品集『無題』 (2020)


*Artist: Downy
*Album: 第七作品集『無題』
*Year: 2020
*Genre: Experimental/Math Rock/Alternative/Shoegaze
*Country: Japan
*Format: mp3@CBR320kbps
*Size: 113MB

Tracklist:
01. コントラポスト 05:20
02. 視界不良 04:21
03. 36.2° 01:25
04. good news 04:51
05. 角砂糖 04:30
06. ゼラニウム 03:37
07. 砂上、燃ユ。残像 04:09
08. pianoid 04:59
09. 鮮やぐ視点 05:22
10. adaptation 05:40
11. stand alone 04:02
******************************
Total playing time: 48:16

Preview 1

Preview 3

[more=Extended info]Formed in April 2000.
consisting of 5 members including a visual production.
They are recognized as one the pioneers of Japanese post-rock and live performance of synchronization, fused by the session that used many Irregular meter and videos. In their live performances, they create innovative and very unique sound and space by their original audio-visual appeal.
They create and produce music video also and such videos had great reputation even in the wolrd largest digital film festival RESFEST.

[youtube]xNHUhILnoZ4[/youtube][/more]

[more=Technical info]
Input File: 11 - stand alone.mp3
Channels : 2
Sample Rate : 48000
Precision : 16-bit
Duration : 00:04:02.96 = 11661840 samples ~ 18221.6 CDDA sectors
File Size : 9.72M
Bit Rate : 320k
Sample Encoding: MPEG audio (layer I, II or III)
Comments :
Title=stand alone
Artist=downy
Album=第七作品集『無題』
Tracknumber=11/11
Year=2020
Discnumber=1/1

[/more]

Register
(4) infiltrator, marilin, Olethros, p4B10,
Nov 17 2019, 23:25:15 Kucoshka - Women And Police Everywhere (2019)
ЦИТАТА(Kehl05 @ Nov 18 2019, 00:20:14) *
И тут тоже.
Tags
experimental progressive rock punk grindcore math rock mathcore Atlanta

По сути пунк рок маткор.Дарк еще укажи,атмосферик джент 1488.gif техникал метал 1488.gif

Пунк рок, лул, альбом слушай, а не клацай по бендкемпу.
(2) Ghostb, vosmidesijatye,

59 Pages V   1 2 3 > » 
- Lo-Fi Version Support form
Copyrights and abuse reports form
Time is now: 9th May 2021 - 08:58:16