Welcome Guest ( Log In | Register )

История благодарностей участнику KoreanGringo ::: Спасибо сказали: 10530 раз(а)
Дата поста: В теме: За сообщение: Спасибо сказали:
Feb 18 2024, 22:49:10 Kittie - Eyes Wide Open [single] (2024)
ЦИТАТА(Dargaud @ Feb 18 2024, 23:16:35) *
Они всегда неформатным ню-митолом же были

Первый альбом и второй (с нятяжкой) были ню-металом. Дальше стало много метала, с 2007 добавился металкор. 2009 уже металкор с мелодэтом, грувом, трешем и прочим "NWOAHM". С 2011 была уже смесь из различного метала, где альтернативного меньше всего.
(1) Genuine Thrashiac,
Feb 18 2024, 15:15:26 Kittie - Eyes Wide Open [single] (2024)


*Artist: Kittie
*Album: Eyes Wide Open [single]
*Year: 2024
*Genre: Groove/Post-Thrash Metal
*Country: Canada
*Format: mp3@CBR320kbps
*Size: 9MB

Tracklist:
1. Eyes Wide Open 3:53
******************************
Total playing time: 3:53




[more=Extended info][youtube]hIqcEiaOpM8[/youtube][/more]

[more=Technical info]
Input File: 01 - Eyes Wide Open.mp3
Channels : 2
Sample Rate : 44100
Precision : 16-bit
Duration : 00:03:53.00 = 10275300 samples = 17475 CDDA sectors
File Size : 10.2M
Bit Rate : 351k
Sample Encoding: MPEG audio (layer I, II or III)
Comments :
Title=Eyes Wide Open
Artist=Kittie
Album=Eyes Wide Open
Tracknumber=1
Year=2024-02-14
Genre=Groove Metal
Discnumber=1

[/more]

Register
(9) artscald, boby9052, deamonmotherloveson, Genuine Thrashiac, Grev, gwar, noel666, wreak, Волос,
Feb 6 2024, 23:48:23 The Ahamkara - O' Guardian Mine (2024)
instrumental deathcore
(1) AHBAnep,
Jan 17 2024, 20:04:31 LeftyFish - Hello Kittie's Spank (2018)


*Artist: LeftyFish
*Album: Hello Kittie's Spank
*Year: 2018
*Genre: Avant-Garde Metal/Grindcore/Mathcore/Free Jazz
*Country: Indonesia
*Format: mp3@CBR320kbps
*Size: 46MB

Tracklist:
1. Full Parking Lot, Push, Throw Away! 0:40
2. End Up On The Screen 1:01
3. Catching The Eels 1:18
4. You, Fish! 1:49
5. The Colorful Grayscale 0:54
6. Meat vs Ginger 1:28
7. Code Name : Mosquito 1:42
8. Overthinkin' 1:04
9. Flowers 1:13
10. Bluegersh 0:25
11. Kite Wars 1:12
12. Bubble Wrap 1:05
13. Tree Whispered 0:42
14. Trees 0:43
15. Hello Kittie's Spank 1:48
16. How Many Corners Are On The Circle 1:21
17. Fluffy Smooth 1:21
******************************
Total playing time: 19:46





[more=Extended info]FFO: Naked City, Psychofagist, the Dillinger Escape Plan, Melt-Banana, Cause For Effect

Line-up:
Trombone : Krishananto Bayu Budi Atmojo
Keys : Winan Pratama
Drums : J. Arya Andy Putra
Vocals : Fransisca Ayu
Trumpet : Mursyid
Guitars : Halim Budiono (Cranial Incisored)

[youtube]TUEnRkuZCuE[/youtube][/more]

[more=Technical info]
Input File: 02 - End Up On The Screen.mp3
Channels : 2
Sample Rate : 44100
Precision : 16-bit
Duration : 00:01:01.94 = 2731554 samples = 4645.5 CDDA sectors
File Size : 2.48M
Bit Rate : 321k
Sample Encoding: MPEG audio (layer I, II or III)
Comments :
Title=End Up On The Screen
Artist=LeftyFish
Album=Hello Kittie's Spank
Tracknumber=2
Year=2018
Genre=Jazzgrind

[/more]

Register
(10) Altkiller, artscald, BlackTroll, chipsgott, Deada, Genuine Thrashiac, METALHUNTER, metaljosue, wreak, yuratroll,
Jan 17 2024, 16:03:39 Inertia - The Human Element (2023)


*Artist: Inertia
*Album: The Human Element
*Year: 2023
*Genre: Technical Death Metal/Deathcore/Mathcore/Fusion
*Country: United States
*Format: mp3@CBR320kbps
*Size: 76MB

Tracklist:
1. Pink Mist 02:59
2. Trickster 03:58
3. Riverbed 05:54
4. Westboro BBQ 03:15
5. Synaptic Bugle 08:27
6. De Spectris 02:44
7. Project December 06:16
******************************
Total playing time: 33:33





[more=Extended info]FFO: Viraemia, Journal, PsyOpus, Rings of Saturn, Abiotic

[youtube]7hdLaujkBrQ[/youtube][/more]

[more=Technical info]
Input File: 01 - Pink Mist.mp3
Channels : 2
Sample Rate : 44100
Precision : 16-bit
Duration : 00:02:59.58 = 7919258 samples = 13468.1 CDDA sectors
File Size : 7.22M
Bit Rate : 321k
Sample Encoding: MPEG audio (layer I, II or III)
Comments :
Title=Pink Mist
Artist=Inertia
Album=The Human Element
Tracknumber=1
Year=2023

[/more]

Register
(10) artscald, cesar, chipsgott, infozahist, maochen, metala, StabWound, VALERY, wreak, yuratroll,
Oct 23 2023, 18:25:53 Ikd-Sj - 死​ん​だ​雪​白​中​毒​者​に​キ​ス​を (2023)


*Artist: Ikd-Sj
*Album: 死​ん​だ​雪​白​中​毒​者​に​キ​ス​を
*Year: 2023
*Genre: Experimental/Nu-Metal/Shoegaze
*Country: Japan
*Format: mp3@CBR320kbps
*Size: 153MB

Tracklist:
1. ᗺ⨕ᗷ 06:24
2. 贋血 04:48
3. 時計泥棒 05:42
4. 赤い靴 00:43
5. キル・ザ・ディクテーター 05:42
6. アベ・マリア 03:41
7. 悪魔に魂を売り渡した奴等の断末魔 04:23
8. Pre Cure Five 04:35
9. ⅗11 07:33
10. 蟹工船 04:43
11. マーヂェリン 05:37
12. パンと銃とバターと「真夜中の」サーカス 03:22
13. きよしこのよる 08:15
14. I'm Kissin' Dead Snow Junkies 00:27
******************************
Total playing time: 1:05:55







[more=Extended info]死​ん​だ​雪​白​中​毒​者​に​キ​ス​を (I'm Kissin' Dead Snow Junkies) - the seventh full-length album of ikd-sj. Totally psychedelic avant-garde stuff.

Line-Up:
Sakagchi Hirokads - Guitar
Nannjo Katsche - Guitar
Hirakawa Mitzsrru - Bass
Kiqrrr - Drums
Ogiishi Akira - Vocal

For fans of: Deftones, Korn, Tool, Dir En Grey, Tallah, the Creator Of, Meshuggah.

[youtube]VnyRVwJ3Gn8[/youtube]
[youtube]s5IREF6Xlvo[/youtube][/more]

[more=Technical info]
Input File: 08 - Pre Cure Five.mp3
Channels : 2
Sample Rate : 44100
Precision : 16-bit
Duration : 00:04:35.87 = 12165911 samples = 20690.3 CDDA sectors
File Size : 11.1M
Bit Rate : 321k
Sample Encoding: MPEG audio (layer I, II or III)
Comments :
Title=Pre Cure Five
Artist=ikd-sj
Album=死んだ雪白中毒者にキスを
Tracknumber=8
Year=2023
Genre=H.A.G.

[/more]

Register
(6) gwar, marilin, nemx, p4B10, philfoden, ZamanFu,
Sep 12 2023, 14:29:22 Better Lovers - God Made Me An Animal [ep] (2023)


*Artist: Better Lovers
*Album: God Made Me An Animal [ep]
*Year: 2023
*Genre: Mathcore/Hardcore/Southern Metal
*Country: United States
*Format: mp3@CBR320kbps
*Size: 41MB

Tracklist:
1. Sacrificial Participant (03:45)
2. 30 Under 13 (04:05)
3. Become So Small (03:01)
4. God Made Me an Animal (04:23)
******************************
Total playing time: 15:14




[more=Extended info]Line-Up:
Greg Puciato - Vocals (ex-The Dillinger Escape Plan)
Will Putney - Guitars (Fit For An Autopsy)
Jordan Buckley - Guitars (ex-Every Time I Die)
Stephen Micciche - Bass (ex-Every Time I Die)
Clayton Holyoak - Drums (ex-Every Time I Die, ex-Norma Jean)

[youtube]TU-nwWuyKXc[/youtube][/more]

[more=Technical info]
Input File: 02 - 30 Under 13.mp3
Channels : 2
Sample Rate : 44100
Precision : 16-bit
Duration : 00:04:05.00 = 10804500 samples = 18375 CDDA sectors
File Size : 11.5M
Bit Rate : 376k
Sample Encoding: MPEG audio (layer I, II or III)
Comments :
Title=30 Under 13
Artist=Better Lovers
Album=God Made Me An Animal
Tracknumber=2/4
Year=2023
Genre=Mathcore
Discnumber=1/1

[/more]

Register
(7) artscald, DeathDragon, Hell_Is_Here, kimkayoung, stumpheavyrock, whitebros, wreak,
Sep 12 2023, 14:18:12 The Hirsch Effekt - Solitaer [ep] (2022)


*Artist: The Hirsch Effekt
*Album: Solitaer [ep]
*Year: 2022
*Genre: Avant-Garde/Progressive Metal/Mathcore
*Country: Germany
*Format: mp3@CBR320kbps
*Size: 58MB

Tracklist:
1. Palingenesis 05:25
2. Nares 05:35
3. Amorphus 06:22
4. Gregær (Solitaer version) 05:36
******************************
Total playing time: 22:58




[more=Extended info]Progressive metal from Hanover, Germany. Formed in 2009 and rooted in Postpunk, Postrock, Artcore, Progressive Metal, Pop and classical music.

Line-Up:
Nils Wittrock - vocals, guitars
Ilja John Lappin - bass, vocals
Moritz Schmidt - drums



[youtube]7SgQ1xLBmn4[/youtube][/more]

[more=Technical info]
Input File: 01 - Palingenesis.mp3
Channels : 2
Sample Rate : 44100
Precision : 16-bit
Duration : 00:05:25.00 = 14332500 samples = 24375 CDDA sectors
File Size : 14.5M
Bit Rate : 357k
Sample Encoding: MPEG audio (layer I, II or III)
Comments :
Title=Palingenesis
Artist=The Hirsch Effekt
Album=Solitaer
Tracknumber=1/4
Year=2022
Genre=Mathcore
Discnumber=1/1

[/more]

Register
(11) artscald, cawa, chipsgott, Hell_Is_Here, kimkayoung, metala, Metalass, OmegaBlade696, VALERY, wreak, yuratroll,
Sep 12 2023, 14:02:37 Krig - Anthropos (2022)


*Artist: Krig
*Album: Anthropos
*Year: 2022
*Genre: Progressive/Brutal Death Metal
*Country: Brazil
*Format: mp3@CBR320kbps
*Size: 91MB

Tracklist:
01. Anthropos 02:31
02. Self Control 04:36
03. Third Millenniem Terrorism 04:31
04. Promiscuity of the Body 04:03
05. Tribal Legacy 02:34
06. Measuring with My Ruler 05:33
07. Depravity of Human Flesh 05:05
08. Anamnesis 04:40
09. Foolish Evildoers VI 01:59
******************************
Total playing time: 35:32




[more=Extended info]Christian Technical/Progressive/Brutal Death Metal.

Новый альбом бразильцев спустя 9 лет перерыва. Для клипа выбрали самый meshuggah-образный трек, в остальном весьма прибруталенный прогтех дэт.

Line-Up:
Daniel Corpse - Vocal
Isaque Sales Soares - Guitar
Jully Soares - Bass



[youtube]kHulVysrPtk[/youtube][/more]

[more=Technical info]
Input File: 03. Third Millenniem Terrorism.mp3
Channels : 2
Sample Rate : 44100
Precision : 16-bit
Duration : 00:04:31.87 = 11989643 samples = 20390.5 CDDA sectors
File Size : 11.3M
Bit Rate : 334k
Sample Encoding: MPEG audio (layer I, II or III)
Comments :
Title=Third Millenniem Terrorism
Artist=Krig
Album=Anthropos
Tracknumber=03
Year=2022
Genre=Brutal Death Metal

[/more]

Register
(14) artscald, elciocruz, Hell_Is_Here, infozahist, julianotidre, kimkayoung, LiarOfAngmar, metala, MMMMM, supremo, vyacheslav, wreak, xariton, yuratroll,
Sep 12 2023, 13:43:09 Правда - К​у​л​ь​т​у​р​а (2023)


*Artist: Правда
*Album: К​у​л​ь​т​у​р​а
*Year: 2023
*Genre: Mathcore
*Country: Russian Federation
*Format: mp3@CBR320kbps
*Size: 88MB

Tracklist:
1. Вот теперь я понял 02:09
2. Детство: жизнь 04:46
3. Аргумент 03:16
4. Ноотроп 05:10
5. Антиэмпатия 02:35
6. Город навсегда 05:57
7. Современная медицина 02:03
8. Культура: быт 03:45
9. Абсолютно всё 07:31
******************************
Total playing time: 37:12




[more=Extended info]Mathcore with Metalcore, Grind, Black Metal and Post-Rock elements.

line-Up:
Даниил Смирнов (Кирпичи) - бас-гитара, вокал, синтезаторы
Иван Людевиг (экс-Кирпичи) - гитара, бэк-вокал, синтезаторы
Даниил Светлов (Amatory) - барабаны[/more]

[more=Technical info]
Input File: 03 - Аргумент.mp3
Channels : 2
Sample Rate : 44100
Precision : 16-bit
Duration : 00:03:16.22 = 8653126 samples = 14716.2 CDDA sectors
File Size : 8.01M
Bit Rate : 326k
Sample Encoding: MPEG audio (layer I, II or III)
Comments :
Title=Аргумент
Artist=Правда
Album=Культура
Tracknumber=3
Year=2023

[/more]

Register
(9) AndreFrancis, Aresson, artscald, Hell_Is_Here, infozahist, metala, Occultas, VALERY, wreak,
Sep 2 2023, 23:10:43 Gendo Ikari - Rokubungi (2023)
Grindcore/Mathcore/Powerviolence
(1) DarkHorde,
Jun 1 2023, 17:43:43 Thantifaxath - Hive Mind Narcosis (2023)
Сингл на кемпе мощный и психоделичный, напомнило первый альбом An Isolated Mind.
(2) Mencae77, Occultas,
May 26 2023, 19:23:28 Victory Over The Sun - Dance You Monster To My Soft Song! (2023)
Всегда радовал внешний вид данного автора, вдохновляет. Истинный трансцендентальный блек метал.
Register
(5) Dargaud, Ghostb, Night, philfoden, RUSP73,
May 22 2023, 11:37:19 Yakuza - Sutra (2023)
ЦИТАТА(Ogidni @ May 20 2023, 17:39:45) *
Че, они пост-хардкор заиграли?

Нет, просто автор курнул crazy.gif) На самом деле у ребят проскакивают некие пост-хк и металкор кусочки, но в основе всё же прог\пост с тягучим джазом. Эдакая смесь The Ocean, Neurosis и Kayo Dot. Я бы вместо пост-хк в тегах указал Artcore как у тех же неврозис и было бы чудесно.
(1) mirotvorets,
Mar 26 2023, 12:48:28 Black Sea Of Trees - The Spiritual Beast (2023)
Очень достойный прог\пост-метал, даже не ожидал, свежо звучит, грамотная смесь из олдскула и современных течений метала, много мелодики.
(1) Kitalter,
Mar 21 2023, 19:28:32 Ahasver - Causa Sui (2022)
Mirror

Register
(3) Emhyr var Emreis, popen13, yuratroll,
Mar 20 2023, 17:45:01 Ahasver - Causa Sui (2022)


*Artist: Ahasver
*Album: Causa Sui
*Year: 2022
*Genre: Progressive Groove/Post-Metal
*Country: France
*Format: mp3@CBR320kbps
*Size: 95MB

Tracklist:
1. Fierce 04:45
2. Peace 04:12
3. Dust 04:44
4. Tales 03:32
5. Wrath 03:31
6. Path 06:05
7. Sand 05:31
8. Kings 09:08
******************************
Total playing time: 41:28





[more=Extended info]Includes members of ERYN NON DAE, Gorod, PSYKUP, Zubrowska, DIMITREE and Drawers.

Recommended for fans of: The Ocean, Gojira, Textures, Mastodon, Machine Head, Gorod and The Dillinger Escape Plan.

Progressive Groove/Post-Metal with Black Metal, Post-Death Metal, Sludge, Metalcore and Mathcore elements.[/more]

[more=Technical info]
Input File: 02 - Peace.mp3
Channels : 2
Sample Rate : 44100
Precision : 16-bit
Duration : 00:04:12.73 = 11145173 samples = 18954.4 CDDA sectors
File Size : 10.2M
Bit Rate : 323k
Sample Encoding: MPEG audio (layer I, II or III)
Comments :
Title=Peace
Artist=Ahasver
Album=Causa Sui
Tracknumber=2/8
Year=2022
Genre=Post-Metal

[/more]

Register
(10) artscald, chipsgott, denver, infozahist, LiarOfAngmar, Metalass, sludge666, stumpheavyrock, Wail, wreak,
Mar 20 2023, 13:52:04 Wombscape - 强制勞作唄 (2022)


*Artist: Wombscape
*Album: 强制勞作唄
*Year: 2022
*Genre: Mathcore/Grindcore/Post-Metal
*Country: Japan
*Format: mp3@CBR320kbps
*Size: 40MB

Tracklist:
1. #e4736f 01:34
2. code:stigma_ 00:47
3. 鐡 01:30
4. 灰色祭儀 01:57
5. 愛子は何処 00:35
6. 鉛の揺籠 04:39
7. 解析不可因子 02:19
8. 虚現剥離 04:11
******************************
Total playing time: 17:32






[more=Extended info]wombscape is an art-core group based in tokyo japan.[/more]

[more=Technical info]
Input File: 3-鐡.mp3
Channels : 2
Sample Rate : 44100
Precision : 16-bit
Duration : 00:01:30.60 = 3995460 samples = 6795 CDDA sectors
File Size : 3.62M
Bit Rate : 320k
Sample Encoding: MPEG audio (layer I, II or III)
Comments :
Title=鐡
Artist=Wombscape
Album=强制勞作唄
Tracknumber=3
Year=2022
Genre=Mathcore

[/more]

Register
(10) artscald, Hell_Is_Here, kimkayoung, maochen, mouthfucka, Night, OmegaBlade696, randumbum, Wail, wreak,
Mar 20 2023, 13:40:31 6:33 - Feary Tales For Strange Lullabies: The Dome (2021)


*Artist: 6:33
*Album: Feary Tales For Strange Lullabies: The Dome
*Year: 2021
*Genre: Avant-Garde/Progressive Metal/Funk
*Country: France
*Format: mp3@CBR320kbps
*Size: 125MB

Tracklist:
01. Wacky Worms 03:54
02. Holy Golden Boner 05:11
03. Prime Focus 06:07
04. Party Inc. 06:31
05. Hot Damn Chicas 04:49
06. Rabbit in the Hat 05:59
07. Release the He-Shes 05:40
08. Downtown Flavour 01:31
09. Flesh Cemetery 04:01
10. Act Like an Animal 03:52
11. Hangover 05:36
******************************
Total playing time: 53:11





[more=Extended info]Line-Up:
-Florent Charlet : (vocals)
-Bénédicte Pellerin : (vocals)
-Nicolas Pascal : (guitars, keyboard programming, vocals)
-Emmanuel Rousseau : (keyboard and drum programming)
-Sylvain Mazeau : (bass)
-Richard Dubois Matra (keyboards)

FFO: Devin Townsend, Faith No More, Mr. Bungle, Native Construct, Diablo Swing Orchestra

Partially quoting my friend and co-‘Progspacer’ Dario, on his most recent interview with singer and lyricist Florent Charlet, in this album “…there’s funk, swing, hip hop and RNB. There’s Pop, there’s a soundtrack and some waltzy kinds of stuff and circus stuff, even ska. Gospel, church organ, (tubular?) bells, 80’s synth-wave, brass band, and an orchestra!… you name it!” – Yes! all of it and more! Can I call it a prog album? A progmetal album? It is all that, yes, yet so much more! - theprogspace.com[/more]

[more=Technical info]
Input File: 01 - Wacky Worms.mp3
Channels : 2
Sample Rate : 44100
Precision : 16-bit
Duration : 00:03:54.00 = 10319400 samples = 17550 CDDA sectors
File Size : 9.79M
Bit Rate : 335k
Sample Encoding: MPEG audio (layer I, II or III)
Comments :
Title=Wacky Worms
Artist=6:33
Album=Feary Tales for Strange Lullabies: The Dome
Tracknumber=1/11
Year=2021
Genre=Metal
Discnumber=1/1

[/more]

Register
(9) artscald, Emhyr var Emreis, kimkayoung, metala, OmegaBlade696, p4B10, Wail, wreak, скептик,
Jan 28 2023, 14:28:31 Anachronism - Meanders (2023)
Technical/Progressive/Post-Death Metal
Прога очень много, начиная с третьего трека, прям Animals the Leaders.
Добротный пост-дэт, светлый, красивый.
(1) Evilded,
Dec 16 2022, 18:09:29 The Sawtooth Grin - Good (2022)


*Artist: The Sawtooth Grin
*Album: Good
*Year: 2022
*Genre: Grindcore/Mathcore/Experimental
*Country: United States
*Format: mp3@CBR320kbps
*Size: 72MB

Tracklist:
1. Grand Sultan Summer 01:51
2. The Shining Wire 02:04
3. Afterlife Kids 02:29
4. I Don't Need This 02:22
5. Niagara Falls, Frankie Angel 03:32
6. Bedtime 01:28
7. What's Cremation 01:42
8. That's Just Swell 03:30
9. So Long, Dear Bellows 03:36
******************************
Total playing time: 22:34





[more=Extended info]Line-Up:
Jason Springman. - Guitars
Rich Lombardi - Vocals, Lyrics, Accordion (Cloacal Kiss)
Jon Karel - Drums, Percussion (The Number Twelve Looks Like You)
DJ Scully - Bass (The Number Twelve Looks Like You, So Hideous, Dead Empires)[/more]

[more=Technical info]
Input File: 01 - Grand Sultan Summer.mp3
Channels : 2
Sample Rate : 44100
Precision : 16-bit
Duration : 00:01:51.31 = 4908903 samples = 8348.47 CDDA sectors
File Size : 4.69M
Bit Rate : 337k
Sample Encoding: MPEG audio (layer I, II or III)
Comments :
Title=Grand Sultan Summer
Artist=The Sawtooth Grin
Album=Good.
Tracknumber=1
Year=2022

[/more]

Register
(10) artscald, boby9052, Dante_D, deergonomist, gikaki, Hell_Is_Here, metala, Olethros, wreak, yuratroll,
Sep 15 2022, 21:41:37 Mute Ocean - Caravan (2022)
Хороший релиз + ребята с чёткой позицией.
(1) yuratroll,
Nov 28 2021, 09:21:33 Slipknot - The Chapeltown Rag [single] (2021)
Объявлена неделя цирка. Количество Петросянов в комментах увеличилось втрое.
(1) borovik,
Nov 14 2021, 20:00:28 Cryptic Gallbladder Splatter - The Reaping Phantasm (2021)
ЦИТАТА
*Стиль: Progressive/Technical Death Metal/Mathcore

ИМХО - Progressive/Thrash/Death Metal с элементами арт-рока, маткора и прочего экспериментального говна.
(1) borovik,
Nov 14 2021, 19:56:43 Meatknife - Grind From Outer Space (2021)
ЦИТАТА
*Стиль: Brutal Death Metal

Goregrind
(1) borovik,

61 Pages V   1 2 3 > » 
- Lo-Fi Version Support form
Copyrights and abuse reports form
Time is now: 3rd March 2024 - 00:29:38