Welcome Guest ( Log In | Register )

 
Reply to this topicStart new topic
> Holy Death - Neck Wound Session [ep] (2023), Death/Doom Metal (D)
post Jun 15 2023, 22:26:59
Post #1

Правь статус, ####!111
**************
Group: Металариец
Posts: 35,018
Releases: 26033
From: Г.Харьков
On Forums: 11 years 9 months
Thanks: 559812 time(s)
Ukraine


(IMG:https://metalarea.org/images/audiocovers/2023_Jun/acov_tid382922_thumb.jpg)

*Artist: Holy Death
*Album: Neck Wound Session [ep]
*Year: 2023
*Genre: Death/Doom Metal
*Country: United States (IMG:https://metalarea.org/forum/style_images/flags/United%20States.png)
*Format: mp3@CBR320kbps
*Size: 43MB

Tracklist:
01. Nailbat (NW Session) 02:46
02. East of Eden (NW Session) 01:56
03. Annihilationism (NW Session) 02:17
04. Deus Mortis (NW Session) 03:34
05. A Crown Grows Out of His Head (NW Session) 02:58
06. Paradice Death (NW Session) 02:09
07. Ultraviolent (NW Session) 03:00
******************************
Total playing time: 18:40




Extended info
Aspen Bass
Stephen Drums
Torie John Guitars, Vocals


Technical info
(IMG:https://metalarea.org/images/spectrogram/2023_Jun/400b756eb69212de03239c376ea6dad3.png)
Input File: 04 - Deus Mortis (NW Session).mp3
Channels : 2
Sample Rate : 44100
Precision : 16-bit
Duration : 00:03:34.00 = 9437400 samples = 16050 CDDA sectors
File Size : 8.68M
Bit Rate : 324k
Sample Encoding: MPEG audio (layer I, II or III)
Comments :
Title=Deus Mortis (NW Session)
Artist=Holy Death
Album=Neck Wound Session
Tracknumber=4
Year=2023-06-16
Genre=Metal
Discnumber=1



Register


Go to the top of the page
  Insert nick Quick quote
+Quote Post
post Jun 16 2023, 09:53:18
Post #2

Правь статус, ####!111
**************
Group: Металариец
Posts: 2,790
Releases: 0
From: APATIN, SERBIA, АПАТИН, СЕРБИЯ
On Forums: 16 years 4 months
Thanks: 8775 time(s)



Flac

Register


Thanks:
(2) Wail, wreak,
Go to the top of the page
  Insert nick Quick quote
+Quote Post
post Jun 16 2023, 15:36:54
Post #3

Семь Литров
*******
Group: Металариец
Posts: 757
Releases: 0
On Forums: 6 years 3 weeks
Thanks: 231 time(s)
Belarus


Тут по длине композиций уже понятно, что это такое.
Go to the top of the page
  Insert nick Quick quote
+Quote Post
post Jun 16 2023, 16:08:52
Post #4

...
**************
Group: Металариец
Posts: 5,186
Releases: 513
From: МОРсквы
On Forums: 17 years 4 months
Thanks: 7855 time(s)
Russian Federation


ЦИТАТА(GRAF @ 16th June 2023 - 17:36:54) *
Тут по длине композиций уже понятно, что это такое.

по длине пиписьки было понятно, что это не мужчина, но девушка...
Go to the top of the page
  Insert nick Quick quote
+Quote Post

Reply to this topicStart new topic
1 User(s) are reading this topic (1 Guests and 0 Anonymous Users)
0 Members:

 



- Lo-Fi Version Support form
Copyrights and abuse reports form
Time is now: 23rd February 2024 - 11:03:38