Welcome Guest ( Log In | Register )

> Impending Triumph - Impending Triumph [ep] (2023), Epic Heavy Metal
post May 5 2023, 05:50:09
Post #1

Правь статус, ####!111
**************
Group: Металариец
Posts: 8,228
Releases: 6483
On Forums: 13 years 3 months
Thanks: 113123 time(s)
Italy


(IMG:https://metalarea.org/images/audiocovers/2023_May/acov_tid381015_thumb.jpg)

*Artist: Impending Triumph
*Album: Impending Triumph [ep]
*Year: 2023
*Genre: Epic Heavy Metal
*Country: Belgium (IMG:https://metalarea.org/forum/style_images/flags/Belgium.png)
*Format: mp3@CBR320kbps
*Size: 58MB

Tracklist:
1.Dawn of Death 01:46
2.Armies of the Conqueror 04:44
3.The Invisible Fortress 06:02
4.Dragon Hunt 04:19
5.Temple of Oblivion 08:00
******************************
Total playing time: 24:51



Extended info
Project of Déhà


Technical info
(IMG:https://metalarea.org/images/spectrogram/2023_May/39848fdd541df325bdc3409c622e143f.png)
Input File: 4.Dragon Hunt.mp3
Channels : 2
Sample Rate : 44100
Precision : 16-bit
Duration : 00:04:19.13 = 11427457 samples = 19434.5 CDDA sectors
File Size : 10.8M
Bit Rate : 332k
Sample Encoding: MPEG audio (layer I, II or III)
Comments :
Title=Dragon Hunt
Artist=Impending Triumph
Album=Impending Triumph
Tracknumber=4/5
Year=2023
Discnumber=1/1



Register


Go to the top of the page
  Insert nick Quick quote
+Quote Post
 
Start new topic
Replies (1 - 1)
post May 29 2023, 21:52:43
Post #2
BAN
Banned till
Aug 13 273792724, 19:46:46



Винтаж. Вокал а-ля Рок-н-Рольф, мелодика от Einherjer, аранжи из 80-х. Много пафоса.
Для поностальгировать украдкой от мамки - в самый раз.
Go to the top of the page
  Insert nick Quick quote
+Quote Post

Reply to this topicStart new topic
1 User(s) are reading this topic (1 Guests and 0 Anonymous Users)
0 Members:

 



- Lo-Fi Version Support form
Copyrights and abuse reports form
Time is now: 22nd February 2024 - 15:45:58