Welcome Guest ( Log In | Register )

> Horizon - Master Of The Game (1985), Traditional Heavy Metal (D4)
post May 22 2012, 16:35:56
Post #1

Thrash, Beer & Violence
**************
Group: Металариец
Posts: 5,503
Releases: 2772
From: Крестов Брод (Russland)
On Forums: 14 years 1 month
Thanks: 40814 time(s)
Russian Federation


(IMG:http://metalarea.org/images/audiocovers/2012_May/acov_tid173514_thumb.jpg)

*Artist: Horizon
*Album: Master Of The Game
*Year: 1985
*Genre: Traditional Heavy Metal
*Country: Netherlands (IMG:http://metalarea.org/forum/style_images/flags/Netherlands.png)
*Format: mp3@CBR320kbps
*Size: 91MB

Tracklist:
1. Rock this Place 03:50
2. I Need Your Love 03:31
3. Master of the Game 04:40
4. Thank You 03:23
5. Peace of Mind 04:31
6. Guardian Angel 03:03
7. Dreams 04:39
8. Rock'n'Roll Mind 04:19
9. Runaway Guy 03:13
10. Desert Fire 04:34
******************************
Total playing time: 39:43

OFFICIAL
(IMG:http://metalarea.org/images/youtube.png)
(IMG:http://metalarea.org/images/youtube.png)

Extended info
Единственный альбом...
Encoder FhG(I3enc)...

(IMG:http://metalarea.org/images/spectrogram/2012_May/1a92abe974080509a7e54d39de765f91.png)
Input File: 01 - Rock This Place.mp3
Channels : 2
Sample Rate : 44100
Precision : 16-bit
Duration : 00:03:50.06 = 10145778 samples = 17254.7 CDDA sectors
File Size : 9.20M
Bit Rate : 320k
Sample Encoding: MPEG audio (layer I, II or III)
Comments :
Title=Rock This Place
Artist=Horizon
Album=Master Of The Game
Year=1985
Genre=Traditional Metal



Register


Go to the top of the page
  Insert nick Quick quote
+Quote Post
 
Start new topic
Replies (1 - 3)
post May 18 2020, 20:57:32
Post #2

Маньяк
**********
Group: Металариец
Posts: 1,101
Releases: 0
On Forums: 3 years 4 months
Thanks: 38 time(s)
Serbia


PLS REUPLOAD
Go to the top of the page
  Insert nick Quick quote
+Quote Post
post May 23 2020, 13:05:07
Post #3

Маньяк
**********
Group: Металариец
Posts: 1,101
Releases: 0
On Forums: 3 years 4 months
Thanks: 38 time(s)
Serbia


PLS REUPLOAD
Go to the top of the page
  Insert nick Quick quote
+Quote Post
post Jul 20 2021, 11:13:48
Post #4

Четыре Литра
****
Group: Металариец
Posts: 330
Releases: 0
From: Russian Federation
On Forums: 15 years 3 months
Thanks: 45 time(s)
Russian Federation


I would also appreciate a re-up here (IMG:style_emoticons/default/smile1.gif)

Or a better idea: How about the 2019 re-release with a bunch of demo tracks as bonus: https://www.metal-archives.com/albums/Horiz..._Masters/785646

Maybe someone could provide that? Thank you!
Go to the top of the page
  Insert nick Quick quote
+Quote Post

Reply to this topicStart new topic
1 User(s) are reading this topic (1 Guests and 0 Anonymous Users)
0 Members:

 



- Lo-Fi Version Support form
Copyrights and abuse reports form
Time is now: 5th December 2021 - 02:54:41