Welcome Guest ( Log In | Register )

> Dark Earth - 42012 (2012), Stoner/Doom Metal/Rock
post Jun 20 2012, 11:51:34
Post #1

Serpent Doom
**************
Group: Металариец
Posts: 2,137
Releases: 655
From: Moscow region
On Forums: 15 years 7 months
Thanks: 12045 time(s)
Russian Federation


(IMG:http://metalarea.org/images/audiocovers/2012_Jun/acov_tid175715_thumb.jpg)

*Artist: Dark Earth
*Album: 42012
*Year: 2012
*Genre: Stoner/Doom Metal/Rock
*Country: United States (IMG:http://metalarea.org/forum/style_images/flags/United%20States.png)
*Format: mp3@CBR320kbps
*Size: 72MB

Tracklist:
1. Dark Earth 03:31
2. Curse Of The Abyss 05:48
3. 42012 06:14
4. Evil King 04:22
5. Time Warp 10:05
******************************
Total playing time: 30:00

Extended info
(source)

(IMG:http://metalarea.org/images/spectrogram/2012_Jun/181f35c44fe841caf931eed80090fdf1.png)
Input File: 01 Dark Earth.mp3
Channels : 2
Sample Rate : 44100
Precision : 16-bit
Duration : 00:03:31.93 = 9345893 samples = 15894.4 CDDA sectors
File Size : 8.57M
Bit Rate : 323k
Sample Encoding: MPEG audio (layer I, II or III)
Comments :
Title=Dark Earth
Artist=Dark Earth
Album=42012
Tracknumber=1
Year=2012



Register


Go to the top of the page
  Insert nick Quick quote
+Quote Post
 
Start new topic
Replies (1 - 2)
post Jun 20 2012, 14:35:57
Post #2

ME[ta]LLOMAN
**************
Group: Металариец
Posts: 5,101
Releases: 3
From: Avdeyevka
On Forums: 17 years 11 months
Thanks: 2249 time(s)
Honduras


(IMG:style_emoticons/default/headcrab.png) КРАСОТИЩЩА!
(IMG:style_emoticons/default/9.gif) (IMG:style_emoticons/default/9.gif) (IMG:style_emoticons/default/9.gif)
...
Go to the top of the page
  Insert nick Quick quote
+Quote Post
post Jul 24 2012, 17:38:07
Post #3

___
**************
Group: Металариец
Posts: 2,073
Releases: 12
On Forums: 15 years 8 months
Thanks: 3006 time(s)
Russian Federation


Совсем небольшой 30-минутный альбомчик, именуемый полноформатником, совершенно неизвестной группы, найти информацию о которой мне не удалось нигде - интернет молчит о существовании подобной команды! (IMG:style_emoticons/default/smile1.gif) Странно, ибо музыка, записанная на альбоме, очень даже стоящая. Ещё более странно, что нам говорят про данный материал "Stoner/Doom Metal/Rock", отчего-то и почему-то замалчивая психоделик, который здесь даже не то, чтобы просто есть, а вообще, один из главных компонентов (если не самый главный). Это называется "слона-то я и не приметил". А вот дума-то как раз на альбоме нет совсем - по крайней мере, как ни всматривался, так и не нашёл его здесь. Следовательно, куда ближе к истине будет звучать определение, что Dark Earth - это Psychedelic Stoner Metal/Rock. Живой и интенсивный стоунер с психоделическим отвязом, гитарист в банде просто сумасшедший! Парень, играющий на шестиструнке, временами творит чудеса - например, в таких треках, как в тотально психоделичном 42012 и в стоунеровом разгуле Evil King. Чувствуется в его манере лёгкая хэндриксанутость, а также эффектно смотрятся переходы на гитару акустическую. Вокальными делами ребята, мягко говоря, не злоупотребляют, но это вполне себе смотрится. Заглавная вещь альбома 42012 - целиком инструментал, а 10-минутная Time Warp не "омрачается" вокальным присутствием (шутка!) аж где-то до 8:00 (до этого момента звучат джунгли тотальной психоделии, а после 8:00 хлопцы переключаются на ритмичную акустику, и поют под неё все вместе). Мне практически всё здесь понравилось, в особенности, как уже сказал, мастерство гитариста. Отличная музыка. Рекомендую любителям стоунера, психоделии и смеси этих двух направлений. Единственно, могли бы побольше альбом сделать. 8.5/10
Go to the top of the page
  Insert nick Quick quote
+Quote Post

Reply to this topicStart new topic
1 User(s) are reading this topic (1 Guests and 0 Anonymous Users)
0 Members:

 



- Lo-Fi Version Support form
Copyrights and abuse reports form
Time is now: 14th April 2024 - 08:44:32