Welcome Guest ( Log In | Register )

> Korium - Csejthe, Staré Spiace Domy (2012), Ambient/Depressive Black Metal
post Jul 15 2012, 04:00:34
Post #1

Литр
*
Group: Подсевший
Posts: 86
Releases: 58
From: Berlin
On Forums: 11 years 4 months
Thanks: 888 time(s)
Germany


(IMG:http://metalarea.org/images/audiocovers/2012_Jul/acov_tid177460_thumb.jpg)

*Artist: Korium
*Album: Csejthe, Staré Spiace Domy
*Year: 2012
*Genre: Ambient/Depressive Black Metal
*Country: Slovakia (IMG:http://metalarea.org/forum/style_images/flags/Slovakia.png)
*Format: mp3@CBR320kbps
*Size: 70MB

Tracklist:
1. Csejthe, Staré Spiace Domy
******************************
Total playing time: 33:42

Extended info


(IMG:http://metalarea.org/images/spectrogram/2012_Jul/158a9b21ac8a1b639bb976bec819a61d.png)
Input File: 01. Korium Sample.mp3
Channels : 2
Sample Rate : 44100
Precision : 16-bit
Duration : 00:00:29.18 = 1286882 samples = 2188.57 CDDA sectors
File Size : 1.17M
Bit Rate : 320k
Sample Encoding: MPEG audio (layer I, II or III)
Comments :
Title=Csejthe, starГ© spiace domy
Artist=Korium
Album=Csejthe, starГ© spiace domy
Tracknumber=1
Year=2012
Genre=Depressive Black Metal


Register


Go to the top of the page
  Insert nick Quick quote
+Quote Post
 
Start new topic
Replies (1 - 7)
post Jul 15 2012, 08:17:33
Post #2

Only Black Metal
**************
Group: Металариец
Posts: 3,177
Releases: 686
From: Львів
On Forums: 12 years 11 months
Thanks: 14874 time(s)
Ukraine


Спасибо, отличный бэнд.
Go to the top of the page
  Insert nick Quick quote
+Quote Post
post Jul 15 2012, 08:44:31
Post #3

Пять Литров
*****
Group: Металариец
Posts: 424
Releases: 1
On Forums: 8 years 11 months
Thanks: 182 time(s)
South Korea


Ничего нуднее и однообразней не найти. Не проходите мимо! Три риффа на пол часа трека. Отличная тошнотворная хрень! (IMG:style_emoticons/default/22.gif)
Go to the top of the page
  Insert nick Quick quote
+Quote Post
post Jul 15 2012, 08:48:50
Post #4

Only Black Metal
**************
Group: Металариец
Posts: 3,177
Releases: 686
From: Львів
On Forums: 12 years 11 months
Thanks: 14874 time(s)
Ukraine


QUOTE(Bekkerev @ Jul 15 2012, 10:44:31) *
Ничего нуднее и однообразней не найти. Не проходите мимо! Три риффа на пол часа трека. Отличная тошнотворная хрень! (IMG:style_emoticons/default/22.gif)


Да, пожалуй частично соглашусь. Помниться раньше музон был получше (IMG:style_emoticons/default/hmm.gif) . Что-то я поспешил с выводами. Кстати это инструментал почти полностью, где-то в конце немного вокала есть.
Go to the top of the page
  Insert nick Quick quote
+Quote Post
post Jul 15 2012, 10:35:59
Post #5

Necromancer
Group Icon
Group: Curation team
Posts: 11,046
Releases: 271
From: Зеленоград
On Forums: 14 years 8 months
Thanks: 8913 time(s)
Russian Federation


В целом релиз заслуживает внимания. Атмосферно и депрессивно, да, это чувствуется, но если честно, то очень нудно и однообразно. Я чуть не уснул.
Go to the top of the page
  Insert nick Quick quote
+Quote Post
post Jul 19 2012, 23:26:41
Post #6

Маньяк
**********
Group: Металариец
Posts: 1,414
Releases: 0
From: Рівне
On Forums: 12 years 3 months
Thanks: 152 time(s)
Ukraine




Thanks:
(1) 1984,
Go to the top of the page
  Insert nick Quick quote
+Quote Post
post Aug 18 2012, 16:58:25
Post #7

Маньяк
**********
Group: Металариец
Posts: 1,198
Releases: 66
From: Tehran
On Forums: 11 years 2 months
Thanks: 2338 time(s)
Iran


Wooow! A really great album in a totally jaw dropping way! I didn't really expect this. Many many thanks for sharing.
Go to the top of the page
  Insert nick Quick quote
+Quote Post
post Sep 3 2012, 09:45:16
Post #8

lynched
**************
Group: Металариец
Posts: 3,091
Releases: 19
On Forums: 10 years 8 months
Thanks: 1542 time(s)
Unknown


Для получасовой песни слушается достаточно легко и приятно.
Хорошая атмосферная ненавязчивая депра, которая и не должна развлекать, а задавать тон и настроение
Go to the top of the page
  Insert nick Quick quote
+Quote Post

Reply to this topicStart new topic
1 User(s) are reading this topic (1 Guests and 0 Anonymous Users)
0 Members:

 



- Lo-Fi Version Support form
Copyrights and abuse reports form
Time is now: 25th June 2021 - 11:45:20