Welcome Guest ( Log In | Register )

> Totenwolf - Hateful North (2007), Black Metal
post Jul 18 2012, 20:01:45
Post #1

Литр
*
Group: Подсевший
Posts: 51
Releases: 2
On Forums: 11 years 7 months
Thanks: 41 time(s)
Russian Federation


(IMG:http://metalarea.org/images/audiocovers/2012_Jul/acov_tid177737_thumb.JPG)

*Artist: Totenwolf
*Album: Hateful North
*Year: 2007
*Genre: Black Metal
*Country: Russian Federation (IMG:http://metalarea.org/forum/style_images/flags/Russian%20Federation.png)
*Format: mp3@CBR320kbps
*Size: 83MB

Tracklist:
1.In Northern Darkness
2.Werewolf
3.In Fly Over The North
4.Autumn Opened Winter Gates
5.Hateful North
6.Full Moon In Fog
******************************
Total playing time: 37:13

Extended info


(IMG:http://metalarea.org/images/spectrogram/2012_Jul/6ffef458824afdedb3bf264424c0cf2b.png)
Input File: 06 Full Moon In Fog.mp3
Channels : 2
Sample Rate : 44100
Precision : 16-bit
Duration : 00:02:57.42 = 7824354 samples = 13306.7 CDDA sectors
File Size : 7.97M
Bit Rate : 360k
Sample Encoding: MPEG audio (layer I, II or III)
Comments :
Title=Full Moon In Fog
Artist=Totenwolf
Album=Hateful North
Tracknumber=6
Year=2007
Genre=Black Metal



Register


Go to the top of the page
  Insert nick Quick quote
+Quote Post
 
Start new topic
Replies (1 - 5)
post Jul 19 2012, 05:57:47
Post #2

Black Metal - Dødsengel
**********
Group: Металариец
Posts: 1,374
Releases: 375
From: Black Hole Sokolov, region Karlovy Vary
On Forums: 14 years 11 months
Thanks: 7776 time(s)
Czech Republic


not bad. (IMG:style_emoticons/default/true_black.gif)


Go to the top of the page
  Insert nick Quick quote
+Quote Post
post Jul 19 2012, 10:56:09
Post #3

Пять Литров
*****
Group: Металариец
Posts: 438
Releases: 2
On Forums: 11 years 8 months
Thanks: 210 time(s)
South Korea


В действительности, надоело слушать компьютерное качество. От него воротит уже. Ничего здесь хорошего нет.
ЦИТАТА
1.In Northern Darkness
2.Werewolf
3.In Fly Over The North
4.Autumn Opened Winter Gates
5.Hateful North
6.Full Moon In Fog
Что это? (IMG:style_emoticons/default/23.gif) Где-то все это уже было (IMG:style_emoticons/default/21.gif)
Риффы скучные и не новые. Здесь и Burzum и Darkthrone. Напомнило аналогичный шлак "Shadows Ground (Ukr) - In Eternal Coldness Of The Night", только немного разнообразней. Качество от "Darkthrone - Under A Funeral Moon". Скучно же.
Go to the top of the page
  Insert nick Quick quote
+Quote Post
post Jul 22 2012, 10:45:25
Post #4

Четыре Литра
****
Group: Металариец
Posts: 314
Releases: 0
On Forums: 17 years 7 months
Thanks: 191 time(s)
Belarus


(IMG:style_emoticons/default/hmm.gif) надо будет их на досуге распробовать...
Go to the top of the page
  Insert nick Quick quote
+Quote Post
post Sep 2 2012, 10:48:18
Post #5

Маньяк
**********
Group: Металариец
Posts: 1,427
Releases: 343
From: Масква
On Forums: 18 years 4 months
Thanks: 3848 time(s)
Russian Federation


Да, неплохо так слушается, если любишь трю... Да и инструменты вроде живые. Одно из немногих росиянских формаций, что мне понравилось за посл. время.
Go to the top of the page
  Insert nick Quick quote
+Quote Post
post Sep 2 2012, 10:49:57
Post #6

Мегаманьяк
***********
Group: Металариец
Posts: 1,814
Releases: 24
From: Москва
On Forums: 15 years 10 months
Thanks: 1256 time(s)
Antarctica


ЦИТАТА(Bekkerev @ Jul 19 2012, 15:56:09) *
В действительности, надоело слушать компьютерное качество. От него воротит уже. Ничего здесь хорошего нет.
Что это? (IMG:style_emoticons/default/23.gif) Где-то все это уже было (IMG:style_emoticons/default/21.gif)
Риффы скучные и не новые. Здесь и Burzum и Darkthrone. Напомнило аналогичный шлак "Shadows Ground (Ukr) - In Eternal Coldness Of The Night", только немного разнообразней. Качество от "Darkthrone - Under A Funeral Moon". Скучно же.

Погоди, ты что, только что на Under A Funeral Moon наехал?
Go to the top of the page
  Insert nick Quick quote
+Quote Post

Reply to this topicStart new topic
2 User(s) are reading this topic (2 Guests and 0 Anonymous Users)
0 Members:

 



- Lo-Fi Version Support form
Copyrights and abuse reports form
Time is now: 29th February 2024 - 02:49:04