Welcome Guest ( Log In | Register )

Объявления

* gmail.com упорно продолжает считать почту с нас "unsolicited" и отбивает в том числе и письма активации, поэтому просьба использовать альтернативные почтовые ящики.
------------
* gmail.com continues reject all mail from us as "unsolicited" (activation mails too) therefore please use alternate mail servers.

> И неформату есть предел.

Рэп/хип-хоп/шансон/поп удаляются. Для них есть свои порталы.

 
Reply to this topicStart new topic
> Chelsea Wolfe - Ἀποκάλυψις (2011), Doom/Folk/Experimental
post Jul 19 2012, 11:00:56
Post #1

ashes of yesterdays
**********
Group: Металариец
Posts: 1,056
Releases: 8
On Forums: 16 years 11 months
Thanks: 2784 time(s)
Unknown


(IMG:http://metalarea.org/images/audiocovers/2012_Jul/acov_tid177772_thumb.jpg)

*Artist: Chelsea Wolfe
*Album: Ἀποκάλυψις
*Year: 2011
*Genre: Doom/Folk/Experimental
*Country: United States (IMG:http://metalarea.org/forum/style_images/flags/United%20States.png)
*Format: mp3@CBR320kbps
*Size: 103MB

Tracklist:
01.Primal // Carnal 0:27
02. Mer 3:42
03. Tracks (Tall Bodies) 3:57
04. Demons 3:13
05. Movie Screen 5:35
06. The Wasteland 4:02
07. Moses 4:03
08. Friedrichshain 2:43
09. Pale On Pale 6:54
10.To The Forest, Towards The Sea 2:43
******************************
Total playing time: 37:19

Extended info


(IMG:http://metalarea.org/images/spectrogram/2012_Jul/35ac5ff58431b56c9270141f1e97a9d1.png)
Input File: 02 mer.mp3
Channels : 2
Sample Rate : 44100
Precision : 16-bit
Duration : 00:03:44.52 = 9901332 samples = 16839 CDDA sectors
File Size : 10.3M
Bit Rate : 366k
Sample Encoding: MPEG audio (layer I, II or III)
Comments :
Title=Mer
Artist=Chelsea Wolfe
Album=бј€ПЂОїОєО¬О»П…П€О№П‚
Tracknumber=2/10
Genre=Alternative



Register


Go to the top of the page
  Insert nick Quick quote
+Quote Post
post Jul 20 2012, 06:49:12
Post #2

Мракомыслъ Рiпѣыискiй
**************
Group: Металариец
Posts: 5,030
Releases: 7
From: http://gjoell.org/
On Forums: 18 years 1 month
Thanks: 1583 time(s)
Afghanistan


Дум есть, "экспериментал" есть, а фолка нету. У мариканцев любое любительское, не академическое пение проходит по разряду фолка.
В целом неплохо тётенька голосит и музыка неплоха.
Go to the top of the page
  Insert nick Quick quote
+Quote Post

Reply to this topicStart new topic
1 User(s) are reading this topic (1 Guests and 0 Anonymous Users)
0 Members:

 



- Lo-Fi Version Support form
Copyrights and abuse reports form
Time is now: 18th June 2024 - 16:29:52