Welcome Guest ( Log In | Register )

> И неформату есть предел.

Рэп/хип-хоп/шансон/поп удаляются. Для них есть свои порталы.

 
Reply to this topicStart new topic
> Silver Star - Europa (2008), Dark Ambient
post Jul 19 2012, 19:01:16
Post #1

Литр
*
Group: Подсевший
Posts: 51
Releases: 2
On Forums: 11 years 9 months
Thanks: 41 time(s)
Russian Federation


(IMG:http://metalarea.org/images/audiocovers/2012_Jul/acov_tid177806_thumb.jpg)

*Artist: Silver Star
*Album: Europa
*Year: 2008
*Genre: Dark Ambient
*Country: Russian Federation (IMG:http://metalarea.org/forum/style_images/flags/Russian%20Federation.png)
*Format: mp3@CBR320kbps
*Size: 79MB

Tracklist:
1.Crying Of The Europe
2.Immersing In The Chasm Of Nonexistence
3.Germany
4.Port Of Northern Norway
5.Dark Clouds Of Dresden
6.Budapest
******************************
Total playing time: 37:50

Extended info


(IMG:http://metalarea.org/images/spectrogram/2012_Jul/e94a1c08c4e1ac9747c735f4e514a58c.png)
Input File: 06 Budapest.mp3
Channels : 2
Sample Rate : 44100
Precision : 16-bit
Duration : 00:03:20.07 = 8823131 samples = 15005.3 CDDA sectors
File Size : 8.01M
Bit Rate : 320k
Sample Encoding: MPEG audio (layer I, II or III)
Comments :
Title=Budapest
Artist=Silver Star
Album=Europa
Tracknumber=6/6
Year=2007
Genre=Ambient



Register


Go to the top of the page
  Insert nick Quick quote
+Quote Post

Reply to this topicStart new topic
1 User(s) are reading this topic (1 Guests and 0 Anonymous Users)
0 Members:

 



- Lo-Fi Version Support form
Copyrights and abuse reports form
Time is now: 16th April 2024 - 08:48:21