Welcome Guest ( Log In | Register )

Объявления

* gmail.com упорно продолжает считать почту с нас "unsolicited" и отбивает в том числе и письма активации, поэтому просьба использовать альтернативные почтовые ящики.
------------
* gmail.com continues reject all mail from us as "unsolicited" (activation mails too) therefore please use alternate mail servers.

> И неформату есть предел.

Рэп/хип-хоп/шансон/поп удаляются. Для них есть свои порталы.

 
Reply to this topicStart new topic
> Jarboe - Indemnity (2011), Psychodelic/Experimental (D7)
post Jul 20 2012, 14:41:42
Post #1

Литр
*
Group: Подсевший
Posts: 69
Releases: 0
On Forums: 12 years 2 weeks
Thanks: 96 time(s)
Unknown


(IMG:http://metalarea.org/images/audiocovers/2012_Jul/acov_tid177842_thumb.jpg)

*Artist: Jarboe
*Album: Indemnity
*Year: 2011
*Genre: Psychodelic/Experimental
*Country: United States (IMG:http://metalarea.org/forum/style_images/flags/United%20States.png)
*Format: mp3@CBR320kbps
*Size: 117MB

Tracklist:
1. Blood Promise 5:19
2. Blackmail 5:02
3. Miracle Of Love 6:43
4. In My Garden 4:36
5. Please Remember Me 4:25
6. You're Not Real, Girl 4:52
7. Indemnity 8:13
8. Blood And Honey 4:43
9. My Tall Man (Live) 5:44
******************************
Total playing time: 49:39

(IMG:http://metalarea.org/images/myspace.png)

Extended info


(IMG:http://metalarea.org/images/spectrogram/2012_Jul/2c3fcf2eb9567aa2b03bdd14b6dcef03.png)
Input File: 01 of Jarboe - Indemnity.mp3
Channels : 2
Sample Rate : 44100
Precision : 16-bit
Duration : 00:05:19.14 = 14074250 samples = 23935.8 CDDA sectors
File Size : 12.8M
Bit Rate : 320k
Sample Encoding: MPEG audio (layer I, II or III)
Comments :
Title=Blood Promise
Artist=Jarboe
Album=Indemnity
Tracknumber=01



Register


Go to the top of the page
  Insert nick Quick quote
+Quote Post

Reply to this topicStart new topic
1 User(s) are reading this topic (1 Guests and 0 Anonymous Users)
0 Members:

 



- Lo-Fi Version Support form
Copyrights and abuse reports form
Time is now: 16th July 2024 - 06:18:59