Welcome Guest ( Log In | Register )

> Totenwolf - Night Path Of Pest (2012), Black Metal
post Jul 23 2012, 19:45:55
Post #1

Литр
*
Group: Подсевший
Posts: 51
Releases: 2
On Forums: 11 years 9 months
Thanks: 41 time(s)
Russian Federation


(IMG:http://metalarea.org/images/audiocovers/2012_Jul/acov_tid178089_thumb.jpg)

*Artist: Totenwolf
*Album: Night Path Of Pest
*Year: 2012
*Genre: Black Metal
*Country: Russian Federation (IMG:http://metalarea.org/forum/style_images/flags/Russian%20Federation.png)
*Format: mp3@CBR320kbps
*Size: 66MB

Tracklist:
1.Ministers Of The Black God
2.Night Path Of Pest
3.I Hate You All
4.Werewolf
5.Hateful North
6.Post Holocaust Night
******************************
Total playing time: 31:19

(IMG:http://metalarea.org/images/myspace.png)

Extended info
Recorded in Blackout studio (Russia) 2012.
Mixed and mastered at Endarker studio (Sweden) 2012.

(IMG:http://metalarea.org/images/spectrogram/2012_Jul/65ca367324bc9c599168363364b1fc51.png)
Input File: 06 Post Holocaust Night.mp3
Channels : 2
Sample Rate : 44100
Precision : 16-bit
Duration : 00:02:23.39 = 6323279 samples = 10753.9 CDDA sectors
File Size : 5.74M
Bit Rate : 320k
Sample Encoding: MPEG audio (layer I, II or III)
Comments :
Title=Post Holocaust Night
Artist=Totenwolf
Album=Night Path Of Pest
Tracknumber=6
Year=2012
Genre=Black Metal



Register


Go to the top of the page
  Insert nick Quick quote
+Quote Post
 
Start new topic
Replies (1 - 2)
post Jul 24 2012, 14:12:56
Post #2

I Like It Raw
***********
Group: Металариец
Posts: 1,932
Releases: 15
On Forums: 17 years 6 months
Thanks: 1101 time(s)
Russian Federation


материал унылый, звучание нормальное (банальное)
Go to the top of the page
  Insert nick Quick quote
+Quote Post
post Jul 24 2012, 16:42:14
Post #3

Пять Литров
*****
Group: Металариец
Posts: 438
Releases: 2
On Forums: 11 years 9 months
Thanks: 210 time(s)
South Korea


Согласен (IMG:style_emoticons/default/21.gif)
Go to the top of the page
  Insert nick Quick quote
+Quote Post

Reply to this topicStart new topic
1 User(s) are reading this topic (1 Guests and 0 Anonymous Users)
0 Members:

 



- Lo-Fi Version Support form
Copyrights and abuse reports form
Time is now: 22nd April 2024 - 04:59:30