Welcome Guest ( Log In | Register )

> Act Of Impalement - Ritual Warfare [demo] (2012), Death/Doom Metal
post Jul 23 2012, 22:07:10
Post #1

Serial Uploader
Group Icon
Group: V.I.P
Posts: 42,365
Releases: 40435
From: Lithuania
On Forums: 15 years 10 months
Thanks: 516340 time(s)
Lithuania


(IMG:http://metalarea.org/images/audiocovers/2012_Jul/acov_tid178098_thumb.jpg)

*Artist: Act Of Impalement
*Album: Ritual Warfare [demo]
*Year: 2012
*Genre: Death/Doom Metal
*Country: United States (IMG:http://metalarea.org/forum/style_images/flags/United%20States.png)
*Format: mp3@CBR320kbps
*Size: 17MB

Tracklist:
01. Reign Of The Impaler 02:30
02. Now Your God Has Fallen 02:10
03. Ritual Warfare 01:59
04. Dusk On The Blood Enveloped Battlefield 01:02
******************************
Total playing time: 7:41



Extended info
Рекомендация перенести релиз в низкобитрейтный раздел

(IMG:http://metalarea.org/images/spectrogram/2012_Jul/2e536219bf5836c3e61fcd8040b8ef98.png)
Input File: Act of Impalement - Ritual Warfare Demo - 02 Now Your God Has Fallen.mp3
Channels : 2
Sample Rate : 44100
Precision : 16-bit
Duration : 00:02:10.29 = 5745701 samples = 9771.6 CDDA sectors
File Size : 5.29M
Bit Rate : 325k
Sample Encoding: MPEG audio (layer I, II or III)
Comments :
Title=Now Your God Has Fallen
Artist=Act of Impalement
Album=Ritual Warfare
Tracknumber=2
Year=2012



Register


Go to the top of the page
  Insert nick Quick quote
+Quote Post
 
Start new topic
Replies (1 - 1)
post Jul 24 2012, 12:18:15
Post #2

ME[ta]LLOMAN
**************
Group: Металариец
Posts: 5,101
Releases: 3
From: Avdeyevka
On Forums: 17 years 11 months
Thanks: 2249 time(s)
Honduras


и пойдётъ (IMG:style_emoticons/default/9.gif)
Go to the top of the page
  Insert nick Quick quote
+Quote Post

Reply to this topicStart new topic
1 User(s) are reading this topic (1 Guests and 0 Anonymous Users)
0 Members:

 



- Lo-Fi Version Support form
Copyrights and abuse reports form
Time is now: 14th April 2024 - 08:08:38