Welcome Guest ( Log In | Register )

> Afgrund - The Age Of Dumb (2012), Grindcore
post Jul 25 2012, 04:55:56
Post #1

Serial Uploader
Group Icon
Group: V.I.P
Posts: 42,412
Releases: 40481
From: Lithuania
On Forums: 15 years 10 months
Thanks: 517334 time(s)
Lithuania


(IMG:http://metalarea.org/images/audiocovers/2012_Jul/acov_tid178173_thumb.jpg)

*Artist: Afgrund
*Album: The Age Of Dumb
*Year: 2012
*Genre: Grindcore
*Country: Sweden (IMG:http://metalarea.org/forum/style_images/flags/Sweden.png)
*Format: mp3@CBR320kbps
*Size: 62MB

Tracklist:
01. Life And Death Of A Broiler 01:27
02. Living The Nightmare 00:58
03. The Might Of A Nation 00:55
04. H.A.A.R.P.Y. 01:52
05. Beaurocrap 01:22
06. Carniwars 01:26
07. Genocide To Glorify 01:33
08. Repaint The Truth 01:11
09. An Aggregation Of Misfortune 01:16
10. Discorporate 01:48
11. The War On Drugs 01:49
12. Planet Monsanto 01:18
13. Le Grand Illusion 01:37
14. Nuclear Hazzard 01:39
15. Life Banned 01:07
16. Bullets Are Forever 01:44
17. He Who Plants Sorrow 02:08
18. The Carrier 01:22
******************************
Total playing time: 26:32

(IMG:http://metalarea.org/images/myspace.png)

Extended info

(IMG:http://metalarea.org/images/spectrogram/2012_Jul/f9f83a73dda7a02d022028946602e3ef.png)
Input File: 02 - Living The Nightmare.mp3
Channels : 2
Sample Rate : 44100
Precision : 16-bit
Duration : 00:00:58.91 = 2597887 samples = 4418.18 CDDA sectors
File Size : 2.36M
Bit Rate : 320k
Sample Encoding: MPEG audio (layer I, II or III)
Comments :
Title=Living The Nightmare
Artist=Afgrund
Album=The Age Of Dumb
Tracknumber=02/18
Year=2012
Genre=Grindcore
Discnumber=1/1



Register


Go to the top of the page
  Insert nick Quick quote
+Quote Post
 
Start new topic
Replies (1 - 3)
post Jul 25 2012, 08:37:32
Post #2

Маньяк
**********
Group: Металариец
Posts: 1,148
Releases: 14
On Forums: 15 years 6 months
Thanks: 1036 time(s)
Russian Federation


Раньше мне эта банда нравилась. Любителям Nasum и Rotten Sound должно понравиться.
Go to the top of the page
  Insert nick Quick quote
+Quote Post
post Jul 25 2012, 22:41:32
Post #3

Попсовик от брутала
**************
Group: Металариец
Posts: 8,021
Releases: 82
From: Минск
On Forums: 15 years 4 months
Thanks: 7769 time(s)
Belarus


Уж насколько я неприхотлив к звуку, но в данном случае скачаю ещё и в нормальном битрейте - что-то ухи мои совсем не порадовались. А материал, безусловно, крут и накачан агрессией - всё как Миежко завещал.
Go to the top of the page
  Insert nick Quick quote
+Quote Post
post Mar 29 2015, 03:42:17
Post #4

Социопат.Маргинал. Мизантроп.Нигилист. Перверзный нарциссист.
**************
Group: Металариец
Posts: 5,571
Releases: 666
From: Город-герой Ленинград
On Forums: 13 years 2 months
Thanks: 6549 time(s)
Russian Federation


Register


Thanks:
Go to the top of the page
  Insert nick Quick quote
+Quote Post

Reply to this topicStart new topic
1 User(s) are reading this topic (1 Guests and 0 Anonymous Users)
0 Members:

 



- Lo-Fi Version Support form
Copyrights and abuse reports form
Time is now: 21st April 2024 - 12:08:51