Welcome Guest ( Log In | Register )

> Iron Kingdom - Curse Of The Voodoo Queen (2011), Heavy Metal
post Jul 25 2012, 21:18:12
Post #1

Serial Uploader
Group Icon
Group: V.I.P
Posts: 42,367
Releases: 40437
From: Lithuania
On Forums: 15 years 10 months
Thanks: 516442 time(s)
Lithuania


(IMG:http://metalarea.org/images/audiocovers/2012_Jul/acov_tid178241_thumb.jpg)

*Artist: Iron Kingdom
*Album: Curse Of The Voodoo Queen
*Year: 2011
*Genre: Heavy Metal
*Country: Canada (IMG:http://metalarea.org/forum/style_images/flags/Canada.png)
*Format: mp3@CBR320kbps
*Size: 109MB

Tracklist:
01. The Ritual 01:21
02. Voodoo Queen 04:22
03. Legions Of Metal 06:05
04. Unleash The Kraken 02:29
05. The Heretic 04:59
06. From The Ashes 06:27
07. Fired Up 03:11
08. The Nightrider 03:37
09. Lord Of The Twilight 02:40
10. Montezuma 13:03
******************************
Total playing time: 48:14

(IMG:http://metalarea.org/images/myspace.png)

Extended info


(IMG:http://metalarea.org/images/spectrogram/2012_Jul/329d988a52291f143c10f945bf045cd3.png)
Input File: 02 - Voodoo Queen.mp3
Channels : 2
Sample Rate : 44100
Precision : 16-bit
Duration : 00:04:22.95 = 11596095 samples = 19721.2 CDDA sectors
File Size : 10.5M
Bit Rate : 320k
Sample Encoding: MPEG audio (layer I, II or III)
Comments :
Title=Voodoo Queen
Artist=Iron Kingdom
Album=Curse Of The Voodoo Queen
Tracknumber=2/10
Year=2012
Genre=Heavy Metal



Register


Go to the top of the page
  Insert nick Quick quote
+Quote Post
 
Start new topic
Replies (1 - 4)
post Jul 26 2012, 09:45:53
Post #2

Четыре Литра
****
Group: Металариец
Posts: 388
Releases: 0
From: Kyiv
On Forums: 12 years 4 days
Thanks: 159 time(s)
Ukraine


Какая адски убогая облога.
Go to the top of the page
  Insert nick Quick quote
+Quote Post
post May 15 2014, 07:55:50
Post #3

_ - = # Thrashogolic # = - _ ... а давайте поржём все вместе
**************
Group: Металариец
Posts: 22,194
Releases: 4444
From: 404
On Forums: 13 years 10 months
Thanks: 28980 time(s)
Ukraine




Go to the top of the page
  Insert nick Quick quote
+Quote Post
post May 15 2014, 11:23:02
Post #4

Крещенный в алкоголе
***********
Group: Металариец
Posts: 1,588
Releases: 30
From: Sea of darkness
On Forums: 18 years 6 months
Thanks: 754 time(s)
Israel


kessler,

У канадцев бывает такое, что под у"бищной облого скрывается очень хорошее музло. Взять Iron dogs хотя бы.
Go to the top of the page
  Insert nick Quick quote
+Quote Post
post Nov 10 2022, 03:55:23
Post #5

Правь статус, ####!111
**************
Group: Металариец
Posts: 4,461
Releases: 0
From: UK
On Forums: 7 years 9 months
Thanks: 1175 time(s)
United Kingdom


Register


Thanks:
(1) wgs73,
Go to the top of the page
  Insert nick Quick quote
+Quote Post

Reply to this topicStart new topic
1 User(s) are reading this topic (1 Guests and 0 Anonymous Users)
0 Members:

 



- Lo-Fi Version Support form
Copyrights and abuse reports form
Time is now: 16th April 2024 - 09:42:30