Welcome Guest ( Log In | Register )

 
Reply to this topicStart new topic
> Six Feet Under - Eruption (1984), Heavy Metal/Hard Rock
post Aug 5 2012, 14:35:26
Post #1

PEACEDEATH
**************
Group: Металариец
Posts: 7,209
Releases: 62
From: Турция
On Forums: 14 years 3 months
Thanks: 9998 time(s)
Turkey


(IMG:http://metalarea.org/images/audiocovers/2012_Aug/acov_tid179017_thumb.jpg)

*Artist: Six Feet Under
*Album: Eruption
*Year: 1984
*Genre: Heavy Metal/Hard Rock
*Country: Sweden (IMG:http://metalarea.org/forum/style_images/flags/Sweden.png)
*Format: mp3@CBR320kbps
*Size: 82MB

Tracklist:
1. We are Together 03:43
2. I Want Your Love 03:15
3. Candle in the Dark 04:39
4. Hot Wheels 03:42
5. All Night Long 03:51
6. Mean Business 03:33
7. Thunder and Lightning 03:20
8. I Lead My Life 04:36
9. One Night Stands 03:30
10. Down the Alley 03:22
******************************
Total playing time: 37:31

Extended info


(IMG:http://metalarea.org/images/spectrogram/2012_Aug/a85f90110a033948ca51f862d03caab2.png)
Input File: 02 из Six Feet Under - Eruption.mp3
Channels : 2
Sample Rate : 44100
Precision : 16-bit
Duration : 00:03:17.82 = 8723862 samples = 14836.5 CDDA sectors
File Size : 7.91M
Bit Rate : 320k
Sample Encoding: MPEG audio (layer I, II or III)
Comments :
Title=I want your love
Artist=Six Feet Under
Album=Eruption
Tracknumber=02



Register


Go to the top of the page
  Insert nick Quick quote
+Quote Post

Reply to this topicStart new topic
1 User(s) are reading this topic (1 Guests and 0 Anonymous Users)
0 Members:

 



- Lo-Fi Version Support form
Copyrights and abuse reports form
Time is now: 29th February 2024 - 04:27:18