Welcome Guest ( Log In | Register )

Объявления

* gmail.com упорно продолжает считать почту с нас "unsolicited" и отбивает в том числе и письма активации, поэтому просьба использовать альтернативные почтовые ящики.
------------
* gmail.com continues reject all mail from us as "unsolicited" (activation mails too) therefore please use alternate mail servers.
> The Antiproduct - Fear Machine (2012), Melodic Death Metal/Metalcore
post Sep 2 2012, 02:20:41
Post #1

Serial Uploader
Group Icon
Group: V.I.P
Posts: 42,988
Releases: 41046
From: Lithuania
On Forums: 16 years 1 month
Thanks: 527629 time(s)
Lithuania


(IMG:http://metalarea.org/images/audiocovers/2012_Sep/acov_tid180925_thumb.jpg)

*Artist: The Antiproduct
*Album: Fear Machine
*Year: 2012
*Genre: Melodic Death Metal/Metalcore
*Country: Austria (IMG:http://metalarea.org/forum/style_images/flags/Austria.png)
*Format: mp3@CBR320kbps
*Size: 112MB

Tracklist:
01. Intro 00:25
02. Circle Of The Lost 03:33
03. Rise & Fall 04:30
04. G.O.D. 05:22
05. Fear Machine 05:28
06. My Life: 02:10
07. Forever In Silence 05:23
08. Symptoms Of Insanity 05:08
09. Praise The Whore 05:25
10. Down 04:57
11. Thy Kingdumb 05:33
12. My Sweet Hroine 04:30
******************************
Total playing time: 52:24

(IMG:http://metalarea.org/images/myspace.png)

Extended info


(IMG:http://metalarea.org/images/spectrogram/2012_Sep/be81b4aa4f1c1a9abb2a434cf7533815.png)
Input File: 02-Circle Of The Lost.mp3
Channels : 2
Sample Rate : 44100
Precision : 16-bit
Duration : 00:03:33.94 = 9434842 samples = 16045.6 CDDA sectors
File Size : 8.56M
Bit Rate : 320k
Sample Encoding: MPEG audio (layer I, II or III)
Comments :
Title=Circle Of The Lost
Artist=The Antiproduct
Album=Fear Machine
Tracknumber=2/12



Register


Go to the top of the page
  Insert nick Quick quote
+Quote Post
 
Start new topic
Replies (1 - 2)
post Sep 2 2012, 07:40:50
Post #2

MDM-Thrash Metal
**************
Group: Металариец
Posts: 12,536
Releases: 1748
From: Одесса
On Forums: 16 years 11 months
Thanks: 40590 time(s)
Ukraine


Музыка неплоха, но вот коровый вокал...блин все портит, к сожалению!
Go to the top of the page
  Insert nick Quick quote
+Quote Post
post Sep 2 2012, 10:13:07
Post #3

Ъ
**************
Group: Металариец
Posts: 11,236
Releases: 9
On Forums: 15 years 6 months
Thanks: 2280 time(s)
Sweden


шаблонный материал, шифт+дел
Go to the top of the page
  Insert nick Quick quote
+Quote Post

Reply to this topicStart new topic
1 User(s) are reading this topic (1 Guests and 0 Anonymous Users)
0 Members:

 



- Lo-Fi Version Support form
Copyrights and abuse reports form
Time is now: 22nd July 2024 - 07:59:12