Welcome Guest ( Log In | Register )

> Poison Mask - Graveyard World [ep] (2012), Blackened Thrash Metal/Punk
post Sep 4 2012, 22:06:57
Post #1

Правь статус, ####!111
**************
Group: Металариец
Posts: 2,679
Releases: 2012
From: The Negative Material Plane
On Forums: 15 years 2 months
Thanks: 21158 time(s)
United States


(IMG:http://metalarea.org/images/audiocovers/2012_Sep/acov_tid181132_thumb.jpg)

*Artist: Poison Mask
*Album: Graveyard World [ep]
*Year: 2012
*Genre: Blackened Thrash Metal/Punk
*Country: Finland (IMG:http://metalarea.org/forum/style_images/flags/Finland.png) / Italy (IMG:http://metalarea.org/forum/style_images/flags/Italy.png)
*Format: mp3@CBR320kbps
*Size: 35MB

Tracklist:
1. Graveyard World 03:02
2. Total Cataclysm 03:16
3. Dead to this Race 02:43
4. Incoming Extinction 03:02
******************************
Total playing time: 12:03

(IMG:http://metalarea.org/images/myspace.png)


Extended info


(IMG:http://metalarea.org/images/spectrogram/2012_Sep/b7572f9f76027e5badf67fd792c37959.png)
Input File: 2. Total Cataclysm.mp3
Channels : 2
Sample Rate : 44100
Precision : 16-bit
Duration : 00:03:16.76 = 8676984 samples = 14756.8 CDDA sectors
File Size : 7.87M
Bit Rate : 320k
Sample Encoding: MPEG audio (layer I, II or III)
Comments :
Title=Total Cataclysm
Artist=Poison Mask
Album=Graveyard World
Tracknumber=2
Year=2012
Genre=Blackened Speed Metal



Register


Go to the top of the page
  Insert nick Quick quote
+Quote Post
 
Start new topic
Replies (1 - 2)
post Sep 5 2012, 17:06:56
Post #2

Total peace
**
Group: Завсегдатай
Posts: 170
Releases: 18
From: Ё
On Forums: 16 years 2 months
Thanks: 259 time(s)
Russian Federation


Чотко! (IMG:style_emoticons/default/25.gif)
Go to the top of the page
  Insert nick Quick quote
+Quote Post
post Sep 6 2012, 14:53:15
Post #3

Trickster
Group Icon
Group: V.I.P
Posts: 6,352
Releases: 322
On Forums: 13 years 3 weeks
Thanks: 15145 time(s)
Russian Federation


По превьюхе могу отметить, что ребята очень любят олдскульный панк-рок! Счас послушаем-с и весь релиз (IMG:style_emoticons/default/smile1.gif)
Go to the top of the page
  Insert nick Quick quote
+Quote Post

Reply to this topicStart new topic
1 User(s) are reading this topic (1 Guests and 0 Anonymous Users)
0 Members:

 



- Lo-Fi Version Support form
Copyrights and abuse reports form
Time is now: 3rd March 2024 - 07:30:37