Welcome Guest ( Log In | Register )

> Beastplague - Manifestation [ep] (2012), Death Metal/Grindcore
post Sep 6 2012, 07:33:05
Post #1

Аннигилятор пивА
Group Icon
Group: V.I.P
Posts: 52,548
Releases: 16538
From: Koenigsberg - TILZIT
On Forums: 17 years 9 months
Thanks: 371642 time(s)
Russian Federation


(IMG:http://metalarea.org/images/audiocovers/2012_Sep/acov_tid181236_thumb.jpg)

*Artist: Beastplague
*Album: Manifestation [ep]
*Year: 2012
*Genre: Death Metal/Grindcore
*Country: United States (IMG:http://metalarea.org/forum/style_images/flags/United%20States.png)
*Format: mp3@CBR320kbps
*Size: 16MB

Tracklist:
1.Lapse of Sanity 00:35
2.Crown of Scorn 01:12
3.Born of Sin 01:25
4.Drained of Life 00:45
5.Labyrinth of Torture 00:52
6.World of Filth 00:55
7.Feast of Locusts 01:00
******************************
Total playing time: 6:44

Extended info
3-Piece Grind/Death Metal band from Broward County, Florida.


(IMG:http://metalarea.org/images/spectrogram/2012_Sep/8418f994320d7889ebb191b8466b47e9.png)
Input File: 03. Born of Sin.mp3
Channels : 2
Sample Rate : 48000
Precision : 16-bit
Duration : 00:01:25.80 = 4118544 samples ~ 6435.22 CDDA sectors
File Size : 3.43M
Bit Rate : 320k
Sample Encoding: MPEG audio (layer I, II or III)
Comments :
Title=Born of Sin
Artist=Beastplague
Album=Manifestation
Tracknumber=03
Year=2012
Genre=Death Metal/Grind


Register


This post has been edited by satanath: Sep 6 2012, 07:55:36


Go to the top of the page
  Insert nick Quick quote
+Quote Post
 
Start new topic
Replies (1 - 1)
post Sep 6 2012, 16:00:25
Post #2

Два Литра
**
Group: Завсегдатай
Posts: 156
Releases: 0
On Forums: 13 years 6 months
Thanks: 31 time(s)
Unknown






Thanks:
(1) BioMax,
Go to the top of the page
  Insert nick Quick quote
+Quote Post

Reply to this topicStart new topic
1 User(s) are reading this topic (1 Guests and 0 Anonymous Users)
0 Members:

 



- Lo-Fi Version Support form
Copyrights and abuse reports form
Time is now: 5th March 2024 - 11:51:37