Welcome Guest ( Log In | Register )

 
Reply to this topicStart new topic
> Subscale - Fictional Constructs [ep] (2012), Experimental Metalcore/Groove Metal/Djent
post Sep 6 2012, 17:03:22
Post #1

Serial Uploader
Group Icon
Group: V.I.P
Posts: 42,058
Releases: 40128
From: Lithuania
On Forums: 15 years 8 months
Thanks: 511573 time(s)
Lithuania


(IMG:http://metalarea.org/images/audiocovers/2012_Sep/acov_tid181269_thumb.jpg)

*Artist: Subscale
*Album: Fictional Constructs [ep]
*Year: 2012
*Genre: Experimental Metalcore/Groove Metal/Djent
*Country: Croatia (IMG:http://metalarea.org/forum/style_images/flags/Croatia.png)
*Format: mp3@CBR320kbps
*Size: 54MB

Tracklist:
01. Antecedent 04:36
02. Fictional Constructs 03:55
03. Realization 05:45
04. Antecedent_v1.2 (Remix By Kodin) 04:04
05. Fictional Constructs_v2.0 (Electrocution Remix By Deimos) 03:26
******************************
Total playing time: 21:46



Extended info


(IMG:http://metalarea.org/images/spectrogram/2012_Sep/0acfb2a1baa9ba9b8fba7b121e6c0675.png)
Input File: 01. Antecedent.mp3
Channels : 2
Sample Rate : 44100
Precision : 16-bit
Duration : 00:04:36.87 = 12210143 samples = 20765.5 CDDA sectors
File Size : 12.3M
Bit Rate : 357k
Sample Encoding: MPEG audio (layer I, II or III)
Comments :
Title=Antecedent
Artist=Subscale
Album=Fictional Constructs EP
Tracknumber=1
Year=2012
Genre=Metal



Register


Thanks:
Go to the top of the page
  Insert nick Quick quote
+Quote Post

Reply to this topicStart new topic
1 User(s) are reading this topic (1 Guests and 0 Anonymous Users)
0 Members:

 



- Lo-Fi Version Support form
Copyrights and abuse reports form
Time is now: 5th March 2024 - 11:26:12