Welcome Guest ( Log In | Register )

> Votnut - Votnut [ep] (2012), Blackened Grindcore
post Sep 22 2012, 23:49:19
Post #1

Serial Uploader
Group Icon
Group: V.I.P
Posts: 42,002
Releases: 40072
From: Lithuania
On Forums: 15 years 8 months
Thanks: 510832 time(s)
Lithuania


(IMG:http://metalarea.org/images/audiocovers/2012_Sep/acov_tid182801_thumb.jpg)

*Artist: Votnut
*Album: Votnut [ep]
*Year: 2012
*Genre: Blackened Grindcore
*Country: United States (IMG:http://metalarea.org/forum/style_images/flags/United%20States.png)
*Format: mp3@CBR320kbps
*Size: 19MB

Tracklist:
01. Cornered 00:55
02. All Is Cold 01:37
03. Wallow Within 02:03
04. World We Kill 01:32
05. Vultures Prey 01:33
06. Amongst The Dead 01:10
******************************
Total playing time: 8:50



Extended info
Released by Antithetic Records/Anti Human Awakening Rec.

(IMG:http://metalarea.org/images/spectrogram/2012_Sep/1099bf45d7f3a2f299cc7997fdfcb1b9.png)
Input File: 02 All Is Cold.mp3
Channels : 2
Sample Rate : 48000
Precision : 16-bit
Duration : 00:01:37.37 = 4673664 samples ~ 7302.6 CDDA sectors
File Size : 4.01M
Bit Rate : 330k
Sample Encoding: MPEG audio (layer I, II or III)
Comments :
Title=All Is Cold
Artist=Votnut
Album=Votnut EP
Tracknumber=2/6
Year=2012



Register


Go to the top of the page
  Insert nick Quick quote
+Quote Post
 
Start new topic
Replies (1 - 1)
post Jan 26 2018, 19:04:05
Post #2

Два Литра
**
Group: Завсегдатай
Posts: 156
Releases: 0
On Forums: 13 years 6 months
Thanks: 31 time(s)
Unknown


Could someone reupload this??


Thanks:
Go to the top of the page
  Insert nick Quick quote
+Quote Post

Reply to this topicStart new topic
1 User(s) are reading this topic (1 Guests and 0 Anonymous Users)
0 Members:

 



- Lo-Fi Version Support form
Copyrights and abuse reports form
Time is now: 29th February 2024 - 04:16:14