Welcome Guest ( Log In | Register )

 
Reply to this topicStart new topic
> Korium - Symbol Vlčej Hlavy [demo] (2012), Black Metal
post Oct 8 2012, 17:24:31
Post #1

Правь статус, ####!111
**************
Group: Металариец
Posts: 2,976
Releases: 423
On Forums: 13 years 7 months
Thanks: 14336 time(s)
Germany


(IMG:http://metalarea.org/images/audiocovers/2012_Oct/acov_tid184087_thumb.jpg)

*Artist: Korium
*Album: Symbol Vlčej Hlavy [demo]
*Year: 2012
*Genre: Black Metal
*Country: Slovakia (IMG:http://metalarea.org/forum/style_images/flags/Slovakia.png)
*Format: mp3@CBR320kbps
*Size: 51MB

Tracklist:
1. Symbol Vlčej Hlavy Pt. 1
2. Symbol Vlčej Hlavy Pt. 2
******************************
Total playing time: 21:50

Extended info


(IMG:http://metalarea.org/images/spectrogram/2012_Oct/0d79dffcbd106f14c967e7e915b1758b.png)
Input File: 01 - Symbol Vlcej Hlavy Pt. 1.mp3
Channels : 2
Sample Rate : 44100
Precision : 16-bit
Duration : 00:11:04.37 = 29298717 samples = 49827.8 CDDA sectors
File Size : 26.6M
Bit Rate : 320k
Sample Encoding: MPEG audio (layer I, II or III)
Comments :
Title=Symbol VlГЁej Hlavy Pt. 1
Artist=Korium
Album=Symbol VlГЁej Hlavy
Tracknumber=1
Year=2012
Genre=Black Metal


Register


Go to the top of the page
  Insert nick Quick quote
+Quote Post

Reply to this topicStart new topic
1 User(s) are reading this topic (1 Guests and 0 Anonymous Users)
0 Members:

 



- Lo-Fi Version Support form
Copyrights and abuse reports form
Time is now: 25th June 2021 - 12:17:20