Welcome Guest ( Log In | Register )

 
Reply to this topicStart new topic
> Korium & Semai - Korium/Semai [split] (2012), Black Metal | Industrial/Noise
post Oct 8 2012, 17:43:54
Post #1

Правь статус, ####!111
**************
Group: Металариец
Posts: 2,976
Releases: 423
On Forums: 13 years 7 months
Thanks: 14336 time(s)
Germany


(IMG:http://metalarea.org/images/audiocovers/2012_Oct/acov_tid184093_thumb.jpg)

*Artist: Korium & Semai
*Album: Korium/Semai [split]
*Year: 2012
*Genre: Black Metal | Industrial/Noise
*Country: Slovakia (IMG:http://metalarea.org/forum/style_images/flags/Slovakia.png) | Czech Republic (IMG:http://metalarea.org/forum/style_images/flags/Czech%20Republic.png)
*Format: mp3@CBR320kbps
*Size: 90MB

Tracklist:
Korium:
1. Les Pod Nočným Tieňom

Semai:
2. KTKMB Part 1
3. KTKMB Part 2
******************************
Total playing time: 38:30

Extended info


(IMG:http://metalarea.org/images/spectrogram/2012_Oct/c0fa02c71cee06067224c173fddb5c84.png)
Input File: 01 - Korium - Les Pod Nocnym Tienom.mp3
Channels : 2
Sample Rate : 44100
Precision : 16-bit
Duration : 00:17:32.29 = 46406033 samples = 78921.8 CDDA sectors
File Size : 42.1M
Bit Rate : 320k
Sample Encoding: MPEG audio (layer I, II or III)
Comments :
Title=Les Pod NoГЁnГЅm TieГІom
Artist=Korium
Album=Split with Semai
Tracknumber=1
Year=2012
Genre=Black Metal


Register


This post has been edited by satanath: Oct 8 2012, 17:49:10


Go to the top of the page
  Insert nick Quick quote
+Quote Post

Reply to this topicStart new topic
1 User(s) are reading this topic (1 Guests and 0 Anonymous Users)
0 Members:

 



- Lo-Fi Version Support form
Copyrights and abuse reports form
Time is now: 25th June 2021 - 10:17:51