Welcome Guest ( Log In | Register )

> Within Temptation - Paradise [single] (2012), Melodic/Symphonic Metal
post Oct 14 2012, 00:30:47
Post #1

Serial Uploader
Group Icon
Group: V.I.P
Posts: 42,048
Releases: 40118
From: Lithuania
On Forums: 15 years 8 months
Thanks: 511424 time(s)
Lithuania


(IMG:http://metalarea.org/images/audiocovers/2012_Oct/acov_tid184570_thumb.jpg)

*Artist: Within Temptation
*Album: Paradise [single]
*Year: 2012
*Genre: Melodic/Symphonic Metal
*Country: Netherlands (IMG:http://metalarea.org/forum/style_images/flags/Netherlands.png)
*Format: mp3@CBR320kbps
*Size: 7MB

Tracklist:
01. Paradise (Coldplay Cover) 03:23
******************************
Total playing time: 3:23

(IMG:http://metalarea.org/images/myspace.png)

Extended info


(IMG:http://metalarea.org/images/spectrogram/2012_Oct/093a7e2a6e9f39592d21a91c3cac7da1.png)
Input File: 01. Within Temptation – Paradise (Coldplay cover).mp3
Channels : 2
Sample Rate : 44100
Precision : 16-bit
Duration : 00:03:24.07 = 8999443 samples = 15305.2 CDDA sectors
File Size : 8.16M
Bit Rate : 320k
Sample Encoding: MPEG audio (layer I, II or III)
Comments :
Title=Paradise (Coldplay cover)
Artist=Within Temptation
Tracknumber=1
Year=2012
Genre=Symphonic Metal


Register


Go to the top of the page
  Insert nick Quick quote
+Quote Post
 
Start new topic
Replies (1 - 3)
post Oct 15 2012, 07:58:38
Post #2

Три Литра
***
Group: Завсегдатай
Posts: 287
Releases: 0
On Forums: 15 years 6 months
Thanks: 55 time(s)
Australia


сингл вышел из-за участия в трибуте каком судя по (Coldplay Cover)? Не очень то чтобы и хит - середнячёк.
Go to the top of the page
  Insert nick Quick quote
+Quote Post
post Oct 15 2012, 08:03:46
Post #3

Снаружи твердый, внутри мягкий
****
Group: Металариец
Posts: 378
Releases: 26
From: Россия
On Forums: 16 years 1 week
Thanks: 360 time(s)
Russian Federation


Не-а. Не трибьют.

С офф.сайта:

"This fall, we will reveal a unique cover every week on Q-Music. Heading towards our 15-years-anniversary concert in Sportpaleis Antwerp, we figured this would be a great occasion to do something special for our you. It will be a musical adventure as we are covering songs that are very close to us but also songs that are not close to us at all.

On Fridays you can hear the new cover of the week on Q-Music Belgium, in ‘De Ochtendshow’ between 7.30 and 8.00 AM (GMT+1).


On Thursdays you can hear the cover of the week on Q-Music Netherlands, in ‘Jeroen van Inkel in de Middag’ between 6.00 and 7.00 PM (GMT+1). "
Go to the top of the page
  Insert nick Quick quote
+Quote Post
post Oct 15 2012, 08:13:53
Post #4
BAN
Banned till
Feb 13 2024, 13:52:53



Каждую неделю по коверу. Неплохо. Слухнём. Хоть я уже и не фанат WT и их новых песен, но Шарон мне нравится как женщина, так что необходимо будет прослушать всё это.
Go to the top of the page
  Insert nick Quick quote
+Quote Post

Reply to this topicStart new topic
1 User(s) are reading this topic (1 Guests and 0 Anonymous Users)
0 Members:

 



- Lo-Fi Version Support form
Copyrights and abuse reports form
Time is now: 3rd March 2024 - 11:13:04