Welcome Guest ( Log In | Register )

> Beyond Dawn - Bygones [best of/compilation] (2009), Dark/Black Metal (D11)
post Oct 19 2012, 18:36:09
Post #1

Black Metal Terrorist
**
Group: Завсегдатай
Posts: 152
Releases: 21
From: darkabyss.org
On Forums: 10 years 5 months
Thanks: 916 time(s)
Costa Rica


(IMG:http://metalarea.org/images/audiocovers/2012_Oct/acov_tid185014_thumb.jpg)

*Artist: Beyond Dawn
*Album: Bygones [best of/compilation]
*Year: 2009
*Genre: Dark/Black Metal
*Country: Norway (IMG:http://metalarea.org/forum/style_images/flags/Norway.png)
*Format: mp3@CBR320kbps
*Size: 107MB

Tracklist:
1. Cold
2. Moonwomb
3. Chaosphere
4. Clouds Swept Away the Colours
5. Strained, Down and Under
6. Bygone
7. Utopia
8. Glass Desert
9. The Sound of Wings
10. The Tempest
******************************
Total playing time: 46:01

(IMG:http://metalarea.org/images/myspace.png)

Extended info
Tracks 1-4 from "Longing For Scarlet Days" EP
Tracks 5-6 from "Up Through the Linear Shades" EP
Track 7-8 unreleased
Track 9-10 from "Heavens Dark Reflection"

Released in cooperation with Vendlus Records.
Catalogue numbers: Duplo26/Vend039.

(IMG:http://metalarea.org/images/spectrogram/2012_Oct/42f7d86c9ec6e53cb0074f7942624523.png)
Input File: 02 - Moonwomb.mp3
Channels : 2
Sample Rate : 44100
Precision : 16-bit
Duration : 00:03:18.73 = 8764081 samples = 14904.9 CDDA sectors
File Size : 7.95M
Bit Rate : 320k
Sample Encoding: MPEG audio (layer I, II or III)
Comments :
Title=Moonwomb
Artist=Beyond Dawn
Album=Bygones
Tracknumber=02
Year=2009
Genre=Metal
Discnumber=1



Register


Go to the top of the page
  Insert nick Quick quote
+Quote Post
 
Start new topic
Replies (1 - 7)
post Oct 19 2012, 22:01:16
Post #2

Маньяк
**********
Group: Металариец
Posts: 1,335
Releases: 37
From: Pietari
On Forums: 16 years 5 months
Thanks: 2206 time(s)
Russian Federation


что за бред в стиле? (IMG:style_emoticons/default/17.gif) ничего похожего на black у Beyond Dawn никогда и близко не было, ранние записи doom-death ещё как-то можно назвать, но никак не black
Go to the top of the page
  Insert nick Quick quote
+Quote Post
post Oct 19 2012, 22:07:16
Post #3

Black Metal Terrorist
**
Group: Завсегдатай
Posts: 152
Releases: 21
From: darkabyss.org
On Forums: 10 years 5 months
Thanks: 916 time(s)
Costa Rica


ЦИТАТА(AlexCrazy @ Oct 19 2012, 22:01:16) *
что за бред в стиле? (IMG:style_emoticons/default/17.gif) ничего похожего на black у Beyond Dawn никогда и близко не было, ранние записи doom-death ещё как-то можно назвать, но никак не black

Товарищь, никакого бреда (IMG:style_emoticons/default/1488.gif) , первые демки именно дарк с блэком... дума там не наблюдается (демонстрационные композиции)
Go to the top of the page
  Insert nick Quick quote
+Quote Post
post Oct 19 2012, 22:33:36
Post #4

кубики решают, ага!
*****
Group: Металариец
Posts: 464
Releases: 0
On Forums: 11 years 9 months
Thanks: 163 time(s)
Unknown


Кстати да. Не думал, что раннее творчество сабжа будет настолько отличаться от шедевров вроде "Облаков"...
Go to the top of the page
  Insert nick Quick quote
+Quote Post
post Oct 8 2016, 16:45:51
Post #5

Два Литра
**
Group: Завсегдатай
Posts: 133
Releases: 0
On Forums: 13 years 2 months
Thanks: 12 time(s)
Russian Federation


Can someone please re-up this? I have the Scarlet EP, but there are tracks I've never heard on this compilation.
Go to the top of the page
  Insert nick Quick quote
+Quote Post
post Sep 23 2017, 15:15:51
Post #6

Два Литра
**
Group: Завсегдатай
Posts: 133
Releases: 0
On Forums: 13 years 2 months
Thanks: 12 time(s)
Russian Federation


Someone help me out?
Go to the top of the page
  Insert nick Quick quote
+Quote Post
post Jun 28 2020, 17:16:18
Post #7

Два Литра
**
Group: Завсегдатай
Posts: 171
Releases: 0
On Forums: 12 years 5 months
Thanks: 266 time(s)
Unknown


Not my rip (320kbps):

Register


Thanks:
Go to the top of the page
  Insert nick Quick quote
+Quote Post
post Sep 24 2021, 15:08:05
Post #8

Group: Подсевший
Posts: 49
Releases: 0
On Forums: 2 years 8 months
Thanks: 4 time(s)
Russian Federation


Ищу этот релиз во FLAC, APE или любом другом lossless-качестве. Буду очень благодарен, если кто-нибудь поделится со мной этой компиляцией в качестве без потерь.
Go to the top of the page
  Insert nick Quick quote
+Quote Post

Reply to this topicStart new topic
1 User(s) are reading this topic (1 Guests and 0 Anonymous Users)
0 Members:

 



- Lo-Fi Version Support form
Copyrights and abuse reports form
Time is now: 24th May 2022 - 20:24:00