Welcome Guest ( Log In | Register )

Объявления

* gmail.com упорно продолжает считать почту с нас "unsolicited" и отбивает в том числе и письма активации, поэтому просьба использовать альтернативные почтовые ящики.
------------
* gmail.com continues reject all mail from us as "unsolicited" (activation mails too) therefore please use alternate mail servers.
> Sand Aura - Elegy Of The Orient (2012), Avant-Garde Black/Doom/Folk Metal
post Oct 23 2012, 09:24:49
Post #1

Serial Uploader
Group Icon
Group: V.I.P
Posts: 42,638
Releases: 40702
From: Lithuania
On Forums: 15 years 11 months
Thanks: 521653 time(s)
Lithuania


(IMG:http://metalarea.org/images/audiocovers/2012_Oct/acov_tid185318_thumb.jpg)

*Artist: Sand Aura
*Album: Elegy Of The Orient
*Year: 2012
*Genre: Avant-Garde Black/Doom/Folk Metal
*Country: Egypt (IMG:http://metalarea.org/forum/style_images/flags/Egypt.png)
*Format: mp3@CBR320kbps
*Size: 96MB

Tracklist:
01. The Sand Aura (From The Land Of Nod) 11:27
02. Aljahelia 08:07
03. The Orphaned Child I (Pilgrimage For His Name) 06:09
04. The Orphaned Child II (Fountain In The Desert) 06:01
05. Fountains Of Moses 03:28
06. Ya Sabbya 02:22
07. The Shepherd's Elegy 09:02
08. Sidi Abd El-Raheem 02:20
******************************
Total playing time: 48:56

(IMG:http://metalarea.org/images/myspace.png)
(IMG:http://metalarea.org/images/youtube.png)

Extended info


(IMG:http://metalarea.org/images/spectrogram/2012_Oct/0283ba43881b0d3cb3354a021cc0146d.png)
Input File: 01. The Sand Aura (From The Land Of Nod).mp3
Channels : 2
Sample Rate : 44100
Precision : 16-bit
Duration : 00:11:28.00 = 30340800 samples = 51600 CDDA sectors
File Size : 27.5M
Bit Rate : 320k
Sample Encoding: MPEG audio (layer I, II or III)
Comments :
Title=The Sand Aura (From The Land Of Nod)
Artist=Sand Aura
Album=Elegy Of The Orient
Tracknumber=01
Year=2012
Genre=Metal



Register


Go to the top of the page
  Insert nick Quick quote
+Quote Post
 
Start new topic
Replies (1 - 5)
post Oct 23 2012, 10:58:35
Post #2

Правь статус, ####!111
**************
Group: Металариец
Posts: 2,515
Releases: 6
From: Kyiv
On Forums: 16 years 6 months
Thanks: 326 time(s)
Ukraine


первый нах! предчувствую качество!!!


Thanks:
(1) Aresson,
Go to the top of the page
  Insert nick Quick quote
+Quote Post
post Oct 23 2012, 11:42:21
Post #3

Аннигилятор пивА
Group Icon
Group: V.I.P
Posts: 52,567
Releases: 16538
From: Koenigsberg - TILZIT
On Forums: 18 years 4 days
Thanks: 371955 time(s)
Russian Federation


Oriental(Middle Eastern) Progressive(Extreme) Metal (блэка и дума тут вряд-ли, это честные иудеи, богобоязненные (IMG:style_emoticons/default/1488.gif) наверно из-за шероховато-грязноватой записи сей термин незаслуженно прилепился, а дум вообще непонятно почему, (IMG:style_emoticons/default/bye.gif) скорее уж дэт вместо них) и год конечно 2011, ну и коли это переиздание(епихи кстати) то оформуга другая, эта с оригинального Ep (кстати он вроде был на форуме (IMG:style_emoticons/default/fear.gif) непонятно куда делся)

Re-Issued Ep in 2012 by Haarbn Productions with a new cover and 2 bonustracks.
1. The Sand Aura (From the Land of Nod)
2. Aljahelia
3. The Orphaned Child: Pt. I (Pilgrimage for His Name)
4. The Orphaned Child: Pt. II (Fountain in the Desert)
5. Fountain of Moses
6. Ya-Sabyya
Bonustracks (Re-Issued 2012)
7. The Shepherd's Elegy
8. Sidi Abd El-Raheem


Thanks:
(1) RENыч,
Go to the top of the page
  Insert nick Quick quote
+Quote Post
post Oct 23 2012, 14:59:31
Post #4

┐( ̄ー ̄)┌
******
Group: Металариец
Posts: 582
Releases: 0
On Forums: 15 years 3 months
Thanks: 492 time(s)
Russian Federation


Да уж, но MediaFire ссылку уже уничтожили. Совсем озверели в последнее время. Туда, похоже, нужно теперь запароленные архивы выкладывать с аббревиатурными названиями.
Go to the top of the page
  Insert nick Quick quote
+Quote Post
post Oct 29 2012, 05:51:52
Post #5

Два Литра
**
Group: Завсегдатай
Posts: 126
Releases: 6
From: Санкт Петербург
On Forums: 17 years 7 months
Thanks: 199 time(s)
Russian Federation


Удручает сочетание красивого и интересного материала с тупой пластмассовой драм-машиной... =(


Thanks:
(1) Tankard,
Go to the top of the page
  Insert nick Quick quote
+Quote Post
post Oct 30 2012, 16:36:06
Post #6

PEACEDEATH
**************
Group: Металариец
Posts: 7,209
Releases: 62
From: Турция
On Forums: 14 years 6 months
Thanks: 10013 time(s)
Turkey


Register


чёт ссыли быстро дохнут


Go to the top of the page
  Insert nick Quick quote
+Quote Post

Reply to this topicStart new topic
1 User(s) are reading this topic (1 Guests and 0 Anonymous Users)
0 Members:

 



- Lo-Fi Version Support form
Copyrights and abuse reports form
Time is now: 30th May 2024 - 23:08:37